#TITLE:rohga...;
#SUBTITLE:;
#ARTIST:かめりあ;
#TITLETRANSLIT:;
#SUBTITLETRANSLIT:;
#ARTISTTRANSLIT:Camellia;
#GENRE:;
#CREDIT:;
#MUSIC:[Round E] - rohga.ogg;
#BANNER:[Round E] - rohga-banner.png;
#BACKGROUND:[Round E] - rohga-background.png;
#CDTITLE:./CDTITLES/.PNG;
#SAMPLESTART:68.485;
#SAMPLELENGTH:15.478;
#SELECTABLE:YES;
#OFFSET:0.000;
#BPMS:0.000=170.000;
#STOPS:;
#BGCHANGES:;
#FGCHANGES:;

//--------------- dance-single - forcednature ----------------
#NOTES:
     dance-single:
     forcednature:
     Beginner:
     3:
     0,0,0,0,0:
0000
0000
0000
0000
,
0000
0000
0000
0000
,
0000
0000
0000
0000
,
0000
0000
0000
0000
,
0000
0000
0000
1000
0000
0000
0000
0020
,
0000
0000
0000
0130
0000
0000
0000
0002
,
0000
0000
0000
1003
0000
0000
0000
0200
,
0000
0000
0000
0310
0000
0000
0000
0002
,
0000
0000
0000
1003
0000
0000
0000
0000
,
0020
0000
0000
0000
0000
0000
0000
0230
,
0000
0000
0301
0000
,
2000
0000
0000
0000
0000
0000
0000
3100
,
0000
0000
0000
0010
0000
0000
0000
0002
,
0000
0000
0000
0103
0000
0000
0000
0020
,
0000
0000
0000
1030
0000
0000
0000
0002
,
0000
0000
0000
1003
0000
0000
0000
0200
,
0000
0000
0000
0300
,
1000
0010
1000
0000
,
0001
0100
0001
0000
,
1000
0100
1000
0000
,
0001
0010
0001
0000
,
1000
0010
1000
0000
,
0001
0100
0001
0000
,
1000
0100
1000
0000
,
0001
0010
0001
0000
,
0100
0010
0100
0000
,
0100
1000
0100
0000
,
0100
0001
0100
0000
,
0100
0010
0100
0000
,
0010
1000
0010
1000
,
0001
0100
0001
0100
,
0010
0010
0010
0010
,
0010
0000
0000
0000
,
1000
1000
1000
0000
,
0010
0100
0001
0100
,
0010
0010
0010
0000
,
1000
1000
1000
0001
,
1000
0100
0010
0000
,
0001
1000
0001
1000
,
0010
0100
0001
0000
,
1000
0100
0010
0100
,
1000
0001
0010
0000
,
0001
1000
0010
0100
,
0001
0100
0010
0000
,
1000
0001
1000
0001
,
0100
0010
1000
0000
,
0100
0010
0001
1000
,
0010
0100
0001
0000
,
1000
0000
0001
0100
,
0001
0100
0010
1000
,
0010
1000
0001
0010
,
0100
1000
0100
0001
,
0100
1000
0010
0100
,
0001
0010
1000
0010
,
0001
1000
0010
0100
,
0001
0100
0010
1000
,
0100
0010
0100
1000
,
0001
1000
0010
0100
,
0001
1000
0100
0010
,
0100
1000
0001
1000
,
0010
0100
0001
1000
,
0001
0010
0100
1000
,
0100
0001
0100
1000
,
0010
0100
1000
0100
,
0001
1000
0001
0000
,
1000
1000
0010
0100
,
0001
0001
1000
0100
,
0010
0010
0100
1000
,
0010
0010
0100
0001
,
0100
0100
0010
1000
,
0100
0100
0010
0001
,
0100
0100
0001
1000
,
0100
0100
1000
0001
,
1000
0001
1000
0001
,
0010
0100
0010
0100
,
1000
0001
1000
0001
,
0100
0010
0100
0010
,
1000
0010
0001
0100
,
1000
0010
0001
0100
,
0010
0010
0010
0010
,
0200
0000
0000
0300
,
1001
0000
0000
0000
;

//--------------- dance-single - forcednature ----------------
#NOTES:
     dance-single:
     forcednature:
     Easy:
     6:
     0,0,0,0,0:
0000
0000
0000
0000
,
0000
0000
0000
0000
,
0000
0000
0000
0000
,
0000
0000
0000
0000
,
0000
0000
0000
0000
1000
0001
0100
0002
,
0000
0000
0000
0000
1003
0010
1000
0002
,
0000
0000
0000
0003
0010
0100
1000
0200
,
0000
0000
0000
0300
0010
0001
0000
1000
,
0000
0001
0000
0100
0000
0010
0000
0000
,
0200
0000
0000
0000
0000
0301
1000
0020
,
0000
0000
0000
0000
1030
0001
0000
0010
,
0200
0000
0000
0000
0000
1300
0001
0200
,
0000
0000
0000
0310
1000
0001
0100
0020
,
0000
0000
0000
1030
0100
0010
0100
2000
,
0000
0000
0000
3001
0010
0100
1000
0002
,
0000
0000
0000
1003
0010
0100
0001
2000
,
0000
0000
0000
0000
0000
0000
0000
3000
,
0001
0100
0001
0000
1000
0000
1000
0000
,
0100
1000
0100
0000
0010
0000
0010
0000
,
0001
1000
0001
0000
1000
0000
1000
0000
,
0010
0100
0010
0000
1000
0000
1000
0000
,
0001
0010
0001
0000
0100
0000
0100
0000
,
0010
1000
0010
0000
0100
0000
0100
0000
,
0001
1000
0001
0000
0100
0000
0100
0000
,
0010
1000
0010
0000
1000
0000
1000
0000
,
1001
0000
1000
0100
1000
0000
0001
0000
,
0010
0000
0001
1000
0001
0000
0100
0000
,
0010
0000
1000
0001
1000
0000
0100
0000
,
1000
0000
0001
0010
0001
0000
1000
0000
,
0010
0000
0100
0000
0001
0000
1000
1100
,
0010
0000
0100
0000
0001
0000
0001
0101
,
1000
0001
0100
0010
,
2002
0000
0000
3003
,
1000
0101
1000
0101
,
0001
1100
0001
1100
,
0010
1000
0100
0001
,
1001
1001
0010
0000
,
0100
1001
1000
0010
,
0100
0001
1100
0101
,
0010
1000
0100
0001
,
0110
0110
0001
1000
,
1000
0001
0100
1001
,
0010
1001
0110
0110
,
1000
0011
0001
1010
,
0100
1001
0100
1001
,
0020
0030
1100
0000
0010
0000
0101
0000
,
0001
0000
1010
0000
0100
0100
1001
0000
,
0100
1100
0010
0011
,
0200
1300
0001
0100
,
0010
0000
1001
0000
1000
0100
0010
0000
,
0100
0000
1001
0000
0001
1000
0010
0000
,
0100
0000
1001
0000
0010
1000
0100
0000
,
0010
0000
1001
0000
0001
0010
0100
0000
,
1000
0000
0110
0000
0001
0010
1000
0000
,
0100
0000
1001
0000
1000
0010
0100
0000
,
0001
0000
0110
0000
0001
0010
1000
0000
,
0100
0000
1001
0000
1000
0100
0010
0000
,
0010
0000
1001
0000
1000
0100
0010
0000
,
0100
0000
1001
0000
0001
0010
0100
0000
,
0010
0000
1001
0000
1000
0010
0100
0000
,
0100
0000
1001
0000
0001
0100
0010
0000
,
1000
0100
0010
0000
0100
1000
0001
0000
,
0100
0001
1000
0000
0010
1000
0001
0000
,
0010
0100
1000
0000
0001
0100
0010
0000
,
0100
1001
0100
1001
,
1000
1000
1000
0000
0010
0100
0001
0000
,
0010
1100
0010
0101
,
0001
0001
0001
0000
1000
0010
0100
0000
,
0010
1001
0100
1001
,
1000
1000
1000
0000
0001
0100
0010
0000
,
0100
1001
0010
1001
,
0100
0100
0100
0000
0010
0001
1000
0000
,
0010
1001
0100
1001
,
0001
0010
0100
0000
1000
0001
0100
0000
,
0010
1000
0100
0000
0010
0001
1000
0000
,
0001
0100
0010
0000
1000
0100
0010
0000
,
0100
1000
0001
0000
0100
0001
1000
0000
,
0010
0000
1000
0000
0100
0000
0010
0001
,
0100
0000
0010
0000
1000
0000
0001
0010
,
0100
1000
0001
0100
0010
1000
0001
0010
,
0200
0000
0000
0300
,
1001
0000
0000
0000
;

//--------------- dance-single - forcednature ----------------
#NOTES:
     dance-single:
     forcednature:
     Medium:
     7:
     0,0,0,0,0:
0000
0000
0000
0000
,
0000
0000
0000
0000
,
0000
0000
0000
0000
,
0000
0000
0000
0000
,
0000
0000
0000
0000
0000
0000
0000
0000
0001
0000
0100
0000
0001
0000
0000
0100
0000
0000
0010
0000
0000
1000
0000
0000
,
0000
0000
0000
0000
0000
0000
0000
0000
0100
0000
1000
0000
0100
0000
0000
1000
0000
0000
0001
0000
0000
0010
0000
0000
,
0000
0000
0000
0000
0000
0000
0000
0000
0001
0000
0010
0000
0001
0000
0000
0010
0000
0000
0001
0000
0000
1000
0000
0000
,
0000
0000
0000
0010
0100
0001
0000
1000
,
0000
0001
0000
0100
0000
0010
0000
1000
,
0001
0000
0010
0000
0100
1000
0001
0100
,
0000
0000
0000
0010
0000
0000
0000
0000
0000
1000
0000
0000
0100
0000
0000
0010
0000
0000
0000
0000
0001
0000
0010
0000
,
0100
0000
1000
0000
0001
0100
0010
1000
,
0001
0000
0000
0000
0000
0000
1000
0000
0010
0000
0100
0000
0001
0000
0000
1000
0000
0000
0001
0000
0000
0100
0000
0000
,
0010
0000
0000
0000
0000
0000
1000
0000
0100
0000
0010
0000
0001
0000
0000
0100
0000
0000
0001
0000
0000
1000
0000
0000
,
0010
0000
0000
0000
0000
0000
0100
0000
0010
0000
0100
0000
0001
0000
0000
1000
0000
0000
0010
0000
0000
0100
0000
0000
,
0001
0000
0000
0000
0000
0000
1000
0000
0100
0000
0010
0000
0100
0000
0000
1000
0000
0000
0001
0000
0000
0100
0000
0000
,
0010
0010
0010
0010
,
1000
0010
0001
0000
0010
0000
1000
0000
,
0001
0010
0100
0000
1100
0000
0101
0000
,
0010
1000
0100
0000
0010
0001
0100
0000
,
0010
0010
0010
0000
1010
0000
0011
0000
,
0100
0001
0010
0000
0100
1000
0001
0000
,
1000
0010
0100
0000
0101
0000
1100
0000
,
0001
0010
0100
0000
1000
1000
1000
0000
,
0001
0100
0010
0000
1010
0000
0101
0000
,
1000
0100
0010
0000
0100
0100
0100
0100
,
1000
0001
0100
0000
0010
0010
0010
0010
,
1000
0001
0010
0000
0100
0100
0100
0100
,
1000
0001
0100
0000
0010
0010
0010
0000
,
1000
1000
0001
0001
1000
1000
0001
0001
,
0100
0100
0010
0010
0100
0100
0010
0010
,
1000
0001
1000
0001
1000
0001
1000
0001
,
0020
0000
0000
0030
,
1100
0101
1100
0101
,
0100
0010
1000
0000
0100
0000
1001
0000
,
0010
0001
0100
0000
0101
0000
1100
0000
,
0001
0010
1000
0010
0001
0000
1001
0000
,
1000
0010
0100
0000
0101
0000
1100
0000
,
0001
0010
0100
0000
1100
0000
0101
0000
,
1000
0010
0100
0000
0110
0000
0011
0000
,
1010
0011
1010
0011
,
1000
0100
0001
0000
0100
1000
0010
0000
,
0101
1100
1010
0011
,
1000
0001
0100
0001
0010
0001
1000
0000
,
0110
1010
0110
0011
,
2000
3000
0101
0000
1000
0100
0001
0000
,
0100
0010
0100
0000
1010
0000
0011
0000
,
1000
0010
0100
0000
0011
0000
1100
0000
,
0120
0000
0001
0030
1000
0100
0010
0100
,
1000
0000
0101
0000
0010
1000
0001
0100
,
0010
0000
0000
0000
0000
0000
1001
0000
0000
0000
0000
0000
1000
0000
0000
0001
0000
0000
1000
0000
0010
0000
1000
0000
,
0010
0000
0101
0000
1000
0100
0010
0100
,
1000
0000
0000
0000
0000
0000
0001
0000
1000
0000
0001
0000
1000
0000
0000
0010
0000
0000
0100
0000
0000
0000
0000
0000
,
0001
0000
0000
0000
0000
0000
1000
0000
0100
0000
1000
0000
0100
0000
0000
0010
0000
0000
0001
0000
0000
0000
0000
0000
,
0100
0000
0000
0000
0000
0000
0001
0000
1000
0000
0001
0000
1000
0000
0000
0010
0000
0000
1000
0000
0000
0000
0000
0000
,
0100
0000
0010
0001
1000
0100
0000
0110
,
0000
1100
0000
1001
0000
0011
0000
0100
,
1000
0000
1001
0000
1000
0010
0100
0001
,
0010
0000
0000
0000
0000
0000
1001
0000
0000
0000
0000
0000
0100
0000
0000
1000
0000
0000
0001
0000
0010
0000
0100
0000
,
1000
0000
1001
0000
1000
0010
0100
0001
,
0010
0000
0000
0000
0000
0000
0100
0000
1000
0000
0001
0000
0010
0000
0000
0100
0000
0000
1000
0000
0000
0000
0000
0000
,
0001
0000
0000
0000
0000
0000
1000
0000
0010
0000
0100
0000
0001
0000
0000
1000
0000
0000
0010
0000
0000
0000
0000
0000
,
0100
0000
0000
0000
0000
0000
0001
0000
1000
0000
0100
0000
0010
0000
0000
0100
0000
0000
1000
0000
0000
0000
0000
0000
,
0001
0000
0000
0000
0000
0000
1000
0000
0010
0000
0100
0000
0001
0000
0000
1000
0000
0000
0100
0000
0000
0000
0000
0000
,
0110
1100
0110
0011
,
1000
1000
1000
0000
0010
0100
0001
0000
,
0010
0010
0010
0000
0100
0000
0100
0000
,
0010
0010
1000
0000
0001
0001
0010
0000
,
0100
0100
1000
0000
0100
0000
0100
0000
,
0010
0010
0001
0000
1000
1000
0010
0000
,
0100
0100
0001
0000
0100
0000
0100
0000
,
0010
0010
1000
0000
0010
0010
0100
0000
,
0001
0001
0010
0000
0100
0000
0010
0000
,
0100
1000
0001
0000
1000
0000
0010
0000
,
0100
0001
0010
0000
0100
0000
1000
0000
,
0001
0010
0100
0000
1000
0000
0001
0000
,
1000
0010
0100
0000
0001
0000
1000
0000
,
0100
0010
0001
0000
1000
0010
0100
0000
,
0001
1000
0010
0000
0100
0001
1000
0000
,
0100
0001
0100
1000
,
0220
0000
0000
0330
,
1001
0000
0000
0000
;

//--------------- dance-single - forcednature ----------------
#NOTES:
     dance-single:
     forcednature:
     Hard:
     9:
     0,0,0,0,0:
0000
0000
0000
0000
,
0000
0000
0000
0000
,
0000
0000
0000
0000
,
0000
0000
0000
0000
,
0000
0000
0000
0000
0000
0000
0000
0000
0001
0000
0100
0000
0001
0000
0000
1000
0000
0000
0010
0000
0000
0200
0000
0000
,
0000
0000
0000
0000
0000
0000
0300
0000
0001
0000
1000
0000
0100
0000
0000
0010
0000
0000
0001
0000
0000
2000
0000
0000
,
0000
0000
0000
0000
0000
0000
3000
0000
0001
0000
0100
0000
0010
0000
0000
1000
0000
0000
0100
0000
0000
0020
0000
0000
,
0000
0000
0000
0000
0000
0000
0031
1000
0001
0000
0100
0000
0000
0000
0101
0000
,
0000
0000
1100
0000
0000
0000
1010
0000
0000
0000
0011
0000
0000
0000
0001
1000
,
0002
0000
0000
0000
0000
0103
0001
2000
,
0000
0000
0000
0000
0000
0000
0000
0000
0000
0000
0000
0000
3010
0000
0000
1000
0000
0000
0000
0000
0001
0000
0010
0000
,
0200
0000
0000
0000
0000
1300
0001
0200
,
0000
0000
0000
0000
0000
0000
0300
0000
0010
0000
1000
0000
0001
0000
0000
0010
0000
0000
0100
0000
0000
2000
0000
0000
,
0000
0000
0000
0000
0000
0000
3000
0000
0001
0000
0100
0000
0010
0000
0000
1000
0000
0000
0100
0000
0000
0020
0000
0000
,
0000
0000
0000
0000
0000
0000
0030
0000
0001
0000
1000
0000
0100
0000
0000
0010
0000
0000
0001
0000
0000
2000
0000
0000
,
0000
0000
0000
0000
0000
0000
3000
0000
0001
0000
0010
0000
0100
0000
0000
1000
0000
0000
0001
0000
0000
0200
0000
0000
,
0000
0000
0000
0000
0000
0000
0000
0300
,
1001
1000
0010
0100
0001
0010
0100
0000
,
1000
0001
1000
0100
0010
0001
1000
0000
,
0001
0100
0010
0100
1000
0100
0001
0000
,
1000
0100
0010
0100
1000
0010
0001
0000
,
0010
1000
0100
0001
0100
0010
0001
0000
,
1000
0010
0001
0010
1000
0100
0010
0000
,
0100
1000
0100
0001
0100
1000
0001
0000
,
1000
0001
0100
0001
0010
0001
1000
0000
,
1001
1000
0010
0100
0001
0010
0100
0000
,
1000
0001
0010
0100
1000
0001
0010
0000
,
0100
1000
0001
1000
0010
0100
0001
0000
,
1000
0100
0010
0100
1000
0001
0100
0000
,
0001
0100
0010
0100
0001
1000
0100
0010
,
0100
1000
0001
0010
0100
1000
0001
1000
,
0010
1000
0001
0100
0010
1000
0001
0100
,
2002
0000
0000
0000
0000
0000
0000
3003
,
1001
1001
1100
1100
,
0010
0001
0100
0001
0010
0000
0101
0000
,
1100
0000
1010
0000
1000
0100
0001
0100
,
1000
0010
0100
0000
0101
0000
1100
0000
,
0100
0010
0100
0001
0100
0010
0100
0000
,
0101
0000
1100
0000
0010
1000
0001
0010
,
0100
1100
0101
1001
,
0100
1000
0001
1000
0010
1000
0001
0100
,
0001
0101
0010
1001
,
0100
0010
0100
1000
0001
0010
0100
0000
,
1100
0101
1001
0110
,
1000
0100
0010
0100
1000
0001
0010
0000
,
0200
0300
1001
0000
1000
0010
0100
0001
,
1000
0100
0001
0100
0010
0010
0100
1000
,
0001
0000
1001
0000
1000
0010
0100
0001
,
0011
0000
1100
0000
1000
0010
0100
0001
,
0100
0000
1001
0000
1000
0100
0010
0100
,
1000
0000
0000
0000
0000
0000
0011
0000
0000
0000
0000
0000
1000
0000
0000
0001
0000
0000
0100
0000
0001
0000
1000
0000
,
0010
0000
1100
0000
0010
0001
1000
0100
,
0010
0000
0000
0000
0000
0000
0001
0000
1000
0000
0100
0000
0010
0000
0000
0100
0000
0000
1000
0000
0000
0001
0000
0000
,
0100
0000
0000
0000
0000
0000
0010
0000
1000
0000
0001
0000
0100
0000
0000
0010
0000
0000
1000
0000
0000
0001
0000
0000
,
1000
0000
0000
0000
0000
0000
0001
0000
0010
0000
0100
0000
1000
0000
0000
0100
0000
0000
1000
0000
0000
0001
0000
0000
,
0100
0000
0000
0000
0010
0000
1000
0010
1000
0000
0001
0000
0000
0000
1100
0000
,
0000
0000
0101
0000
0000
0000
0011
0000
0000
0000
1001
0000
0000
0000
0001
0010
,
0001
0000
1100
0000
1000
0010
0100
0001
,
0010
0000
0000
0000
0000
0000
1001
0000
0000
0000
0000
0000
0100
0000
0000
1000
0000
0000
0001
0000
0010
0000
0100
0000
,
1000
0000
0101
0000
1000
0010
0100
0001
,
0010
0000
0000
0000
0000
0000
0100
0000
1000
0000
0100
0000
0010
0000
0000
0001
0000
0000
1000
0000
0000
0010
0000
0000
,
0100
0000
0000
0000
0000
0000
0001
0000
0100
0000
0001
0000
1000
0000
0000
0010
0000
0000
1000
0000
0000
0100
0000
0000
,
0010
0000
0000
0000
0000
0000
0001
0000
1000
0000
0100
0000
0010
0000
0000
0100
0000
0000
1000
0000
0000
0001
0000
0000
,
0010
0000
0000
0000
0000
0000
0100
0000
1000
0000
0001
0000
0100
0000
0000
0010
0000
0000
1000
0000
0000
0001
0000
0000
,
0100
1001
0100
1001
,
1000
0010
0100
0001
0001
0010
0100
1000
,
0000
0001
1000
0010
0100
0100
0100
0000
,
0001
1000
0100
0010
0001
0001
1000
0010
,
0000
0100
0100
0001
0010
0010
0100
1000
,
0001
1000
1000
0010
0100
0100
0001
1000
,
0000
0100
0100
0010
0001
0001
1000
0010
,
0100
0001
1000
0100
0010
0100
1000
0001
,
0000
1000
0010
0100
0001
0100
0010
0000
,
1000
0100
0001
0100
1000
0010
0100
0001
,
0010
1000
0010
0001
0100
0010
1000
0100
,
0010
0100
1000
0001
0100
0001
1000
0010
,
1000
0001
0010
0100
1000
0100
0001
0100
,
1000
0100
0010
0100
1000
0010
0100
0010
,
0100
0001
0010
0001
0100
0010
0001
0010
,
0100
0001
0010
1000
0010
0001
0100
0010
,
2002
0000
0000
3003
,
0110
0000
0000
0000
;

//--------------- dance-single - forcednature ----------------
#NOTES:
     dance-single:
     forcednature:
     Challenge:
     10:
     0,0,0,0,0:
0000
0000
0000
0000
,
0000
0000
0000
0000
,
0000
0000
0000
0000
,
0000
0000
0000
0000
,
0000
0000
0000
0000
0000
0000
0000
0000
1000
0000
0001
0000
1000
0000
0000
0100
0000
0000
0010
0000
0000
0002
0000
0000
,
0000
0000
0000
0000
0000
0000
0000
0000
0000
0000
0000
0000
0000
0000
0000
0000
0000
0000
0000
0000
0000
0000
0000
0000
0000
0000
0000
0000
0000
0000
0000
0000
0000
0000
0000
0000
0000
0000
0000
0000
0000
0000
0000
0000
0000
0000
0000
0000
0000
0000
0000
0000
0000
0000
0000
0000
0000
0000
0000
0000
0000
0000
0000
0000
0100
0000
0000
0003
0000
0000
0000
0000
0000
0000
0000
0000
0000
0000
0000
0000
0001
0000
0000
0000
0000
0000
0000
0000
0000
0000
0000
0000
0000
0000
0000
0000
1000
0000
0000
0000
0000
0000
0000
0000
0000
0000
0000
0000
0000
0000
0000
0000
0000
0000
0000
0000
0000
0000
0000
0000
0010
0000
0000
0000
0000
0000
0000
0000
0000
0000
0000
0000
0000
0000
0000
0000
0000
0000
0000
0000
0000
0000
0000
0000
1000
0000
0000
0000
0000
0000
0000
0000
0000
0000
0000
0000
0000
0000
0000
0000
0000
0000
0000
0000
0000
0000
0000
0000
0200
0000
0000
0000
0000
0000
0000
0000
0000
0000
0000
0000
0000
0000
0000
0000
0000
0000
0000
0000
0000
0000
0000
0000
,
0000
0000
0000
0000
0000
0000
0000
0000
0000
0000
0000
0000
0000
0000
0000
0000
0000
0000
0000
0000
0000
0000
0000
0000
0000
0000
0000
0000
0000
0000
0000
0000
0000
0000
0000
0000
0000
0000
0000
0000
0000
0000
0000
0000
0000
0000
0000
0000
0000
0000
0000
0000
0000
0000
0000
0000
0000
0000
0000
0000
0000
0000
0000
0000
0010
0000
0000
0300
0000
0000
0000
0000
0000
0000
0000
0000
0000
0000
0000
0000
0001
0000
0000
0000
0000
0000
0000
0000
0000
0000
0000
0000
0000
0000
0000
0000
1000
0000
0000
0000
0000
0000
0000
0000
0000
0000
0000
0000
0000
0000
0000
0000
0000
0000
0000
0000
0000
0000
0000
0000
0100
0000
0000
0000
0000
0000
0000
0000
0000
0000
0000
0000
0000
0000
0000
0000
0000
0000
0000
0000
0000
0000
0000
0000
1000
0000
0000
0000
0000
0000
0000
0000
0000
0000
0000
0000
0000
0000
0000
0000
0000
0000
0000
0000
0000
0000
0000
0000
0002
0000
0000
0000
0000
0000
0000
0000
0000
0000
0000
0000
0000
0000
0000
0000
0000
0000
0000
0000
0000
0000
0000
0000
,
0000
0000
0000
0000
0000
0000
0000
0000
0000
0000
0000
0000
0000
0000
0000
0000
0000
0000
0000
0000
0000
0000
0000
0000
0000
0000
0000
0000
0000
0000
0000
0000
0000
0000
0000
0000
0000
0000
0000
0000
0000
0000
0000
0000
0000
0000
0000
0000
0000
0000
0000
0000
0000
0000
0000
0000
0000
0000
0000
0000
0000
0000
0000
0000
0000
0000
0000
0000
0000
0000
0000
0000
0100
0000
0000
0000
0000
0003
0000
0000
0001
0000
0000
0000
0000
0000
0000
0000
0100
0000
0000
0000
0000
0000
0000
0000
0001
0000
0000
0000
0000
0000
0000
0000
0000
0000
0000
0000
0000
0000
0000
0000
0000
0000
0000
0000
0000
0000
0000
0000
0020
0000
0000
0000
0000
0000
0000
0000
0000
0000
0000
0000
0000
0000
0030
0000
0000
0000
0000
0000
0000
0000
0000
0000
0000
0000
0000
0000
0000
0000
0000
0000
0000
0000
0000
0000
0000
0000
0000
0000
0000
0000
0000
0000
0000
0000
0000
0000
2001
0000
0000
0000
0000
0000
0000
0000
0000
0000
0000
0000
0000
0000
3000
0000
0000
0000
0000
0000
0000
0000
0000
0000
,
0000
0000
0000
0000
0000
0000
0000
0000
0000
0000
0000
0000
1200
0000
0000
0000
0000
0000
0000
0300
0000
0000
0000
0000
0000
0000
0000
0000
0000
0000
0000
0000
0000
0000
0000
0000
0021
0000
0000
0000
0000
0000
0000
0030
0000
0000
0000
0000
0000
0000
0000
0000
0000
0000
0000
0000
0000
0000
0000
0000
1002
0000
0000
0000
0000
0000
0000
0003
0000
0000
0000
0000
0000
0000
0000
0000
0000
0000
0000
0000
0000
0000
0000
0000
1000
0000
0000
0000
0100
0000
0000
0000
1000
0000
0000
0000
,
0200
0000
0000
0000
0000
0000
0000
0000
0000
0000
0000
0000
0000
0000
0000
0000
0000
0000
0000
0000
0000
0000
0000
0000
0000
0000
0000
0000
0000
0000
0000
0000
0000
0000
0000
0000
0000
0000
0000
0000
0000
0000
0000
0000
0000
0000
0000
0000
0000
0000
0000
0000
0000
0000
0000
0000
0000
0000
0000
0000
0000
0000
0000
0000
0000
0000
0000
0000
0000
0000
0000
0000
0000
0000
0000
0000
0000
0000
0000
0000
0000
0000
0000
0000
0000
0000
0000
0000
0000
0000
0000
0000
0000
0000
0000
0000
0000
0000
0000
0000
0000
0000
0000
0000
0000
0000
0000
0000
0000
0000
0000
0000
0000
0000
0000
0000
0000
0000
0000
0000
0010
0000
0000
0000
0000
0300
0000
0000
0000
0000
0000
0000
0000
0000
0000
0000
0000
0000
0000
0000
0000
0000
0000
0000
0001
0000
0000
0000
0000
0000
0000
0000
0000
0000
0000
0000
0000
0000
0000
0000
0000
0000
0000
0000
0000
0000
0000
0000
2000
0000
0000
0000
0000
0000
0000
0000
0000
0000
0000
0000
0000
0000
0000
0000
0000
0000
0000
0000
0000
0000
0000
0000
,
0000
0000
0000
0000
0000
0000
0000
0000
0000
0000
0000
0000
0000
0000
0000
0000
0000
0000
0000
0000
0000
0000
0000
0000
0000
0000
0000
0000
0000
0000
0000
0000
0000
0000
0000
0000
0000
0000
0000
0000
0000
0000
0000
0000
0000
0000
0000
0000
0000
0000
0000
0000
0000
0000
0000
0000
0000
0000
0000
0000
0000
0000
0000
0000
0000
0000
0000
0000
0000
0000
0000
0000
0000
0000
0000
0000
0000
0000
0000
0000
0000
0000
0000
0000
0000
0000
0000
0000
0000
0000
0000
0000
0000
0000
0000
0000
0001
0000
0000
3000
0000
0000
0000
0000
0000
0000
0000
0000
0000
0000
0000
0000
0000
0000
0000
0000
0000
0000
0000
0000
0100
0000
0000
0000
0000
0000
0000
0000
0000
0000
0000
0000
0000
0000
0000
0000
0000
0000
0000
0000
0000
0000
0000
0000
0000
0000
0000
0000
0000
0000
0000
0000
0000
0000
0000
0000
0000
0000
0000
0000
0010
0000
0000
0000
0000
0000
0000
0000
0000
0000
0000
0000
0000
0000
0000
0000
1000
0000
0000
0000
0000
0000
0000
0000
0000
0000
0000
0000
0000
0000
0000
0000
,
0002
0000
0000
0000
0000
0000
0000
0000
0000
0000
0000
0000
0000
0000
0000
0000
0000
0000
0000
0000
0000
0000
0000
0000
0000
0000
0000
0000
0000
0000
0000
0000
0000
0000
0000
0000
0000
0000
0003
0000
0000
0000
0000
0000
0000
0000
0000
0000
0002
0000
0000
0000
0000
0000
0000
0000
0000
0000
0000
0000
0000
0000
0000
0000
0000
0000
0000
0000
0000
0000
0000
0000
0000
0000
0000
0000
0000
0000
0000
0000
0000
0000
0000
0000
0000
0000
0003
0000
0000
0000
0000
0000
0000
0000
0000
0000
0002
0000
0000
0000
0000
0000
0000
0000
0000
0000
0000
0000
0000
0000
0000
0000
0000
0000
0000
0003
0000
0000
0000
0000
1000
0000
0000
0000
0000
0000
0000
0000
0000
0000
0000
0000
0000
0000
0000
0000
0000
0000
0000
0000
0000
0000
0000
0000
0100
0000
0000
0000
0000
0000
0000
0000
0000
0000
0000
0000
0000
0000
0000
0000
0000
0000
0000
0000
0000
0000
0000
0000
0020
0000
0000
0000
0000
0000
0000
0000
0000
0000
0000
0000
0000
0000
0000
0030
0000
0000
0000
0000
0000
0000
0000
0000
,
0020
0000
0000
0000
0000
0000
0000
0000
0000
0000
0000
0000
0000
0000
0000
0000
0000
0000
0000
0000
0000
0000
0000
0000
0000
0000
0000
0000
0000
0000
0000
0000
0000
0000
0000
0000
0000
0000
0030
0000
0000
0000
0000
0000
0000
0000
0000
0000
0020
0000
0000
0000
0000
0000
0000
0000
0000
0000
0000
0000
0000
0000
0000
0000
0001
0000
0000
0030
0000
0000
0000
0000
0000
0000
0000
0000
0000
0000
0000
0000
1000
0000
0000
0000
0000
0000
0000
0000
0000
0000
0000
0000
0000
0000
0000
0000
0001
0000
0000
0000
0000
0000
0000
0000
0000
0000
0000
0000
0000
0000
0000
0000
0000
0000
0000
0000
0000
0000
0000
0000
0010
0000
0000
0000
0000
0000
0000
0000
0000
0000
0000
0000
0000
0000
0000
0000
0000
0000
0000
0000
0000
0000
0000
0000
0100
0000
0000
0000
0000
0000
0000
0000
0000
0000
0000
0000
0000
0000
0000
0000
0000
0000
0000
0000
0000
0000
0000
0000
2000
0000
0000
0000
0000
0000
0000
0000
0000
0000
0000
0000
0000
0000
0000
3000
0000
0000
0000
0000
0000
0000
0000
0000
,
2000
0000
0000
0000
0000
0000
0000
0000
0000
0000
0000
0000
0000
0000
0000
0000
0000
0000
0000
0000
0000
0000
0000
0000
0000
0000
0000
0000
0000
0000
0000
0000
0000
0000
0000
0000
0000
0000
3000
0000
0000
0000
0000
0000
0000
0000
0000
0000
2000
0000
0000
0000
0000
0000
0000
0000
0000
0000
0000
0000
0000
0000
0000
0000
0100
0000
0000
3000
0000
0000
0000
0000
0000
0000
0000
0000
0000
0000
0000
0000
0010
0000
0000
0000
0000
0000
0000
0000
0000
0000
0000
0000
0000
0000
0000
0000
0001
0000
0000
0000
0000
0000
0000
0000
0000
0000
0000
0000
0000
0000
0000
0000
0000
0000
0000
0000
0000
0000
0000
0000
0100
0000
0000
0000
0000
0000
0000
0000
0000
0000
0000
0000
0000
0000
0000
0000
0000
0000
0000
0000
0000
0000
0000
0000
0010
0000
0000
0000
0000
0000
0000
0000
0000
0000
0000
0000
0000
0000
0000
0000
0000
0000
0000
0000
0000
0000
0000
0000
2000
0000
0000
0000
0000
0000
0000
0000
0000
0000
0000
0000
0000
0000
0000
3000
0000
0000
0000
0000
0000
0000
0000
0000
,
2000
0000
0000
0000
0000
0000
0000
0000
0000
0000
0000
0000
0000
0000
0000
0000
0000
0000
0000
0000
0000
0000
0000
0000
0000
0000
0000
0000
0000
0000
0000
0000
0000
0000
0000
0000
0000
0000
3000
0000
0000
0000
0000
0000
0000
0000
0000
0000
2000
0000
0000
0000
0000
0000
0000
0000
0000
0000
0000
0000
0000
0000
0000
0000
0001
0000
0000
3000
0000
0000
0000
0000
0000
0000
0000
0000
0000
0000
0000
0000
0100
0000
0000
0000
0000
0000
0000
0000
0000
0000
0000
0000
0000
0000
0000
0000
0001
0000
0000
0000
0000
0000
0000
0000
0000
0000
0000
0000
0000
0000
0000
0000
0000
0000
0000
0000
0000
0000
0000
0000
1000
0000
0000
0000
0000
0000
0000
0000
0000
0000
0000
0000
0000
0000
0000
0000
0000
0000
0000
0000
0000
0000
0000
0000
0010
0000
0000
0000
0000
0000
0000
0000
0000
0000
0000
0000
0000
0000
0000
0000
0000
0000
0000
0000
0000
0000
0000
0000
2000
0000
0000
0000
0000
0000
0000
0000
0000
0000
0000
0000
0000
0000
0000
3000
0000
0000
0000
0000
0000
0000
0000
0000
,
2000
0000
0000
0000
0000
0000
0000
0000
0000
0000
0000
0000
0000
0000
0000
0000
0000
0000
0000
0000
0000
0000
0000
0000
0000
0000
0000
0000
0000
0000
0000
0000
0000
0000
0000
0000
0000
0000
3000
0000
0000
0000
0000
0000
0000
0000
0000
0000
2000
0000
0000
0000
0000
0000
0000
0000
0000
0000
0000
0000
0000
0000
0000
0000
0001
0000
0000
3000
0000
0000
0000
0000
0000
0000
0000
0000
0000
0000
0000
0000
0010
0000
0000
0000
0000
0000
0000
0000
0000
0000
0000
0000
0000
0000
0000
0000
0100
0000
0000
0000
0000
0000
0000
0000
0000
0000
0000
0000
0000
0000
0000
0000
0000
0000
0000
0000
0000
0000
0000
0000
1000
0000
0000
0000
0000
0000
0000
0000
0000
0000
0000
0000
0000
0000
0000
0000
0000
0000
0000
0000
0000
0000
0000
0000
0001
0000
0000
0000
0000
0000
0000
0000
0000
0000
0000
0000
0000
0000
0000
0000
0000
0000
0000
0000
0000
0000
0000
0000
0200
0000
0000
0000
0000
0000
0000
0000
0000
0000
0000
0000
0000
0000
0000
0000
0000
0000
0000
0000
0000
0000
0000
0000
,
0010
0000
0000
0000
0000
0000
0000
0000
0000
0000
0000
0000
0000
0000
0000
0000
0000
0000
0000
0000
0000
0000
0000
0000
0000
0000
0000
0000
0000
0000
0000
0000
0000
0000
0000
0000
0000
0000
0000
0000
0000
0000
0000
0000
0000
0000
0000
0000
0010
0000
0000
0000
0000
0000
0000
0000
0000
0000
0000
0000
0000
0000
0000
0000
0000
0000
0000
0000
0000
0000
0000
0000
0000
0000
0000
0000
0000
0000
0000
0000
0000
0000
0000
0000
0000
0000
0000
0000
0000
0000
0000
0000
0000
0000
0000
0000
0010
0000
0000
0000
0000
0000
0000
0000
0000
0000
0000
0000
0000
0000
0000
0000
0000
0000
0000
0000
0000
0000
0000
0000
0000
0000
0000
0000
0000
0000
0000
0000
0000
0000
0000
0000
0000
0000
0000
0000
0000
0000
0000
0000
0000
0000
0000
0000
0010
0000
0000
0000
0000
0000
0000
0000
0000
0000
0000
0000
0000
0000
0000
0000
0000
0000
0000
0000
0000
0000
0000
0300
0000
0000
0000
0000
0000
0000
0000
0000
0000
0000
0000
0000
0000
0000
0000
0000
0000
0000
0000
0000
0000
0000
0000
0000
,
1001
0000
0001
0000
0100
0000
0001
0000
1000
0000
0100
0010
0000
0001
0000
0000
,
1000
0010
1000
0000
0001
0000
1000
0100
1000
0000
0001
0010
0000
0100
0000
0000
,
1000
0001
1000
0000
0010
0000
0100
0000
0001
0000
1000
0100
0000
0010
0000
0000
,
0001
0100
0001
0000
1000
0000
0010
0000
1000
0000
0001
0100
0000
0010
0000
0000
,
1000
0000
0001
0000
0100
0000
0010
0000
1000
0000
0001
0010
0000
0100
0000
0000
,
1000
0100
1000
0000
0001
0000
1000
0010
1000
0000
0001
0100
0000
0010
0000
0000
,
1000
0100
1000
0000
0010
0000
0100
0000
0001
0000
0010
0001
0000
0100
0000
0000
,
0010
1000
0010
0000
0100
0000
0001
0000
1000
0000
0010
1000
0000
0001
0000
0000
,
1001
0000
1000
0000
0100
0000
1000
0000
0001
0000
0010
0001
0000
1000
0000
0000
,
0010
0000
1000
0000
0001
0000
0100
0000
0010
0000
1000
0001
0000
1000
0000
0000
,
0100
0000
0010
0000
0001
0000
1000
0000
0010
0000
0100
0001
0000
1000
0000
0000
,
0010
0000
1000
0000
0001
0000
1000
0000
0100
0000
0010
0001
1000
0100
1000
0100
,
1000
0000
0001
0100
0001
0000
1000
0100
1000
0000
0001
0010
0001
0010
0001
0010
,
0001
0000
1000
0010
1000
0000
0001
0010
0001
0000
1000
0100
1000
0100
1000
0100
,
1000
0010
0100
0001
0010
0001
1000
0010
0100
0001
1000
0001
0010
0100
1000
0001
,
0200
0000
0000
0000
0000
0000
0000
0000
0000
0000
0000
0000
0000
0000
0000
0000
0000
0000
0000
0000
0000
0000
0000
0000
0010
0000
0000
0000
0000
0000
0000
0000
0000
0000
0000
0000
0000
0000
0000
0000
0000
0000
0000
0000
0000
0000
0000
0000
0010
0000
0000
0000
0000
0000
0000
0000
0000
0000
0000
0000
0000
0000
0000
0000
0000
0000
0000
0000
0000
0000
0000
0000
0010
0000
0000
0000
0000
0000
0000
0000
0000
0000
0000
0000
0000
0000
0000
0000
0000
0000
0000
0000
0000
0000
0000
0000
0020
0000
0000
0000
0000
0000
0000
0000
0000
0000
0000
0000
0000
0000
0000
0000
0000
0000
0000
0000
0000
0000
0000
0330
0000
0000
0000
0000
0000
0000
0000
0000
0000
0000
0000
0000
0000
0000
0000
0000
0000
0000
0000
0000
0000
0000
0000
0000
2002
0000
0000
0000
0000
0000
0000
0000
0000
0000
0000
0000
0000
0000
0000
0000
0000
0000
0000
0000
0000
0000
0000
3003
0000
0000
0000
0000
0000
0000
0000
0000
0000
0000
0000
0000
0000
0000
0000
0000
0000
0000
0000
0000
0000
0000
0000
0000
,
1000
0000
0000
0000
0000
0000
0001
0000
0000
0010
0000
0000
0001
0000
0000
0000
0000
0000
1000
0000
0000
0000
0000
0000
0010
0000
0000
0000
0000
0000
0002
0000
0003
0000
0000
0000
0010
0000
0000
0000
0000
0000
2000
0000
3000
0000
0000
0000
,
0010
0000
0000
0200
0300
0000
0001
0000
0000
0010
0000
0000
0100
0000
0000
0002
0003
0000
0100
0000
0000
2000
3000
0000
,
0010
0000
0000
2000
3000
0000
0001
0000
0000
0100
0000
0000
0010
0000
0000
0100
0000
0000
1000
0000
0000
0100
0000
0000
,
0001
0000
0000
0000
0010
0000
0001
0000
0000
1000
0000
0000
0001
0000
0000
0000
0010
0000
0001
0000
0000
1000
0000
0000
0010
0000
0000
0000
0000
0000
0100
0000
0000
0000
0000
0000
0002
0000
0000
0000
0003
0000
0010
0000
0000
0000
0000
0000
,
0100
0010
0100
1000
0000
0010
0100
1000
0100
0000
0001
0000
1000
0000
0010
0000
,
1000
0000
0000
0000
0200
0000
0000
0000
0001
0000
0000
0000
1000
0000
0300
0100
0010
0000
0000
0000
0010
0000
0000
0000
0002
0000
0000
0000
0100
0000
0000
0000
,
2000
0003
0000
0000
0000
0000
0000
0000
0000
0000
0000
0000
0010
0000
0000
0000
0000
0000
0000
0000
0000
0000
0000
0000
0001
3000
0000
0000
0000
0000
0000
0000
0000
0000
0000
0000
2000
0000
0000
0000
0000
0000
0000
0000
0000
0000
0000
0000
0002
3000
0000
0000
0000
0000
0000
0000
0000
0000
0000
0000
0100
0003
0000
0000
0000
0000
0000
0000
0000
0000
0000
0000
0010
0000
0000
0000
0000
0000
0000
0000
0000
0000
0000
0000
1000
0000
0000
0000
0000
0000
0000
0000
0000
0000
0000
0000
,
0200
0000
0000
0000
0000
0000
0000
0000
0000
0000
0000
0000
0000
0000
0000
0000
0000
0000
0000
0000
0000
0000
0000
0000
0001
0000
0000
0000
0000
0000
0000
0000
0000
0000
0000
0000
0000
0000
0000
0000
0000
0000
0000
0000
0000
0000
0000
0000
1000
0000
0000
0000
0000
0000
0000
0000
0000
0000
0000
0000
0000
0000
0000
0000
0000
0000
0300
0000
0000
0000
0000
0000
0200
0000
0000
0000
0000
0000
0000
0000
0000
0000
0000
0000
0000
0000
0000
0000
0000
0000
0000
0000
0000
0000
0000
0000
1000
0000
0000
0000
0000
0000
0000
0000
0000
0000
0000
0000
0000
0000
0000
0000
0000
0000
0000
0000
0000
0000
0000
0000
0001
0000
0000
0000
0000
0300
0000
0000
0000
0000
0000
0000
0000
0000
0000
0000
0000
0000
0000
0000
0000
0000
0000
0000
0110
0000
0000
0000
0000
0000
0000
0000
0000
0000
0000
0000
0000
0000
0000
0000
0000
0000
0000
0000
0000
0000
0000
0000
0000
0000
0000
0000
0000
0000
0000
0000
0000
0000
0000
0000
0000
0000
0000
0000
0000
0000
0000
0000
0000
0000
0000
0000
,
1000
0000
0000
0000
0000
0000
0000
0000
0000
0000
0000
0000
0000
0000
0000
0000
0000
0000
0000
0000
0000
0000
0000
0000
0001
0000
0000
0000
0000
0000
0000
0000
0000
0000
0000
0000
0100
0000
0000
0000
0000
0000
0000
0000
0000
0000
0000
0000
0001
0000
0000
0000
0000
0000
0000
0000
0000
0000
0000
0000
0000
0000
0000
0000
0000
0000
0000
0000
0000
0000
0000
0000
1000
0000
0000
0000
0000
0000
0000
0000
0000
0000
0000
0000
0000
0000
0000
0000
0000
0000
0000
0000
0000
0000
0000
0000
0100
0000
0000
0000
0000
0000
0000
0000
0000
0000
0000
0000
0000
0000
0000
0000
0000
0000
0000
0000
0000
0000
0000
0000
0020
0000
0000
0000
0000
0030
0000
0000
0000
0000
0000
0000
0000
0000
0000
0000
0000
0000
0000
0000
0000
0000
0000
0000
0001
0000
0000
0000
0000
0000
0000
0000
0000
0000
0000
0000
0000
0000
0000
0000
0000
0000
0000
0000
0000
0000
0000
0000
0020
0000
0000
0000
0000
0030
0000
0000
0000
0000
0000
0000
0000
0000
0000
0000
0000
0000
0000
0000
0000
0000
0000
0000
,
1000
0010
0001
1000
0010
0100
1000
0100
,
0001
0010
0100
1000
0100
0001
0100
1000
,
0010
0100
1000
0100
0001
0010
1000
0010
,
0001
0010
0100
1000
0010
0000
0100
0000
1000
0000
0100
0000
0001
0000
0010
0000
,
1000
0010
0100
1000
0001
0100
1000
0100
,
0010
1000
0100
0010
0001
0010
0100
1000
,
0001
0000
0000
0000
0000
0000
0000
0000
0000
0000
0000
0000
0000
0000
0000
0000
1000
0000
0000
0000
0000
0000
0000
0000
0010
0000
0000
0000
0000
0000
0000
0000
0000
0000
0000
0000
0000
0000
0000
0000
0000
0000
0000
0000
0000
0000
0000
0000
1000
0000
0000
0000
0000
0000
0000
0000
0000
0000
0000
0000
0000
0000
0000
0000
0001
0000
0000
0000
0000
0000
0000
0000
0010
0000
0000
0000
0000
0000
0000
0000
0000
0000
0000
0000
0000
0000
0000
0000
0000
0000
0000
0000
0000
0000
0000
0000
0200
0000
0000
0000
0000
0000
0000
0000
0000
0000
0000
0000
0300
0000
0000
0000
0000
0000
0000
0000
0000
0000
0000
0000
2000
0000
0000
0000
0000
0000
0000
0000
0000
0000
0000
0000
0000
0000
0000
3000
0000
0000
0000
0000
0000
0000
0000
0000
0002
0000
0000
0000
0000
0000
0000
0000
0000
0000
0000
0000
0000
0000
0000
0000
0000
0000
0003
0000
0000
0000
0000
0000
0020
0000
0000
0000
0000
0000
0000
0000
0000
0000
0000
0000
0000
0000
0000
0000
0000
0000
0000
0000
0000
0030
0000
0000
,
0100
1000
0100
0001
0100
1000
0010
0100
,
1000
0000
0000
0100
0000
0000
0001
0000
0000
0010
0000
0000
0100
0000
0000
1000
0000
0000
0010
0000
0001
0000
0010
0000
,
1000
0100
0010
1000
0010
0001
0100
1000
,
0100
0000
0000
0001
0000
0000
1000
0000
0010
0000
0100
0000
0001
0000
0000
1000
0000
0000
0100
0000
0000
0010
0000
0000
,
0001
0000
0000
1000
0000
0000
0010
0000
0100
0000
0001
0000
0010
0000
0000
0100
0000
0000
1000
0000
0000
0001
0000
0000
,
1000
0000
0000
0010
0000
0000
0100
0000
0001
0000
0010
0000
0100
0000
0000
1000
0000
0000
0001
0000
0000
0010
0000
0000
,
1000
0000
0000
0010
0000
0000
0001
0000
0000
0100
0001
0100
0001
0000
0000
1000
0000
0000
0010
0000
0000
0100
0000
0000
,
0001
0000
0000
1000
0000
0000
0100
0000
0000
0010
0000
0000
1000
0000
0000
0010
0000
0000
0100
0000
0000
1000
0010
1000
,
0010
0100
0001
1000
0100
0010
1000
0010
,
0001
0000
0000
1000
0000
0000
0010
0000
0000
0100
0000
0000
0001
0000
0000
1000
0000
0000
0100
0000
0010
0000
0001
0000
,
1000
0100
0001
0100
1000
0010
0100
1000
,
0100
0000
0000
0001
0000
0000
0100
0000
0010
0000
1000
0000
0001
0000
0000
1000
0000
0000
0100
0000
0000
0010
0000
0000
,
0001
0000
0000
1000
0000
0000
0010
0000
0100
0000
0001
0000
0010
0000
0000
1000
0000
0000
0010
0000
0000
0001
0000
0000
,
1000
0000
0000
0010
0000
0000
0100
0000
0001
0000
1000
0000
0100
0000
0000
0010
0000
0000
0001
0000
0000
1000
0000
0000
,
0010
0000
0000
0100
0000
0000
0001
0000
1000
0000
0100
0000
0001
0000
0000
0100
0000
0000
1000
0000
0000
0010
0000
0000
,
0100
1000
0100
0001
0100
1000
0100
0001
,
0010
0000
0100
1000
0100
0000
1000
0000
0001
0000
1000
0010
0000
1000
0001
0000
,
0100
0000
0010
1000
0100
0000
0010
0000
0001
0000
1000
0100
0000
0010
0100
0000
,
1000
0000
0001
0100
0001
0000
1000
0000
0010
0000
1000
0001
0000
0010
0100
0000
,
1000
0000
0001
0010
0001
0000
0100
0000
0010
0000
1000
0001
0000
1000
0100
0000
,
0010
0000
0001
1000
0001
0000
0100
0000
0010
0000
1000
0001
0000
1000
0100
0000
,
0010
0000
0001
0100
0010
0000
0100
0000
0001
0000
1000
0010
0000
0100
0001
0000
,
1000
0000
0001
0010
0001
0000
1000
0000
0100
0000
0010
0001
0000
1000
0010
0000
,
0100
0000
0001
1000
0001
0000
0010
0000
0100
0000
1000
0001
0000
0100
0010
0000
,
1000
0000
0001
0010
0001
0000
1000
0000
0001
0000
0100
0010
0000
1000
0001
0000
,
1000
0000
0100
1000
0001
0000
0100
0000
0010
0000
1000
0001
0000
0010
0001
0000
,
1000
0000
0010
0100
0001
0000
0100
0000
0010
0000
1000
0001
0000
1000
0100
0000
,
0010
0000
0001
0100
0010
0000
0100
0000
0001
0000
1000
0010
0000
0100
0001
0000
,
1000
0000
0001
0010
0001
0000
1000
0100
1000
0000
0001
0100
0001
0100
0001
0100
,
0001
0000
1000
0010
1000
0000
0001
0010
0001
0000
1000
0100
1000
0100
1000
0100
,
1000
0001
0100
0010
1000
0001
1000
0100
0010
0001
0100
0010
0100
0001
1000
0010
,
0100
0010
0100
0010
0100
0010
0100
0010
0100
0010
0100
0010
0000
0000
0000
0000
,
1001
0000
0000
0000
;

//--------------- dance-double - forcednature ----------------
#NOTES:
     dance-double:
     forcednature:
     Easy:
     5:
     0,0,0,0,0:
00000000
00000000
00000000
00000000
,
00000000
00000000
00000000
00000000
,
00000000
00000000
00000000
00000000
,
00000000
00000000
00000000
00000000
,
00000000
00000000
00000000
00000000
00001000
00000000
00010000
00002000
,
00000000
00000000
00000000
00000000
01003000
00000000
00010000
20000000
,
00000000
00000000
00000000
00000000
31000000
00000000
00010000
00002000
,
00000000
00000000
00000000
00000000
00003010
00000100
00000000
00000011
,
00000000
00001000
00000000
00010100
00000000
02000000
00000000
00000000
,
03200000
00000000
00000000
00000000
00000000
00000000
01300000
00020000
,
00000000
00000000
00000000
00000000
10030000
01000000
00000000
00100000
,
00002000
00000000
00000000
00000000
00000000
00000000
00013000
00000020
,
00000000
00000000
00000000
00000000
00000130
00000000
00000001
00002000
,
00000000
00000000
00000000
00000000
00003100
00000000
00010000
00002000
,
00000000
00000000
00000000
00000000
01003000
00000000
00001000
00020000
,
00000000
00000000
00000000
00000000
00030010
00000000
00010000
00002000
,
00000000
00000000
00000000
00000000
00000000
00000000
00000000
00003000
,
00101000
00010000
01000000
10000000
,
00100000
00100000
01000000
00010000
,
00001000
00001000
00000100
00000001
,
00001000
00001000
00000010
00000001
,
00000100
00000100
00000010
00001000
,
01000000
01000000
00100000
10000000
,
01000000
01000000
00100000
00010000
,
00000100
00000100
00000010
00000001
,
00001001
00000001
00000100
00001000
,
00010000
01000000
10000000
00100000
,
10000000
01000000
00010000
00001000
,
00000100
00000001
00000010
00000100
,
00001000
00010000
01000000
00010000
,
00001000
00010000
01000000
00010000
,
00001000
00000100
00001000
00010000
,
00022000
00000000
00000000
00033000
,
00010000
01000000
00010000
01000000
,
10000000
01000000
01010000
00010000
,
00001000
00000100
00000001
00000100
,
00001100
00000101
00000100
00001000
,
00011000
00010000
01000000
10000000
,
01000000
00010000
11000000
01010000
,
00010000
00001000
00000100
00000011
,
00000101
00001100
00000100
00000001
,
00001100
00001000
00010000
01000000
,
10010000
01000000
00010000
00000100
,
00001001
00000100
00000001
00000100
,
00011000
01000000
10000000
01000000
,
00010000
01000000
10000000
01000000
,
00010000
00001000
00000100
00000001
,
00001001
00000100
00011000
01000000
,
10010000
01000000
00010000
00001000
,
00100000
00001000
00100000
00000000
00001000
00000000
00010000
00000000
,
00000010
00001000
00000001
00000100
,
00000010
00010000
00000010
00000000
00010000
00000000
00001000
00000000
,
01000000
00010000
10000000
01000000
,
00100000
00010000
00100000
00000000
01000000
00000000
00001000
00000000
,
00010000
00000010
00010000
00000000
00000100
00000000
00001000
00000000
,
00000001
00000010
00000001
00000000
00000100
00000000
00000010
00000000
,
00010000
00000010
00010000
00000000
00001000
00000000
01000000
00000000
,
00010000
00100000
00010000
00000000
10000000
00000000
00100000
00000000
,
01000000
00001000
00010000
00000010
,
00001000
00000010
00001000
00000000
00000001
00000000
00000010
00000000
,
00000100
00010000
00001000
01000000
,
00100000
10000000
00100000
00000000
10000000
00000000
01000000
00000000
,
00100000
00001000
00100000
00000000
00001000
00000000
00010000
00000000
,
00000010
00001000
00000010
00000000
00000100
00000000
00000001
00000000
,
00000010
00000001
00000010
00000000
00000001
00000000
00001000
00000000
,
00001001
00000010
00010000
00001000
,
01000000
00010000
10000000
01000000
,
10010000
01000000
00010000
00000010
,
00000001
00000100
00001000
00000010
,
00001001
00000010
00000100
00010000
,
01000000
00100000
10000000
00010000
,
10010000
10000000
01000000
00010000
,
00001000
00000010
00000001
00000100
,
00001001
00000010
00001000
00000100
,
00010000
00001000
01000000
00100000
,
10010000
01000000
00100000
00010000
,
01000000
00100000
00010000
00001000
,
00000010
00000010
00001000
00000000
00010000
00000000
01000000
00000000
,
01000000
01000000
00010000
00000000
00001000
00000000
00000100
00000000
,
00010000
00010000
00100000
00000000
10000000
00000000
01000000
00000000
,
00022000
00000000
00000000
00033000
,
00000011
00000000
00000000
00000000
;

//--------------- dance-double - forcednature ----------------
#NOTES:
     dance-double:
     forcednature:
     Medium:
     8:
     0,0,0,0,0:
00000000
00000000
00000000
00000000
,
00000000
00000000
00000000
00000000
,
00000000
00000000
00000000
00000000
,
00000000
00000000
00000000
00000000
,
00000000
00000000
00000000
00000000
00000000
00000000
00000000
00000000
00010000
00000000
00001000
00000000
01000000
00000000
00000000
00010000
00000000
00000000
10000000
00000000
00000000
02000000
00000000
00000000
,
00000000
00000000
00000000
00000000
00000000
00000000
03000000
00000000
00100000
00000000
00001000
00000000
00010000
00000000
00000000
00000010
00000000
00000000
00001000
00000000
00000000
00000002
00000000
00000000
,
00000000
00000000
00000000
00000000
00000000
00000000
00000003
00000000
00000100
00000000
00000010
00000000
00001000
00000000
00000000
00000100
00000000
00000000
00010000
00000000
00000000
00002000
00000000
00000000
,
00000000
00000000
00003000
01000000
00010000
10000000
00000000
01100000
,
00000000
00110000
00000000
00011000
00000000
00001010
00000000
00000100
,
00000002
00000000
00000000
00000000
00000003
00001000
00000010
00020000
,
00000000
00000000
00000000
00000000
00000000
00000000
00000000
00000000
00000000
00030000
00000000
00000000
00001000
00000000
00000000
01000000
00000000
00000000
00000000
00000000
00100000
00000000
10000000
00000000
,
00020000
00000000
00000000
00000000
00030000
01000000
00001000
00020000
,
00000000
00000000
00000000
00000000
00000000
00000000
00030000
00000000
00000100
00000000
00001000
00000000
00000001
00000000
00000000
00001000
00000000
00000000
00000010
00000000
00000000
00020000
00000000
00000000
,
00000000
00000000
00000000
00000000
00000000
00000000
00030000
00000000
00001000
00000000
01000000
00000000
00010000
00000000
00000000
10000000
00000000
00000000
00100000
00000000
00000000
02000000
00000000
00000000
,
00000000
00000000
00000000
00000000
00000000
00000000
03000000
00000000
00001000
00000000
00010000
00000000
00000100
00000000
00000000
00001000
00000000
00000000
00000001
00000000
00000000
00000020
00000000
00000000
,
00000000
00000000
00000000
00000000
00000000
00000000
00000030
00000000
00000100
00000000
00010000
00000000
00001000
00000000
00000000
01000000
00000000
00000000
00010000
00000000
00000000
20000000
00000000
00000000
,
00000000
00000000
00000000
00000000
00000000
00000000
00000000
30000000
,
10000000
01000000
00010000
00000000
01000000
00100000
00010000
00000000
,
00100000
00001000
00010000
00000000
00000010
00001000
00000001
00000000
,
00000100
00000010
00010000
00000000
00001000
01000000
00010000
00000000
,
10000000
01000000
00100000
00000000
01000000
10000000
00010000
00000000
,
01000000
00001000
00010000
00000000
00000001
00001000
00000010
00000000
,
00000100
00000001
00000010
00000000
00000100
00010000
00001000
00000000
,
00100000
00010000
01000000
00000000
00100000
10000000
01000000
00000000
,
00100000
00001000
00010000
00000000
00000100
00001000
00000001
00000000
,
00001001
00001000
00000010
00000000
00010000
00001000
01000000
00000000
,
00010000
00100000
10000000
00000000
00100000
00010000
01000000
00000000
,
00001000
00010000
00000100
00000000
00001000
00000001
00000010
00000000
,
00000100
00010000
00001000
00000000
01000000
00010000
10000000
00000000
,
00100000
01000000
00100000
01000000
00010000
00100000
00010000
00100000
,
00001000
00010000
00001000
00010000
00000100
00001000
00000100
00001000
,
00000001
00001000
00000010
00000100
00000001
00001000
00000010
00000100
,
00002002
00000000
00000000
00003003
,
00001010
00000000
00000101
00000000
00001000
00000100
00010000
00001000
,
01000000
00010000
00100000
00000000
11000000
00000000
00110000
00000000
,
10000000
00000000
01000000
00000000
00100000
00010000
00001000
00000000
,
00000010
00000100
00000010
00000100
00000010
00000000
00001001
00000000
,
00001010
00000000
00010000
00001000
01000000
00000000
00110000
00000000
,
10000000
01000000
00100000
00000000
00001000
00010000
00001000
00000000
,
00010000
00000100
00001000
00000000
00000101
00000000
00001010
00000000
,
00000100
00010000
00001000
00000000
01000000
00001000
00010000
00000000
,
00100000
00010000
10000000
00000000
01010000
00000000
00011000
00000000
,
00010000
00000100
00001000
00000000
00000011
00000010
00000010
00000000
,
00001000
00000010
00000100
00000000
00000001
00000010
00001000
00000000
,
00010100
00000000
01001000
00000000
00100000
00010000
10000000
00000000
,
02000000
03000000
10010000
00000000
10000000
01000000
00010000
00000000
,
00001000
00010000
00000010
00000000
00000100
00000100
00001100
00000000
,
00000001
00000010
00001000
00000000
00010000
00000000
01001000
00000000
,
00100000
00000000
10000000
00000000
01000000
00100000
00010000
01000000
,
00001000
00000000
00010000
00000000
00000010
00001000
00000001
00000100
,
00000010
00000000
00000000
00000000
00000000
00000000
00010000
00000000
00000000
00000000
00000000
00000000
00001000
00000000
00000000
00100000
00000000
00000000
00000000
00000000
00010000
00000000
10000000
00000000
,
00100000
00000000
01000000
00000000
00010000
00100000
00001000
00010000
,
00000010
00000000
00000000
00000000
00000000
00000000
00001000
00000000
00000001
00000000
00000100
00000000
00000010
00000000
00000000
00001000
00000000
00000000
00000100
00000000
00000000
00010000
00000000
00000000
,
00001000
00000000
00000000
00000000
00000000
00000000
01000000
00000000
00010000
00000000
10000000
00000000
00100000
00000000
00000000
01000000
00000000
00000000
00001000
00000000
00000000
00010000
00000000
00000000
,
00000100
00000000
00000000
00000000
00000000
00000000
00001000
00000000
00000001
00000000
00000010
00000000
00000100
00000000
00000000
00010000
00000000
00000000
00001000
00000000
00000000
01000000
00000000
00000000
,
00010000
00000000
10000000
00100000
01000000
00001000
00010000
00000100
,
00000000
00001001
00000000
00001100
00000000
01010000
00000000
00100000
,
00010000
00000000
01000000
00000000
00010000
10000000
01000000
00100000
,
00001000
00000000
00000000
00000000
00000000
00000000
00010000
00000000
00000000
00000000
00000000
00000000
00000010
00000000
00000000
00001000
00000000
00000000
00000001
00000000
00000100
00000000
00000010
00000000
,
00010000
00000000
00001000
00000000
01000000
00010000
00100000
01000000
,
10000000
00000000
00000000
00000000
00000000
00000000
00010000
00000000
01000000
00000000
00001000
00000000
00010000
00000000
00000000
00000100
00000000
00000000
00001000
00000000
00000000
00000001
00000000
00000000
,
00000010
00000000
00000000
00000000
00000000
00000000
00000100
00000000
00010000
00000000
00001000
00000000
01000000
00000000
00000000
00010000
00000000
00000000
10000000
00000000
00000000
00100000
00000000
00000000
,
01000000
00000000
00000000
00000000
00000000
00000000
00010000
00000000
00100000
00000000
00001000
00000000
00010000
00000000
00000000
00000010
00000000
00000000
00001000
00000000
00000000
00000001
00000000
00000000
,
00000100
00000000
00000000
00000000
00000000
00000000
00000010
00000000
00010000
00000000
00001000
00000000
01000000
00000000
00000000
00010000
00000000
00000000
00100000
00000000
00000000
01000000
00000000
00000000
,
10000000
01010000
11000000
01010000
,
10000000
01000000
00100000
01000000
10000000
00100000
01000000
00000000
,
00010000
00100000
00001000
00010000
00000100
00001000
00000001
00000000
,
00000010
00001000
00000010
00000100
00000001
00001000
00000100
00000000
,
00010000
00001000
01000000
00010000
10000000
00100000
01000000
00000000
,
00010000
00100000
01000000
10000000
01000000
00100000
00001000
00000000
,
00010000
00000010
00001000
00000001
00000100
00000001
00001000
00000000
,
00000100
00010000
00001000
01000000
00100000
10000000
00010000
00000000
,
00100000
00001000
00010000
00000010
00001000
00000001
00000100
00000000
,
00000010
00001000
00000001
00000100
00000010
00001000
00000100
00000000
,
00010000
00001000
01000000
00010000
00100000
01000000
10000000
00000000
,
00010000
01000000
00001000
00010000
00000010
00001000
00000100
00000000
,
00000010
00000001
00001000
00000010
00010000
00001000
01000000
00000000
,
00010000
00100000
00010000
00100000
01000000
10000000
01000000
10000000
,
00010000
00100000
00010000
00100000
00001000
00010000
00001000
00010000
,
00000010
00001000
00000010
00001000
00000001
00000100
00000001
00000100
,
00000020
00000000
00000000
00000030
,
00001001
00000000
00000000
00000000
;

//--------------- dance-double - forcednature ----------------
#NOTES:
     dance-double:
     forcednature:
     Hard:
     9:
     0,0,0,0,0:
00000000
00000000
00000000
00000000
,
00000000
00000000
00000000
00000000
,
00000000
00000000
00000000
00000000
,
00000000
00000000
00000000
00000000
,
00000000
00000000
00000000
00000000
00000000
00000000
00000000
00000000
00010000
00000000
00001000
00000000
01000000
00000000
00000000
00010000
00000000
00000000
10000000
00000000
00000000
00200000
00000000
00000000
,
00000000
00000000
00000000
00000000
00000000
00000000
00300000
00000000
01000000
00000000
00001000
00000000
00010000
00000000
00000000
00000100
00000000
00000000
00001000
00000000
00000000
00000002
00000000
00000000
,
00000000
00000000
00000000
00000000
00000000
00000000
00000003
00000000
00000010
00000000
00001000
00000000
00000010
00000000
00000000
00000001
00000000
00000000
00001000
00000000
00000000
00000020
00000000
00000000
,
00000000
00000000
00000000
00000000
00000000
00000000
00010030
00001000
00010000
00000000
01000000
00000000
00000000
00000000
10010000
00000000
,
00000000
00000000
00011000
00000000
00000000
00000000
00001001
00000000
00000000
00000000
00011000
00000000
00000000
00000000
01000000
00001000
,
01000000
00000000
00001000
00000000
00010000
00000010
00000100
00001000
,
00000100
00000000
00000000
00000000
00000000
00000000
00000001
00000000
00000000
00000000
00000000
00000000
00001000
00000000
00000000
00000100
00000000
00000000
00000000
00000000
00010000
00000000
00001000
00000000
,
01000000
00000000
00010000
00000000
00100000
10000000
00100000
00010000
,
01000000
00000000
00000000
00000000
00000000
00000000
00001000
00000000
00010000
00000000
00000100
00000000
00001000
00000000
00000000
00000100
00000000
00000000
00000001
00000000
00000000
00000100
00000000
00000000
,
00001000
00000000
00000000
00000000
00000000
00000000
00000010
00000000
00010000
00000000
00001000
00000000
00100000
00000000
00000000
00010000
00000000
00000000
00100000
00000000
00000000
10000000
00000000
00000000
,
00100000
00000000
00000000
00000000
00000000
00000000
00010000
00000000
10000000
00000000
00100000
00000000
01000000
00000000
00000000
00010000
00000000
00000000
01000000
00000000
00000000
10000000
00000000
00000000
,
01000000
00000000
00000000
00000000
00000000
00000000
00010000
00000000
00000100
00000000
00000010
00000000
00000001
00000000
00000000
00000010
00000000
00000000
00000100
00000000
00000000
00001000
00000000
00000000
,
00000001
00001000
00000001
00001000
,
00000001
00000010
00001000
00000010
00000001
00001000
00000100
00010000
,
00001000
01000000
00010000
01000000
10000000
01000000
00010000
00000000
,
10000000
01000000
00010000
01000000
10000000
00100000
01000000
00001000
,
00010000
00000010
00000001
00000010
00010000
00000100
00000001
00000000
,
00000100
00010000
00001000
01000000
00010000
10000000
01000000
00010000
,
01000000
10000000
00100000
01000000
00001000
00010000
00000010
00000000
,
00001000
00000100
00000001
00000100
00001000
00000010
00010000
00001000
,
01000000
10000000
01000000
00010000
00100000
01000000
10000000
00000000
,
00100000
10000000
00010000
10000000
01000000
00010000
00001000
00000010
,
00000001
00000100
00000010
00001000
00000100
00010000
00001000
00010000
,
01000000
10000000
01000000
00010000
00001000
00010000
00001000
00000100
,
00000001
00000100
00001000
00010000
01000000
00010000
00001000
00010000
,
00001000
00000100
00001000
00010000
01000000
00010000
00001000
00000100
,
00001000
00010000
01000000
00010000
00001000
00000100
00001000
00010000
,
01000000
10000000
01000000
00010000
01000000
10000000
01000000
00010000
,
20020000
00000000
00000000
30030000
,
11000000
00000000
00101000
00000000
00010000
00000010
00000001
00000000
,
00000110
00000000
00010100
00000000
01000000
00010000
00100000
00000000
,
11000000
00000000
00101000
00000000
00010000
00000010
00000100
00000000
,
00000002
00000010
00001000
00000103
00000001
00000000
00001010
00000000
,
00010000
00001000
01000000
00000000
00110000
00000000
11000000
00000000
,
10000000
01000000
00100000
00000000
00011000
00000000
00001010
00000000
,
00000001
00000010
00001000
00000000
00010100
00000000
01001000
00000000
,
00200000
00000000
10000000
00000000
00001000
00300000
01010000
00000000
,
10000000
01000000
00010000
00000000
00001000
00000010
00000001
00000000
,
00000100
00000001
00000010
00000000
00000100
00010000
00001000
00000000
,
01000000
00010000
10000000
00000000
00100000
01000000
00001000
00000000
,
00010000
00000100
00000001
00000000
00000100
00010000
00001000
00000000
,
01000000
00000000
00000110
00000000
00000001
00000100
00001000
00000000
,
00000010
00010000
00001000
00000000
00100000
00010000
10000000
00000000
,
00100000
10000000
00010000
00000000
10000000
01000000
00010000
00000000
,
00001020
00000000
00000100
00000030
00000001
00000010
00000100
00001000
,
00000010
00000000
00001100
00000000
00010000
00001000
01000000
00100000
,
00010000
00000000
00000000
00000000
00000000
00000000
10010000
00000000
00000000
00000000
00000000
00000000
10000000
00000000
00000000
01000000
00000000
00000000
00100000
00000000
00001000
00000000
00010000
00000000
,
00000010
00000000
00000101
00000000
00000100
00000001
00000100
00001000
,
00000100
00000000
00000000
00000000
00000000
00000000
00000010
00000000
00010000
00000000
00001000
00000000
00100000
00000000
00000000
00010000
00000000
00000000
10000000
00000000
00000000
01000000
00000000
00000000
,
00100000
00000000
00000000
00000000
00000000
00000000
00001000
00000000
00010000
00000000
00000100
00000000
00000001
00000000
00000000
00000100
00000000
00000000
00001000
00000000
00000000
00000010
00000000
00000000
,
00000100
00000000
00000000
00000000
00000000
00000000
00000001
00000000
00000010
00000000
00001000
00000000
00010000
00000000
00000000
01000000
00000000
00000000
10000000
00000000
00000000
00100000
00000000
00000000
,
00010000
00000000
00000000
00000000
00100000
00000000
10000000
00010000
10000000
00000000
00100000
00000000
00000000
00000000
11000000
00000000
,
00000000
00000000
00101000
00000000
00000000
00000000
00010010
00000000
00000000
00000000
00000101
00000000
00000000
00000000
00000001
00000010
,
00000001
00000000
00000101
00000000
00001000
00000010
00010000
00001000
,
00100000
00000000
00000000
00000000
00000000
00000000
10010000
00000000
00000000
00000000
00000000
00000000
10000000
00000000
00000000
01000000
00000000
00000000
00010000
00000000
01000000
00000000
10000000
00000000
,
00100000
00000000
01001000
00000000
01000000
00001000
00010000
00000010
,
00000100
00000000
00000000
00000000
00000000
00000000
00000010
00000000
00000100
00000000
00001000
00000000
00000100
00000000
00000000
00000001
00000000
00000000
00000010
00000000
00000000
00001000
00000000
00000000
,
00010000
00000000
00000000
00000000
00000000
00000000
01000000
00000000
10000000
00000000
01000000
00000000
00010000
00000000
00000000
01000000
00000000
00000000
10000000
00000000
00000000
00100000
00000000
00000000
,
01000000
00000000
00000000
00000000
00000000
00000000
00001000
00000000
00010000
00000000
00000010
00000000
00001000
00000000
00000000
00000010
00000000
00000000
00000001
00000000
00000000
00000010
00000000
00000000
,
00001000
00000000
00000000
00000000
00000000
00000000
00000100
00000000
00010000
00000000
00001000
00000000
01000000
00000000
00000000
00010000
00000000
00000000
10000000
00000000
00000000
00100000
00000000
00000000
,
00010000
10100000
00110000
10100000
,
10000000
00000000
00010000
00100000
00010000
00000000
01000000
00000000
00001000
00000000
00010000
00000010
00010000
00000000
00000001
00000000
,
00001000
00000000
00000010
00000100
00000010
00000000
00001000
00000000
00000100
00000000
00010000
00001000
00010000
00000000
00001000
00000000
,
00100000
00000000
00010000
10000000
00010000
00000000
01000000
00000000
00100000
00000000
10000000
01000000
10000000
00000000
00010000
00000000
,
00100000
00000000
00001000
00010000
00001000
00000000
00010000
00000000
00000010
00000000
00001000
00000001
00001000
00000000
00000001
00000000
,
00000100
00000000
00000010
00001000
00000010
00000000
00010000
00000000
00001000
00000000
01000000
00010000
01000000
00000000
00010000
00000000
,
00100000
00000000
01000000
10000000
01000000
00000000
00100000
00000000
00010000
00000000
00100000
00001000
00010000
00000000
00000010
00000000
,
00001000
00000000
00000001
00000100
00000010
00000000
00001000
00000000
00000100
00000000
00010000
00001000
01000000
00000000
00010000
00000000
,
00100000
00000000
01000000
10000000
00010000
00000000
00100000
00000000
00001000
00000000
00010000
00000010
00001000
00000000
00000001
00000000
,
00000100
00000000
00000010
00001000
00000100
00000000
00010000
00000000
00001000
00000000
01000000
00010000
00100000
00000000
01000000
00000000
,
10000000
00000000
00100000
01000000
00010000
00000000
00100000
00000000
00001000
00000000
00010000
00000100
00001000
00000000
00000010
00000000
,
00000100
00000000
00000001
00000010
00000100
00000000
00001000
00000000
00000010
00000000
00010000
00001000
01000000
00000000
00010000
00000000
,
00100000
00000000
00010000
10000000
00100000
00000000
01000000
00000000
00010000
00000000
00100000
00001000
00010000
00000000
00000010
00000000
,
00000100
00000000
00000001
00000010
00000100
00000000
00001000
00000100
00010000
00000000
00001000
01000000
00010000
00000000
00100000
00000000
,
00010000
00000000
10000000
00100000
01000000
00000000
00010000
00100000
01000000
00000000
10000000
00010000
01000000
00000000
00001000
00000000
,
00010000
00000000
00000010
00001000
00000001
00000000
00000010
00000100
00001000
00000000
00000001
00000100
00000010
00000000
00001000
00000000
,
00000200
00000300
00000200
00000300
00000200
00000300
00000200
00000300
00000200
00000300
00000200
00000300
00000000
00000000
00000000
00000000
,
00001001
00000000
00000000
00000000
;

//--------------- dance-double - forcednature ----------------
#NOTES:
     dance-double:
     forcednature:
     Challenge:
     10:
     0,0,0,0,0:
00000000
00000000
00000000
00000000
,
00000000
00000000
00000000
00000000
,
00000000
00000000
00000000
00000000
,
00000000
00000000
00000000
00000000
,
00000000
00000000
00000000
00000000
00000000
00000000
00000000
00000000
00010000
00000000
00001000
00000000
01000000
00000000
00000000
00100000
00000000
00000000
10000000
00000000
00000000
02000000
00000000
00000000
,
00000000
00000000
00000000
00000000
00000000
00000000
00000000
00000000
00100000
03000000
00001000
00000000
00010000
00000000
00000000
00000010
00000000
00000000
00001000
00000000
00000000
00000200
00000000
00000000
,
00000000
00000000
00000000
00000000
00000000
00000000
00000000
00000000
00000010
00000300
00000001
00000000
00001000
00000000
00000000
00000100
00000000
00000000
00010000
00000000
00000000
00002000
00000000
00000000
,
00000000
00000000
00000000
00000000
00000000
00000000
00000000
00000000
00000000
01003000
00001000
01000000
00001000
00000000
00000000
00010000
00000000
00000000
00000000
00000000
00000000
10100000
00000000
00000000
,
00000000
00000000
00000000
01010000
00000000
00000000
00000000
00000000
00000000
00001100
00000000
00000000
00000000
00000000
00000000
00000011
00000000
00000000
00000000
00000000
00000000
00000001
00000100
00000001
,
00000200
00000000
00000000
00000000
00000000
00000310
00010000
00002000
,
00000000
00000000
00000000
00000000
00000000
00000000
00000000
00000000
00000000
00000000
00000000
00000000
01003000
00000000
00000000
00020000
00000000
00000000
00000000
00000000
10000000
00030000
01000000
00000000
,
00200000
00000000
00000000
00000000
00000000
00301000
00010000
00000020
,
00000000
00000000
00000000
00000000
00000000
00000000
00000000
00000000
00000100
00000030
00000001
00000000
00001000
00000000
00000000
00000100
00000000
00000000
00010000
00000000
00000000
00002000
00000000
00000000
,
00000000
00000000
00000000
00000000
00000000
00000000
00000000
00000000
01000000
00003000
00010000
00000000
10000000
00000000
00000000
00100000
00000000
00000000
01000000
00000000
00000000
00002000
00000000
00000000
,
00000000
00000000
00000000
00000000
00000000
00000000
00000000
00000000
00010000
00003000
00000100
00000000
00001000
00000000
00000000
00000001
00000000
00000000
00001000
00000000
00000000
00000020
00000000
00000000
,
00000000
00000000
00000000
00000000
00000000
00000000
00000000
00000000
00010000
00000030
00001000
00000000
01000000
00000000
00000000
00100000
00000000
00000000
10000000
00000000
00000000
00010000
00000000
00000000
,
10010000
10010000
10010000
10010000
,
10000000
00000000
01000000
00000000
00100000
00000000
00001000
00000000
00010000
00000000
00000010
00000100
00000000
00000001
00000000
00000000
,
00001000
00000100
00010000
00000000
00001000
00000000
00010000
00001000
01000000
00000000
00010000
00100000
00000000
01000000
00000000
00000000
,
10000000
00100000
01000000
00000000
00001000
00000000
00010000
00000000
00000010
00000000
00000100
00000001
00000000
00000010
00000000
00000000
,
00001000
00010000
00001000
00000000
01000000
00000000
00010000
00000000
10000000
00000000
00100000
01000000
00000000
00001000
00000000
00000000
,
00010000
00000000
00000100
00000000
00000010
00000000
00000001
00000000
00001000
00000000
00000010
00010000
00000000
00001000
00000000
00000000
,
01000000
00010000
00100000
00000000
01000000
00000000
10000000
00100000
01000000
00000000
00001000
00010000
00000000
00000010
00000000
00000000
,
00000100
00000001
00001000
00000000
00000100
00000000
00010000
00000000
00001000
00000000
00100000
01000000
00000000
10000000
00000000
00000000
,
00100000
01000000
00001000
00000000
00010000
00000000
00000010
00000000
00001000
00000000
00000100
00000010
00000000
00000001
00000000
00000000
,
00001001
00000000
00001000
00000000
00000100
00000000
00010000
00000000
00001000
00000000
01000000
00010000
00000000
00100000
00000000
00000000
,
01000000
00000000
10000000
00000000
00010000
00000000
00100000
00000000
00001000
00000000
00010000
00000010
00000000
00000100
00000000
00000000
,
00000001
00000000
00000010
00000000
00000100
00000000
00001000
00000000
00000100
00000000
00010000
00001000
00000000
01000000
00000000
00000000
,
00010000
00000000
00100000
00000000
01000000
00000000
10000000
00000000
00010000
00000000
00100000
00001000
00000000
00010000
00000000
00000000
,
00000010
00000000
00001000
00000010
00001000
00000000
00000001
00000100
00000001
00000000
00010000
00000010
00010000
00000010
00010000
00000010
,
00010000
00000000
00000100
00010000
00000100
00000000
01000000
00001000
01000000
00000000
00010000
00100000
00010000
00100000
00010000
00100000
,
01000000
10000000
00010000
01000000
00001000
00010000
00000100
00001000
00000001
00000010
00000100
00001000
00000001
00001000
00000010
00000100
,
00000002
00000000
00000000
00000000
00002000
00000000
00000003
00000000
00000002
00000000
00003000
00000000
00002000
00000000
00000003
00000000
00000002
00000000
00000000
00000000
00000000
00003003
00000000
00000000
00000220
00000000
00000000
00000000
00000000
00000330
00000000
00000000
,
00000001
00000000
00000010
00000100
00010000
00000000
00001000
00000000
01000000
00000000
00010000
00000000
10000000
00000000
00100000
00000000
,
10000000
01000000
00010000
00001000
00000010
00000001
00000100
00000010
,
00001000
00000100
00010000
00001000
00100000
01000000
10000000
00100000
,
01000000
00000000
00000000
00000000
00001000
00000000
00100000
00000000
00000000
00010000
00000000
00000000
01000000
00000000
00000000
00000000
00001000
00000000
00100000
00000000
00000000
00010000
00000000
00000000
10000000
00000000
00000000
00000000
00000000
00000000
01000000
00000000
00000000
00000000
00000000
00000000
00200000
00000000
00000000
00000000
00000000
00000000
00000000
00000000
00000000
00300000
00000000
00000000
,
00001000
00000100
00000010
00000001
00000000
00000100
00000010
00000001
00000010
00000000
00001000
00000000
00000100
00000000
00010000
00000000
,
00001000
00000000
00000000
00000000
02000000
00000000
00000000
00000000
00100000
00000000
00000000
00000000
10000000
00000000
03000000
01000000
00010000
00000000
00000000
00000000
00010000
00000000
00000000
00000000
00011000
00000000
00000000
00000000
00000010
00000000
00000000
00000000
,
00000200
00000000
00000001
00000000
00001000
00000300
00000020
00000000
00001000
00000000
00000001
00000030
00000010
00000000
00010000
00000000
,
02000000
00000000
10000000
00000000
00010000
03000000
00200000
00000000
00010000
00000000
10000000
00300000
10010000
00000000
00000000
00000000
,
10000000
00000000
01000000
00100000
00001000
00000000
00010000
00000000
00000010
00000000
00000100
00000000
00001000
00000000
00000100
00000000
,
00000001
00001000
00000100
00010000
00001000
00010000
01000000
10000000
,
00100000
01000000
10000000
01000000
00001000
00010000
00000100
00000010
,
00000001
00000010
00001000
00000010
00000100
00010000
00001000
01000000
,
00010000
00100000
01000000
10000000
00100000
00000000
00010000
00000000
00100000
00000000
01000000
00000000
00001000
00000000
00010000
00000000
,
00000010
00000001
00000010
00001000
00000100
00000100
00010000
00001000
,
00010000
01000000
00100000
10000000
00100000
00010000
01000000
10000000
,
01000000
00000000
00010000
01000000
00000000
00000000
00100000
00000000
10000000
00100000
00000000
00000000
20000000
00000000
30000000
02000000
00000000
03000000
00200000
00000000
00300000
00002000
00000000
00003000
,
00010000
00000000
00000000
00000010
00000000
00000000
00001000
00000000
00000000
00000001
00000000
00000000
00000010
00000000
00000000
00002000
00000000
00003000
00000020
00000000
00000030
00000002
00000000
00000003
,
00000100
00000000
00000000
00000010
00000000
00000000
00010000
00000000
00000000
00001000
00000000
00000000
00200000
00000000
00300000
02000000
00000000
03000000
10000000
00000000
00020000
00000000
02030000
00000000
,
03002000
00000000
00003000
00010000
00000000
00000000
00000010
00000000
00000000
00001000
00000000
00000000
00000100
00000000
00000000
00000020
00000000
00000030
00000002
00000000
00000003
00000200
00000000
00000300
,
00000010
00000000
00000000
00001000
00000000
00000000
00000100
00000000
00020000
00000000
00032000
00000000
02003000
00000000
03000000
00020000
00000000
00030000
02000000
00000000
03000000
20000000
00000000
30000000
,
01000000
00000000
00000000
00010000
00000000
00000000
00100000
00000000
00002000
00000000
00023000
00000000
00030200
00000000
00000300
00000020
00000000
00000030
00002000
00000000
00003000
00000020
00000000
00000030
,
00000001
00000000
00000000
00000100
00000000
00000000
00000010
00000000
00020000
00000000
00032000
00000000
00203000
00000000
00300000
00020000
00000000
00030000
02000000
00000000
03000000
20000000
00000000
30000000
,
01000000
00000000
00000000
00000000
00000000
00000000
00000000
00000000
00000000
00000000
00000000
00000000
00010000
00000000
00000000
00000000
00000000
00000000
00000000
00000000
00000000
00000000
00000000
00000000
00100000
00000000
00000000
00000000
00000000
00000000
00000000
00000000
00000000
00000000
00000000
00000000
02000000
00000000
00000000
00000000
23000000
00000000
00000000
30000000
02000000
00000000
00000000
03000000
20000000
00000000
00000000
30000000
00000000
00000000
00000000
00000000
00000000
00000000
00000000
00000000
00200000
00000000
00000000
00000000
00000000
00000000
00000000
00000000
00300000
00000000
00000000
00000000
01000000
00000000
00000000
00000000
00000000
00000000
00000000
00000000
00000000
00000000
00000000
00000000
00002000
00000000
00000000
00000000
00000000
00000000
00000000
00000000
00003000
00000000
00000000
00000000
,
00000100
00000000
00000000
00000000
00000000
00000000
00000000
00000000
00000000
00000000
00000000
00000000
00002000
00000000
00000000
00000000
00000000
00000000
00000000
00000000
00003000
00000000
00000000
00000000
01000000
00000000
00000000
00000000
00000000
00000000
00000000
00000000
00000000
00000000
00000000
00000000
00002000
00000000
00000000
00000000
00000000
00000000
00000000
00000000
00003000
00000000
00000000
00000000
00000100
00000000
00000000
00000000
00000000
00000000
00000000
00000000
00000000
00000000
00000000
00000000
00002000
00000000
00000000
00000000
00000000
00000000
00000000
00000000
00003000
00000000
00000000
00000000
01000000
00000000
00000000
00000000
00000000
00000000
00000000
00000000
00000000
00000000
00000000
00000000
00002000
00000000
00000000
00003000
00020000
00000000
00000000
00030000
00002000
00000000
00000000
00003000
,
00020000
00000000
00000000
00030000
00000000
00000000
00000000
00000000
00000000
00000000
00000000
00000000
00000010
00000000
00000000
00000000
00000000
00000000
00000000
00000000
00000000
00000000
00000000
00000000
00001000
00000000
00000000
00000000
00000000
00000000
00000000
00000000
00000000
00000000
00000000
00000000
00000100
00000000
00000000
00000000
00000000
00000000
00000000
00000000
00000000
00000000
00000000
00000000
00000001
00000000
00000000
00000000
00000000
00000000
00000000
00000000
00000000
00000000
00000000
00000000
00000200
00000000
00000000
00000000
00000000
00000000
00000000
00000000
00000300
00000000
00000000
00000000
00020000
00000000
00000000
00000000
00000000
00000000
00000000
00000000
00030000
00000000
00000000
00000000
00002000
00000000
00000000
00000000
00000000
00000000
00000000
00000000
00003000
00000000
00000000
00000000
,
01000000
00000000
00000000
00010000
00000000
00000000
01000000
00000000
00000000
10000000
00000000
00000000
02000000
00000000
03000000
00020000
00000000
00030000
00100000
00000000
00002000
00000000
00023000
00000000
,
00030200
00000000
00000300
00000010
00000000
00000000
00000001
00000000
00000000
00000010
00000000
00000000
00001000
00000000
00000000
00000020
00000000
00000030
00000002
00000000
00000003
00000200
00000000
00000300
,
00000001
00000000
00000000
00001000
00000000
00000000
00000010
00000000
00020000
00000000
00032000
00000000
02003000
00000000
03000000
00200000
00000000
00300000
20000000
00000000
30000000
02000000
00000000
03000000
,
00100000
00000000
00000000
00001000
00000000
00000000
00010000
00000000
00000200
00000000
00000320
00000000
00000032
00000000
00000003
00000200
00000000
00000300
00000002
00000000
00000003
00002000
00000000
00003000
,
00000010
00000000
00000000
00010000
00000000
00000000
00001000
00000000
02000000
00000000
03020000
00000000
20030000
00000000
30000000
02000000
00000000
03000000
00020000
00000000
00030000
02000000
00000000
03000000
,
10000000
00000000
00000000
00100000
00000000
00000000
01000000
00000000
00002000
00000000
00023000
00000000
00030020
00000000
00000030
00000200
00000000
00000300
00002000
00000000
00003000
00000200
00000000
00000300
,
00000001
00001000
00000100
00000001
00000100
00010000
00001000
01000000
,
00100000
00000000
10000000
01000000
00100000
00000000
00010000
00000000
01000000
00000000
00001000
00010000
00000100
00000000
00000010
00000000
,
00000001
00000000
00001000
00000010
00010000
00000000
00001000
00000000
01000000
00000000
00010000
00100000
01000000
00000000
10000000
00000000
,
00010000
00000000
01000000
00001000
00010000
00000000
00000100
00000000
00000010
00000000
00000001
00001000
00000010
00000000
00001000
00000000
,
00000100
00000000
00010000
00001000
00100000
00000000
00010000
00000000
10000000
00000000
00100000
01000000
00001000
00000000
00010000
00000000
,
00000100
00000000
00000010
00000001
00001000
00000000
00000010
00000000
00010000
00000000
00001000
00100000
00010000
00000000
10000000
00000000
,
00100000
00000000
01000000
00010000
00100000
00000000
01000000
00000000
10000000
00000000
00010000
01000000
00001000
00000000
00010000
00000000
,
00000100
00000000
00000010
00000100
00001000
00000000
00000001
00000000
00000100
00000000
00000010
00001000
00000001
00000000
00001000
00000000
,
00000100
00000000
00010000
00001000
01000000
00000000
00010000
00000000
00100000
00000000
01000000
10000000
00010000
00000000
00100000
00000000
,
01000000
00000000
10000000
00010000
01000000
00000000
00001000
00000000
00010000
00000000
00000100
00001000
00000001
00000000
00000100
00000000
,
00000010
00000000
00001000
00000100
00010000
00000000
00001000
00000000
01000000
00000000
00010000
00100000
01000000
00000000
10000000
00000000
,
00010000
00000000
01000000
00001000
00010000
00000000
00000100
00000000
00001000
00000000
00000001
00000010
00000100
00000000
00001000
00000000
,
00000001
00000000
00000100
00000010
00001000
00000000
00000100
00000000
00010000
00000000
00001000
01000000
00010000
00000000
10000000
00000000
,
01000000
00000000
00100000
01000000
10000000
00000000
00100000
01000000
00010000
00000000
10000000
01000000
00100000
00010000
01000000
00100000
,
10000000
00000000
00010000
01000000
00001000
00000000
00010000
00000100
00001000
00000000
00000100
00010000
00001000
01000000
00001000
00010000
,
00000100
00001000
00000001
00000100
00000010
00001000
00000100
00010000
00001000
00100000
00010000
00100000
01000000
10000000
00010000
01000000
,
00001000
00010000
00001000
00010000
00001000
00010000
00001000
00010000
00001000
00010000
00001000
00010000
00000000
00000000
00000000
00000000
,
01000100
00000000
00000000
00000000
;
