#TITLE:YES or YES;
#SUBTITLE:;
#ARTIST:TWICE;
#TITLETRANSLIT:;
#SUBTITLETRANSLIT:;
#ARTISTTRANSLIT:;
#GENRE:K-POP;
#CREDIT:DaffaK, skeleton by mf32892;
#BANNER:[Round E] - YES or YES.png;
#BACKGROUND:[Round E] - YES or YES-bg.png;
#LYRICSPATH:;
#CDTITLE:cdtitle.png;
#MUSIC:[Round E] - YES or YES.ogg;
#OFFSET:-0.167000;
#SAMPLESTART:70.819000;
#SAMPLELENGTH:15.000000;
#SELECTABLE:YES;
#BPMS:0.000000=138.000000
;
#STOPS:
;
#BGCHANGES:0.000=[Round E] - YES or YES.avi=1.000=0=0=0=StretchNoLoop==CrossFade_Fastest==,
99999=-nosongbg-=1.000=0=0=0 // don't automatically add -songbackground-
;
#KEYSOUNDS:;
#ATTACKS:;

//---------------dance-single - ----------------
#NOTES:
     dance-single:
     :
     Beginner:
     1:
     0.144804,0.195792,0.009563,0.086063,0.000000,106.000000,105.000000,1.000000,9.000000,0.000000,0.000000,0.144804,0.195792,0.009563,0.086063,0.000000,106.000000,105.000000,1.000000,9.000000,0.000000,0.000000:
// measure 0
0000
0000
0000
0000
,  // measure 1
0000
0000
0000
0000
,  // measure 2
0000
0000
0000
0000
,  // measure 3
0000
0000
0000
0000
,  // measure 4
0010
0000
0000
0000
,  // measure 5
0010
0000
0000
0000
,  // measure 6
0100
0000
0000
0000
,  // measure 7
0100
0000
0000
0000
,  // measure 8
0001
0000
1000
0000
,  // measure 9
0002
0000
0000
0000
,  // measure 10
0003
0000
0001
0000
,  // measure 11
1000
0000
1000
0000
,  // measure 12
0010
0010
0010
0000
,  // measure 13
2000
0000
0000
0000
,  // measure 14
3000
0000
1000
0000
,  // measure 15
0001
0000
0001
0000
,  // measure 16
0010
0010
0010
0000
,  // measure 17
0001
0000
0100
0000
,  // measure 18
0010
0010
0010
0000
,  // measure 19
1000
0000
0001
0000
,  // measure 20
0010
0010
0010
0000
,  // measure 21
0100
0000
0100
0000
,  // measure 22
0010
0000
0010
0000
,  // measure 23
0001
0000
1000
0000
,  // measure 24
0010
0010
0010
0000
,  // measure 25
1000
0000
0100
0000
,  // measure 26
0010
0010
0010
0000
,  // measure 27
0001
0000
1000
0000
,  // measure 28
0010
0010
0010
0000
,  // measure 29
0100
0000
0100
0000
,  // measure 30
0010
0000
0010
0000
,  // measure 31
1000
0000
0001
0000
,  // measure 32
0010
0010
0010
0000
,  // measure 33
0002
0000
0003
0000
,  // measure 34
0100
0000
0010
0000
,  // measure 35
2000
0000
3000
0000
,  // measure 36
0100
0000
0010
0000
,  // measure 37
0001
0000
1000
0000
,  // measure 38
0010
0000
0100
0000
,  // measure 39
0020
0000
0000
0000
,  // measure 40
0030
0000
0000
0000
,  // measure 41
1000
0000
0010
0000
,  // measure 42
0001
0000
0100
0000
,  // measure 43
1000
0000
0010
0000
,  // measure 44
0100
0100
0100
0000
,  // measure 45
0001
0000
0010
0000
,  // measure 46
1000
0000
0100
0000
,  // measure 47
0001
0000
0010
0000
,  // measure 48
0100
0100
0100
0000
,  // measure 49
2000
0000
3000
0000
,  // measure 50
0002
0000
0003
0000
,  // measure 51
0200
0000
0300
0000
,  // measure 52
0020
0000
0030
0000
,  // measure 53
1000
1000
1000
0000
,  // measure 54
0001
0001
0001
0000
,  // measure 55
0010
0000
0010
0000
,  // measure 56
0100
0000
0100
0000
,  // measure 57
1000
0000
0001
0000
,  // measure 58
0100
0000
1001
0000
;

//---------------dance-single - ----------------
#NOTES:
     dance-single:
     :
     Easy:
     3:
     0.234965,0.279704,0.057375,0.401626,0.000000,172.000000,166.000000,6.000000,42.000000,0.000000,0.000000,0.234965,0.279704,0.057375,0.401626,0.000000,172.000000,166.000000,6.000000,42.000000,0.000000,0.000000:
// measure 0
0000
0000
0000
0000
,  // measure 1
0000
0000
0000
0000
,  // measure 2
0000
0000
0000
0000
,  // measure 3
0000
0000
0000
0000
,  // measure 4
2000
0000
0000
3000
,  // measure 5
0002
0000
0000
0003
,  // measure 6
0200
0300
0020
0030
,  // measure 7
1000
0001
0100
0010
,  // measure 8
0100
0100
0010
0010
,  // measure 9
2000
3000
0200
0300
,  // measure 10
0001
0100
2000
3000
,  // measure 11
0001
0100
0010
1000
,  // measure 12
0001
1000
1001
0000
,  // measure 13
0002
0003
0200
0300
,  // measure 14
1000
0100
0002
0003
,  // measure 15
1000
0100
0010
0001
,  // measure 16
1000
0001
1001
0000
,  // measure 17
2000
3000
0020
0030
,  // measure 18
0001
0010
1000
0100
,  // measure 19
0002
0003
0200
0300
,  // measure 20
1000
0010
0100
0001
,  // measure 21
2000
3000
0002
0003
,  // measure 22
0020
0030
0200
0300
,  // measure 23
1000
0010
0100
0001
,  // measure 24
0001
0010
0100
1000
,  // measure 25
0002
0003
0020
0030
,  // measure 26
1000
0010
0001
0100
,  // measure 27
2000
3000
0200
0300
,  // measure 28
0001
0010
0100
1000
,  // measure 29
0002
0003
2000
3000
,  // measure 30
0020
0030
0200
0300
,  // measure 31
0001
0010
0100
1000
,  // measure 32
1000
0010
0100
0001
,  // measure 33
2000
3000
0010
0100
,  // measure 34
0002
0003
2000
3000
,  // measure 35
0002
0003
0010
0100
,  // measure 36
2000
3000
0002
0003
,  // measure 37
1000
0010
1000
0000
,  // measure 38
0001
0010
0001
0000
,  // measure 39
1000
0010
0100
0001
,  // measure 40
2002
0000
3003
0000
,  // measure 41
1000
0100
0002
0003
,  // measure 42
0100
1000
0002
0003
,  // measure 43
1000
0010
0100
0001
,  // measure 44
1000
0001
1001
0000
,  // measure 45
0001
0100
2000
3000
,  // measure 46
0100
0001
2000
3000
,  // measure 47
0001
0010
0100
1000
,  // measure 48
0001
1000
1001
0000
,  // measure 49
1000
0100
0002
0003
,  // measure 50
0001
0100
2000
3000
,  // measure 51
0001
0100
2000
3000
,  // measure 52
1000
0100
0002
0003
,  // measure 53
1000
0001
0100
0100
,  // measure 54
0001
1000
0100
0100
,  // measure 55
1000
0010
0100
0001
,  // measure 56
0010
0100
1000
0001
,  // measure 57
1000
0010
0100
0001
,  // measure 58
1000
0001
1001
0000
;

//---------------dance-single - ----------------
#NOTES:
     dance-single:
     :
     Medium:
     6:
     0.411188,0.447526,0.459001,0.535501,0.009563,301.000000,253.000000,48.000000,56.000000,0.000000,0.000000,0.411188,0.447526,0.459001,0.535501,0.009563,301.000000,253.000000,48.000000,56.000000,0.000000,0.000000:
// measure 0
0000
0000
0000
0000
,  // measure 1
0000
0000
0000
0000
,  // measure 2
0000
0000
0000
0000
,  // measure 3
0000
0000
0000
0000
,  // measure 4
2000
0010
0000
0010
,  // measure 5
3002
0010
0000
0010
,  // measure 6
2003
0100
3002
0103
,  // measure 7
0001
1000
0000
1010
0000
0101
0000
0001
,  // measure 8
1000
1001
0110
1001
,  // measure 9
0102
1000
1000
0013
,  // measure 10
0001
0100
0010
0000
1000
0010
0100
0000
,  // measure 11
0001
1000
0100
0010
0002
0000
1003
0000
,  // measure 12
1001
0110
2001
3010
,  // measure 13
2100
0001
0001
3010
,  // measure 14
1000
0100
0010
0000
0001
0010
0100
0000
,  // measure 15
1000
0001
0100
0010
2000
0000
3001
0000
,  // measure 16
1001
0110
1002
0013
,  // measure 17
1001
0000
1000
0010
0000
0100
0001
0000
,  // measure 18
1000
0100
0010
0001
2000
0000
3010
0000
,  // measure 19
0101
0000
0001
1000
0000
0100
0010
0000
,  // measure 20
0001
1000
0010
0100
0002
0000
1003
0000
,  // measure 21
1200
0310
0012
1003
,  // measure 22
0201
0310
2010
3001
,  // measure 23
1000
0000
0000
0010
0000
0000
0200
0000
0000
0000
0301
0000
1000
0000
0000
0000
,  // measure 24
0001
0010
0100
0000
1000
0010
0100
0000
,  // measure 25
1001
0000
0001
0010
0000
0100
1000
0000
,  // measure 26
0001
0100
0010
1000
0002
0000
0013
0000
,  // measure 27
1100
0000
1000
0001
0000
0100
0010
0000
,  // measure 28
1000
0001
0010
0100
2000
0000
3001
0000
,  // measure 29
0201
0310
2010
3001
,  // measure 30
1200
0310
0012
1003
,  // measure 31
0001
0000
0000
0010
0000
0000
0200
0000
0000
0000
1300
0000
0001
0000
0000
0000
,  // measure 32
1000
0010
0100
0000
0001
0010
0100
0000
,  // measure 33
2002
0003
0010
3010
,  // measure 34
0202
0300
1000
1003
,  // measure 35
2002
3000
0010
0013
,  // measure 36
2200
0300
0001
3001
,  // measure 37
1000
0010
0100
0000
0001
0100
0010
0000
,  // measure 38
1000
0100
0010
0000
0001
0010
0100
0000
,  // measure 39
2000
3020
0230
0301
,  // measure 40
2002
0000
0000
3003
,  // measure 41
2100
0001
0010
3001
,  // measure 42
0012
1000
0100
1003
,  // measure 43
0001
0100
0010
1000
0002
0000
1003
0000
,  // measure 44
1100
0011
2001
3010
,  // measure 45
0102
1000
0010
1003
,  // measure 46
2010
0001
0100
3001
,  // measure 47
1000
0100
0010
0001
2000
0000
3001
0000
,  // measure 48
0101
1010
1002
0013
,  // measure 49
2001
0000
0010
0000
3100
0000
1000
0001
,  // measure 50
0200
1000
0010
0301
,  // measure 51
1002
0000
0010
0000
0103
0000
0001
1000
,  // measure 52
0200
0001
0010
1300
,  // measure 53
2001
0000
3010
0000
0100
0001
1000
0000
,  // measure 54
1002
0000
0013
0000
0100
1000
0001
0000
,  // measure 55
2001
0010
3002
0010
,  // measure 56
1003
0001
1000
0001
0010
0100
0010
0100
,  // measure 57
2000
3002
0203
0310
,  // measure 58
1001
0110
1001
0000
;

//---------------dance-single - ----------------
#NOTES:
     dance-single:
     :
     Hard:
     9:
     0.587412,0.727229,0.191250,0.239063,0.353813,430.000000,410.000000,20.000000,25.000000,0.000000,0.000000,0.587412,0.727229,0.191250,0.239063,0.353813,430.000000,410.000000,20.000000,25.000000,0.000000,0.000000:
// measure 0
0000
0000
0000
0000
,  // measure 1
0000
0000
0000
0000
,  // measure 2
0000
0000
0000
0000
,  // measure 3
0000
0000
0000
0000
,  // measure 4
2000
0000
0000
0010
0010
0000
0010
0000
,  // measure 5
3002
0000
0000
0010
0010
0000
0010
0000
,  // measure 6
2003
0000
0100
0000
3002
0000
0103
0001
,  // measure 7
1000
1001
0000
0110
0000
1001
0001
1000
,  // measure 8
0010
0100
0000
0000
0010
0100
0000
0000
0001
1000
0000
0001
1000
0000
0000
0000
,  // measure 9
1001
0000
0000
0001
0010
0000
1000
0000
0010
0000
0001
0000
0200
0000
0000
0000
,  // measure 10
1300
0100
0002
0000
1003
0100
0001
0100
,  // measure 11
1000
0000
0001
0000
0100
0000
0010
0000
1000
0000
0000
1000
0100
0000
0010
0000
,  // measure 12
0001
0000
0000
0001
1000
0000
0000
1000
0010
0000
0000
0010
0100
0000
0001
0000
,  // measure 13
1000
0000
0000
1000
0010
0000
0001
0000
0010
0000
1000
0000
0200
0000
0000
0000
,  // measure 14
0301
0100
2000
0000
3001
0100
1000
0100
,  // measure 15
0001
0000
1000
0000
0100
0000
0010
0000
0001
0000
0000
0001
0100
0000
0010
0000
,  // measure 16
1000
0000
0000
1000
0001
0000
0000
0001
0010
0000
0000
0010
0100
0000
0000
0000
,  // measure 17
2001
0000
3010
0001
0010
0100
0002
0000
,  // measure 18
1003
0000
0100
0000
0010
0000
0001
0000
1000
0000
0000
1000
0001
0000
0100
0000
,  // measure 19
2000
0000
3100
0001
1000
0001
0020
0000
,  // measure 20
1030
0010
0001
1000
0100
0010
0001
0000
,  // measure 21
1001
0000
0000
1000
0010
0000
0000
0010
0001
0000
0010
0000
1000
0000
0000
0000
,  // measure 22
1001
0000
0000
0001
0100
0000
0000
0100
1000
0000
0100
0000
0001
0000
0010
0000
,  // measure 23
1000
0000
0000
0010
0000
0000
0002
0000
0000
0000
0103
0000
0010
0000
1000
0000
,  // measure 24
0001
0010
0100
0010
1000
0010
0001
1000
,  // measure 25
1002
0000
0013
1000
0010
0100
2000
0000
,  // measure 26
3001
0000
0100
0000
0010
0000
1000
0000
0001
0000
0000
0001
1000
0000
0100
0000
,  // measure 27
0002
0000
0103
1000
0001
1000
0020
0000
,  // measure 28
0031
0010
1000
0001
0100
0010
1000
0000
,  // measure 29
1001
0000
0000
0001
0010
0000
0000
0010
1000
0000
0010
0000
0001
0000
0000
0000
,  // measure 30
1001
0000
0000
1000
0100
0000
0000
0100
0001
0000
0100
0000
1000
0000
0010
0000
,  // measure 31
0001
0000
0000
0010
0000
0000
2000
0000
0000
0000
3100
0000
0010
0000
0001
0000
,  // measure 32
1000
0010
0100
0010
0001
0010
1000
0000
,  // measure 33
1002
0000
0000
0000
0013
0000
1000
0000
0010
0000
0000
0001
0000
0000
1000
0000
,  // measure 34
0020
0000
0130
0001
1000
0001
0010
0100
,  // measure 35
2000
0000
0000
0000
3010
0000
0001
0000
0010
0000
0000
1000
0000
0000
0001
0000
,  // measure 36
0020
0000
0130
1000
0001
1000
0010
0100
,  // measure 37
0001
0000
0010
0000
1000
0000
0010
0000
0001
0000
0010
0100
0010
0000
0100
0000
,  // measure 38
1000
0000
0010
0000
0001
0000
0010
0000
1000
0000
0010
0100
0010
0000
0100
0000
,  // measure 39
0001
0010
0001
0010
0001
0010
0001
0010
0100
1000
0100
1000
0100
1000
0100
2000
,  // measure 40
0002
0000
0000
3003
,  // measure 41
1001
0000
0000
0001
1000
0000
0000
1000
0100
0000
0001
0000
1000
0000
0010
0000
,  // measure 42
0001
0000
0000
0001
1000
0000
0000
1000
0010
0000
0001
0000
1000
0000
0100
0000
,  // measure 43
0001
0000
0010
0000
0100
0000
1000
0000
0001
0000
0000
0001
0100
0000
0010
0000
,  // measure 44
1010
0000
0000
1000
0100
0000
0000
0100
0001
0000
1000
0000
0010
0000
0001
0000
,  // measure 45
1001
0000
0000
1000
0001
0000
0000
0001
0100
0000
1000
0000
0001
0000
0010
0000
,  // measure 46
1000
0000
0000
1000
0001
0000
0000
0001
0010
0000
1000
0000
0001
0000
0100
0000
,  // measure 47
1000
0000
0010
0000
0100
0000
0001
0000
1000
0000
0000
1000
0100
0000
0010
0000
,  // measure 48
0011
0000
0000
0001
0100
0000
0000
0100
1000
0000
0001
0000
0010
0000
1000
0000
,  // measure 49
1001
0000
0000
0001
0010
0000
1000
0000
0000
1000
0010
0000
0001
0000
0100
0000
,  // measure 50
1000
0000
0100
0010
0000
0100
0001
0000
1000
0000
0100
0000
0010
0000
0001
0000
,  // measure 51
1001
0000
0000
1000
0010
0000
0001
0000
0000
0001
0010
0000
1000
0000
0100
0000
,  // measure 52
0001
0000
0100
0010
0000
0100
1000
0000
0001
0000
0100
0000
0010
0000
1000
0000
,  // measure 53
0100
0000
0010
0001
0000
0001
1000
0000
0010
0000
0100
0001
0100
0000
0001
0000
,  // measure 54
0100
0000
0010
1000
0000
1000
0001
0000
0010
0000
0100
1000
0100
0000
1000
0000
,  // measure 55
0001
0000
0100
0001
0100
0000
0010
0000
1000
0000
0100
1000
0100
0000
0010
0000
,  // measure 56
0001
0010
0001
0000
1000
0010
1000
0000
0001
1000
0001
1000
0001
1000
0001
1000
,  // measure 57
0001
1000
0100
0001
0200
0000
1300
0001
,  // measure 58
1001
0110
1001
0000
;
