#TITLE:Shelter;
#SUBTITLE:(Odyssey Eurobeat Bootleg);
#ARTIST:Madeon and Porter Robinson;
#TITLETRANSLIT:;
#SUBTITLETRANSLIT:;
#ARTISTTRANSLIT:;
#GENRE:;
#CREDIT:;
#MUSIC:[Round E] - Shelter (Odyssey Eurobeat Bootleg).ogg;
#BANNER:[Round E] - Shelter (Odyssey Eurobeat Bootleg).png;
#BACKGROUND:[Round E] - Shelter (Odyssey Eurobeat Bootleg)-bg.png;
#CDTITLE:;
#SAMPLESTART:24.895;
#SAMPLELENGTH:12.387;
#SELECTABLE:YES;
#OFFSET:-6.347;
#BPMS:0.000=155.000;
#STOPS:;
#BGCHANGES:;
#FGCHANGES:;

//--------------- dance-single - TiKAL ----------------
#NOTES:
     dance-single:
     TiKAL:
     Hard:
     8:
     0,0,0,0,0:
0000
0000
0000
0000
,
0000
0000
0000
0000
,
0000
0000
0000
0000
,
0000
0000
0000
0000
,
1000
0000
0000
0000
0100
0000
0000
1000
0000
0000
0000
0000
0000
0000
0000
0000
,
0001
0000
0000
0000
0100
0000
0000
0001
0000
0000
0000
0000
1000
0000
0001
0000
,
1000
0000
0000
0000
0010
0000
0000
1000
0000
0000
0000
0000
0000
0000
0001
0000
,
0010
0010
0010
0010
,
0001
0000
0000
0000
1000
0000
0000
0010
0000
0000
0000
0000
0000
0000
1000
0000
,
0001
0000
0000
0000
1000
0000
0000
0100
0000
0000
0000
0000
1000
0000
0001
0000
,
1000
0000
0000
0000
0001
0000
0000
0100
0000
0000
0000
0000
0000
0000
0001
0000
,
0010
0010
0010
0010
,
1001
0000
1000
0010
0100
0010
1000
0100
,
0010
0001
0000
1001
0000
1000
0010
1000
,
0001
0000
1000
0100
0100
1000
0001
0200
,
0000
0310
0100
0010
1000
0001
0010
0100
,
1001
0000
0001
0010
0100
0010
0001
0100
,
0010
1000
0000
1001
0000
0001
0010
0001
,
1000
0000
0001
0100
0100
0001
1000
0200
,
0000
0310
0100
0010
0001
1000
0001
1000
,
0001
0100
0010
1000
,
0020
0030
0020
0030
,
0000
0000
1000
0001
1000
0100
0010
0001
,
0002
0000
0000
0000
0003
0000
1000
0001
,
1000
0000
0001
0000
0100
0010
0100
0001
,
2000
3001
2000
3001
,
0010
0000
0100
1000
0001
0100
0010
1000
,
2000
0000
0000
0000
3001
0010
0100
1000
,
0001
0101
0000
1100
,
0000
0000
0000
0000
2000
0000
0002
0000
0000
3003
0001
0000
1000
0000
0100
0000
,
1000
1010
0000
0011
,
0000
0000
0001
0000
0020
0000
0200
0000
0000
0330
1000
0000
0010
0000
0100
0000
,
0001
0011
0000
1010
,
0001
0000
0010
0000
0200
0000
2000
0000
0000
3300
0001
0000
0100
0000
0010
0000
,
1000
0001
0010
0001
1000
0010
2000
0002
,
0000
0000
0000
3003
,
2000
0000
0000
3020
0000
0000
0230
0000
,
0000
0301
0010
0100
0000
1000
0000
1100
,
0000
1000
0100
0001
0000
1000
0010
0001
,
1000
0010
0100
0002
0000
0000
1003
0000
,
0001
0000
0010
0000
0000
0010
0000
0000
0001
0000
0010
0000
0100
0000
1000
0000
,
0010
0000
0010
0100
0000
0001
0000
0101
,
0000
1000
0100
0010
0001
0010
0100
2000
,
0002
0000
0000
3003
,
0001
0000
0000
0000
,
0001
0000
0000
0000
,
1000
0000
0000
0000
,
0100
0100
0100
0100
,
1000
0000
0000
0000
0010
0000
0000
1000
0000
0000
0000
0000
0000
0000
0000
0000
,
0001
0000
0000
0000
0010
0000
0000
0001
0000
0000
0000
0000
1000
0000
0001
0000
,
1000
0000
0000
0000
0100
0000
0000
1000
0000
0000
0000
0000
0000
0000
0001
0000
,
0200
0000
0000
0300
,
1001
0000
0001
0010
0100
0010
0001
0100
,
0010
1000
0000
1001
0000
0001
0010
0001
,
1000
0000
0001
0100
0100
0001
1000
0200
,
0000
0310
0100
0010
0001
1000
0010
0100
,
1001
0000
1000
0010
0100
0010
1000
0100
,
0010
0001
0000
1001
0000
1000
0010
1000
,
0001
0000
1000
0100
0100
1000
0001
0200
,
0000
0310
0100
0010
1000
0001
1000
0001
,
1000
0000
0000
1000
0000
0000
0000
0000
,
0001
0000
0000
0001
0000
0000
0000
0000
,
0100
0000
0000
0100
0000
0000
0000
0000
,
0010
0000
0000
0010
0000
0000
1000
0100
,
0000
0000
0100
0010
0000
0000
0010
0001
,
0000
0000
0001
0000
1000
0000
0010
0100
,
0000
0002
2000
0000
,
0000
0000
0000
0000
,
0000
0000
0000
0000
,
0000
0000
0000
3003
,
0100
0000
0000
0000
;

//--------------- dance-single - TiKAL ----------------
#NOTES:
     dance-single:
     TiKAL:
     Challenge:
     10:
     0,0,0,0,0:
0000
0000
0000
0000
,
0000
0000
0000
0000
,
0000
0000
0000
0000
,
0000
0000
0000
0000
,
1000
0000
0000
0000
0100
0010
0000
1000
0000
0000
0000
0000
0000
0000
0010
0000
,
0001
0000
0000
0000
0100
0010
0000
0001
0000
0000
0000
0000
0010
0000
1000
0000
,
0001
0000
0000
0000
0010
0100
0000
0001
0000
0000
0000
0000
0000
0000
0100
0000
,
1000
0000
0001
1000
0010
0000
1000
0001
0010
0000
0100
1000
0001
0000
0100
0001
,
1000
0000
0000
0000
0010
0100
0000
1000
0000
0000
0000
0000
0000
0000
0100
0000
,
0001
0000
0000
0000
0010
0100
0000
0001
0000
0000
0000
0000
0100
0000
1000
0000
,
0001
0000
0000
0000
0100
0010
0000
0002
0000
0000
0000
0000
0000
0000
0013
0000
,
1000
0000
0001
1000
0100
0000
1000
0001
0100
0000
0001
1000
0010
0100
0001
0000
,
0020
0000
0000
0000
0130
0010
0100
1000
0001
0000
0100
0000
0010
0000
1000
0000
,
0100
0000
2000
0000
0010
3000
1001
0000
0000
0000
0002
0000
0010
0000
2003
0000
,
3100
0000
0000
0000
0000
0000
0010
0000
0100
0000
0010
0000
0100
0000
0000
0000
0000
0000
1000
0000
0000
0000
0000
0000
1000
0000
0000
0000
0000
0000
0001
0000
0000
0100
0000
0000
0010
0000
0000
0000
0000
0000
2000
0000
0000
0000
0000
0000
,
0000
0000
3001
0010
0001
0010
0100
1000
0001
0100
0010
1000
0010
0100
0001
1000
,
0200
0000
0000
0000
0310
0100
0010
0001
1000
0000
0010
0000
0100
0000
0001
0000
,
0010
0000
0002
0000
0100
0003
1001
0000
0000
0000
0002
0000
0203
0000
0302
0000
,
0013
0000
0000
0000
0000
0000
0100
0000
0010
0000
0100
0000
0010
0000
0000
0000
0000
0000
0001
0000
0000
0000
0000
0000
0001
0000
0000
0000
0000
0000
1000
0000
0000
0010
0000
0000
0100
0000
0000
0000
0000
0000
0002
0000
0000
0000
0000
0000
,
0000
0000
1003
0100
1000
0100
0010
0001
1000
0100
0010
0001
1000
0010
0100
0001
,
1000
0000
0001
0010
0100
0010
0001
1000
,
0100
0000
0000
0100
0000
0000
0000
0000
M100
0000
0000
0100
0000
0000
0000
0000
,
0001
0000
0000
0000
1000
0010
0000
0100
0000
0010
0000
1000
0000
0001
0000
0002
,
0000
0000
0000
0000
0000
0000
0000
0000
0003
0000
0000
0000
1000
0001
1000
0001
,
1000
0000
0000
0000
0001
0100
0000
0010
0000
0000
1000
0000
0001
0000
1000
0000
,
0100
0000
0000
1000
0100
0000
0000
0000
M100
0000
0000
0001
0100
0000
0000
0000
,
0001
0000
0000
0000
1000
0010
0000
0100
0000
0000
0010
0000
1000
0000
0001
0000
,
0002
0000
0010
0000
1003
0010
0100
0001
,
0010
0011
0001
1001
,
1000
0000
0000
0000
0010
0000
2020
0000
0000
3030
0001
1000
0001
0000
0100
0000
,
0010
1010
1000
1001
,
0001
0000
0000
0000
0000
0000
0010
0000
0100
0000
0010
0000
0001
0000
0000
0000
0000
0000
2002
0000
0000
0000
0000
0000
0000
0000
0000
3003
0000
0000
0001
0000
0000
1000
0000
0000
0001
0000
0000
0100
0000
0000
0010
0000
0000
1000
0000
0000
,
0001
0101
1000
1100
,
0001
0000
0010
0000
0100
0000
1000
0000
0000
0000
0000
0000
0001
0000
0000
0000
0000
0000
0022
0000
0000
0000
0000
0000
0000
0000
0000
0033
0000
0000
1000
0000
0000
0001
0000
0000
0010
0000
0000
0100
0000
0000
1000
0000
0000
0001
0000
0000
,
1000
0010
0001
1000
0100
0001
1000
2002
,
0000
0000
0000
0000
0000
0000
0000
0000
3003
0000
0001
0010
0100
1000
0001
0000
,
2000
0000
0100
3002
0010
0000
2003
0000
,
3100
1000
0001
0200
0300
0020
0000
1030
,
0000
0001
0010
1000
0000
0001
0100
1000
,
1000
0000
0010
0000
0100
0000
0002
0000
0000
0000
1003
0001
1000
0100
0010
0001
,
1000
0000
0001
0100
0000
0001
0100
0000
0001
0100
0010
1000
0001
0010
0100
0010
,
0002
0000
2003
3020
0000
0230
0000
0301
,
0001
0010
0100
1000
0100
0010
0001
1000
,
0100
0000
0010
0001
0000
0010
0001
0000
1000
0010
0000
1000
0010
0100
0001
0000
,
1000
0000
0000
0000
0001
0100
0000
1000
0000
0000
0000
0000
0000
0000
0000
0000
,
0001
0000
0000
0000
0010
1000
0000
0001
0000
0000
0000
0000
1000
0000
0001
0000
,
0001
0000
0000
0000
0010
1000
0000
0001
0000
0000
0000
0000
0000
0000
0100
0000
,
1000
0000
0001
1000
0010
0000
1000
0001
0010
0000
0100
1000
0001
0000
0100
0001
,
1000
0000
0000
0000
0010
0100
0000
1000
0000
0000
0000
0000
0000
0000
0000
0000
,
0001
0000
0000
0000
0010
0100
0000
0001
0000
0000
0000
0000
1000
0000
0001
0000
,
0001
0000
0000
0000
0010
0100
0000
0002
0000
0000
0000
0000
0003
0000
0100
0000
,
2000
0000
0000
0000
0000
0000
0000
0000
3000
0000
0001
0100
0010
1000
0001
0000
,
0200
0000
0000
0000
0310
0100
0010
1000
0001
0000
0010
0000
0100
0000
1000
0000
,
0010
0000
2000
0000
0100
3000
1001
0000
0000
0000
0002
0000
0100
0000
2003
0000
,
3010
0000
0000
0000
0000
0000
0100
0000
0010
0000
0100
0000
0010
0000
0000
0000
0000
0000
1000
0000
0000
0000
0000
0000
1000
0000
0000
0000
0000
0000
0001
0000
0000
0010
0000
0000
0100
0000
0000
0000
0000
0000
2000
0000
0000
0000
0000
0000
,
0000
0000
3001
0100
0001
0100
0010
1000
0001
0010
0100
1000
0100
0010
0001
1000
,
0020
0000
0000
0000
0130
0010
0100
0001
1000
0000
0100
0000
0010
0000
0001
0000
,
0100
0000
0002
0000
0010
0003
1001
0000
0000
0000
0002
0000
0023
0000
0032
0000
,
0103
0000
0000
0000
0000
0000
0010
0000
0100
0000
0010
0000
0100
0000
0000
0000
0000
0000
0001
0000
0000
0000
0000
0000
0001
0000
0000
0000
0000
0000
1000
0000
0000
0100
0000
0000
0010
0000
0000
0000
0000
0000
0002
0000
0000
0000
0000
0000
,
0000
0000
1003
0010
1000
0010
0100
0001
1000
0010
0100
0001
1000
0100
0010
0001
,
1000
0000
0000
1000
0000
0000
0200
0000
0000
0000
2300
0000
0000
0000
3000
0000
,
0001
0000
0000
0001
0000
0000
0200
0000
0000
0000
0000
0000
0300
0000
0001
0000
,
1000
0000
0000
0100
0000
0000
0020
0000
0000
0000
0032
0000
0000
0000
1003
0000
,
0001
0000
0000
0100
0000
0000
0020
0000
0000
0000
1030
0000
0001
0000
0100
0000
,
0000
0000
010M
1000
0000
0000
1000
0010
,
0000
0000
0000
0000
M010
0000
0001
1000
0000
0000
0010
0000
0100
0000
0100
0000
,
0000
0002
2000
0000
,
0000
0000
0000
0000
,
0000
0000
0000
0000
,
0000
0000
0000
0000
,
3103
0000
0000
0000
;
