#TITLE:Raveltex;
#SUBTITLE:;
#ARTIST:ETIA.;
#TITLETRANSLIT:;
#SUBTITLETRANSLIT:;
#ARTISTTRANSLIT:;
#GENRE:Euro-Rave;
#CREDIT:;
#BANNER:;
#BACKGROUND:;
#LYRICSPATH:;
#CDTITLE:;
#MUSIC:Raveltex.mp3;
#OFFSET:-1.507613;
#SAMPLESTART:18.962000;
#SAMPLELENGTH:15.000000;
#SELECTABLE:YES;
#BPMS:0.000000=165.000000
;
#STOPS:
;
#BGCHANGES:;
#KEYSOUNDS:;
#ATTACKS:;

//---------------dance-single - ----------------
#NOTES:
     dance-single:
     :
     Hard:
     9:
     0.680449,0.789215,0.343540,0.427104,0.496741,513.000000,476.000000,37.000000,46.000000,0.000000,0.000000,0.680449,0.789215,0.343540,0.427104,0.496741,513.000000,476.000000,37.000000,46.000000,0.000000,0.000000:
// measure 0
0000
0000
0000
0000
,  // measure 1
0000
0000
0000
0000
,  // measure 2
0000
0000
0000
0000
,  // measure 3
1000
0000
0000
0000
1000
0000
0000
0001
0100
0000
0001
0000
1000
0100
0010
0001
,  // measure 4
1000
0100
0010
0100
1000
0100
0010
0001
,  // measure 5
0100
0010
0100
0001
0100
0010
1000
0100
,  // measure 6
0010
0001
0100
0001
0010
0001
0100
0010
,  // measure 7
0100
1000
0100
0001
0100
1000
0100
0010
,  // measure 8
1000
0100
0010
0001
0010
0100
1000
0001
,  // measure 9
1000
0010
0100
0001
0100
0010
1000
0001
,  // measure 10
0010
1000
0010
0100
0001
0100
0010
0001
,  // measure 11
1010
0000
0000
0110
0000
0000
0101
0000
1000
0010
0100
0001
1000
0000
0000
0000
,  // measure 12
1000
0000
0000
1000
0100
0000
0010
0000
0000
0010
0001
0000
2000
0000
0001
0000
,  // measure 13
3001
0000
0000
0001
0100
0000
0010
0000
0000
0010
1000
0000
0002
0000
0023
0000
,  // measure 14
0130
0000
0000
0100
1000
0000
0010
0000
0000
0010
0100
0000
0002
0000
1000
0000
,  // measure 15
1003
0000
0000
1000
0001
0000
0010
0000
0000
0010
0100
0000
2000
0000
3020
0000
,  // measure 16
0130
0000
0000
0100
1000
0000
0100
0000
0000
0100
0001
0000
2000
0000
0100
0000
,  // measure 17
3100
0000
0000
0100
0001
0000
0100
0000
0000
0100
1000
0000
0020
0000
0230
0000
,  // measure 18
0301
0000
0100
0001
1000
0000
0100
0000
0010
0001
0010
0001
1000
0100
1000
0100
,  // measure 19
0010
0000
0000
1100
0000
0000
1001
0000
0001
0010
0001
0010
0001
0000
0000
0000
,  // measure 20
1000
0000
0000
0100
1000
0100
0010
0001
1000
0000
0001
0100
0000
0001
1000
0000
,  // measure 21
0010
0000
0010
0100
0000
0100
0002
0000
0000
0013
0200
0000
0000
1300
0100
0010
,  // measure 22
0002
0000
0000
0000
1003
0000
0010
1000
0010
1000
0000
0200
0000
0000
1300
0000
,  // measure 23
0010
0000
0100
0001
0000
1000
0000
0200
0000
0000
0000
0000
0301
0000
0100
0000
,  // measure 24
1000
0000
0000
0010
0100
0001
0100
0001
1000
0000
0100
0010
0000
0001
0010
0000
,  // measure 25
0001
0000
1000
0010
0000
0010
0100
0000
0001
0100
0000
2000
0000
3100
0010
1000
,  // measure 26
0002
0000
0000
0000
0013
0000
0100
1000
0100
1000
0000
0001
0000
0100
0010
1000
,  // measure 27
0000
0000
0011
0000
0000
0110
0000
0000
1100
0000
0000
1010
0000
0000
0110
0000
,  // measure 28
0101
1000
0000
1000
0000
1000
0000
0010
,  // measure 29
0000
0010
0000
0010
0000
0110
0000
0101
,  // measure 30
1100
0000
0000
1001
0000
0000
0011
0000
0000
0000
0001
0000
0000
0000
0001
0000
,  // measure 31
0000
0000
1000
0000
0000
0000
1000
0000
1010
0000
0000
0011
0000
0000
1001
0000
,  // measure 32
0110
0000
0000
1000
0100
0000
0001
0000
0100
1000
0000
0000
0002
0000
1003
0000
,  // measure 33
1000
0000
0000
0001
0100
0000
1000
0000
0100
0001
0000
0000
0020
0000
0230
0000
,  // measure 34
1300
0000
0000
0001
0010
0000
1000
0000
0010
0001
0000
0000
0200
0000
0310
0000
,  // measure 35
0110
0000
1010
0000
1001
0000
0011
0000
1100
0000
0110
0000
,  // measure 36
2002
0000
0000
0003
,  // measure 37
0020
3000
0200
0030
,  // measure 38
0002
0300
0020
0003
,  // measure 39
0200
0030
2000
0300
,  // measure 40
3002
0000
0000
0103
0010
0000
1000
0001
,  // measure 41
0020
0100
0000
0031
1000
0000
0010
0100
,  // measure 42
0020
0000
1030
1000
0001
0000
0010
0100
,  // measure 43
2000
0010
0000
3100
0010
0000
0001
0001
,  // measure 44
1000
0000
0000
0001
0100
0000
0010
0000
1000
0000
0100
0000
0010
0000
0001
0000
,  // measure 45
0010
0000
0000
0100
0010
0000
0001
0000
0100
0000
0010
0000
1000
0000
0001
0000
,  // measure 46
0200
0000
0310
0010
0000
1000
0000
0001
,  // measure 47
1000
0000
0010
0000
0100
0000
0001
0000
0010
0000
0001
0000
1000
0100
0010
0001
,  // measure 48
1000
0000
0000
0010
0100
0000
0010
0000
1000
0000
0001
0000
1000
0000
0100
0000
,  // measure 49
0010
0000
0000
0001
0010
0000
0001
0000
1000
0000
1000
0010
0100
0000
0010
0000
,  // measure 50
1000
0000
0100
0000
1000
0000
0001
0010
0100
0010
0001
0000
1000
0000
2200
0000
,  // measure 51
0000
0000
0000
3300
,  // measure 52
1000
0000
0000
0001
0100
0000
0020
0000
1000
0000
1030
0000
0001
0000
1000
0000
,  // measure 53
0100
0000
0000
0010
0001
0000
1000
0000
0010
0000
0001
0000
0010
0000
1000
0010
,  // measure 54
1000
0000
0001
0000
0010
0100
1000
0000
0100
0000
0001
0000
0100
0000
2000
0000
,  // measure 55
0010
0000
0000
0000
0001
0000
0000
0000
3100
0000
0000
0000
1000
0100
0010
0001
,  // measure 56
1000
0000
0000
0001
0100
0000
0020
0000
1000
0000
1030
0000
0001
0000
0010
0000
,  // measure 57
0100
0000
0000
1000
0100
0000
0001
0000
0100
0000
1000
0000
0100
0000
0010
0001
,  // measure 58
1000
0000
0010
0000
0100
0010
0200
0000
0000
0000
0001
0000
0000
0000
0301
0000
,  // measure 59
0010
0100
1000
0010
0100
0001
1000
0100
,  // measure 60
0010
0000
0100
1000
0000
0100
2000
0000
0100
0000
3100
0000
0010
0000
0001
0000
,  // measure 61
1000
0000
0001
0100
0000
0001
0100
0000
1000
0000
0100
0000
0001
0000
0100
0010
,  // measure 62
0100
0000
0010
0000
1000
0100
0010
0000
0100
0000
0010
0001
1000
0000
0010
1000
,  // measure 63
0001
0000
0010
0000
0100
0000
1000
0010
0100
0000
0100
0000
0001
0010
0100
1000
,  // measure 64
0001
0000
0000
1100
0000
0000
0202
0000
0000
0000
0000
0000
0000
0000
0303
0000
,  // measure 65
0101
0000
0000
0011
0000
0000
0220
0000
0000
0000
0330
0000
1001
0000
2002
0000
,  // measure 66
0000
0000
0000
0000
0000
0000
0000
3003
,  // measure 67
1001
0000
0000
0000
0110
0000
0000
1000
0010
0000
0100
0000
0001
0010
0100
1000
,  // measure 68
0010
0000
0000
0000
;

//---------------dance-single - ----------------
#NOTES:
     dance-single:
     :
     Medium:
     7:
     0.392618,0.441960,0.064994,0.232122,0.236764,296.000000,289.000000,7.000000,25.000000,0.000000,0.000000,0.392618,0.441960,0.064994,0.232122,0.236764,296.000000,289.000000,7.000000,25.000000,0.000000,0.000000:
0000
0000
0000
0000
,
0000
0000
0000
0000
,
0000
0000
0000
0000
,
0000
0000
0000
0000
,
0001
0000
0100
0000
0010
1000
0001
0000
,
1000
0100
0010
0000
0001
1000
0001
0000
,
1000
0000
0010
0000
0100
0010
1000
0000
,
0001
0010
0100
0000
0010
0001
1000
0000
,
0001
0000
0100
0000
0010
1000
0001
0000
,
1000
0001
0010
0000
0100
0010
0100
0000
,
1000
0000
0010
0000
0100
0010
0100
0000
,
0001
0000
0000
1000
0000
0000
1001
0000
0000
0000
0000
0000
0000
0000
0000
0000
,
1000
0000
0000
0001
0000
0000
0010
0000
0000
0100
0000
0000
0010
0000
0000
0000
,
0001
0000
0000
1000
0000
0000
0001
0000
0000
0100
0000
0000
0010
0000
0000
0000
,
1000
0000
0000
0010
0000
0000
1000
0000
0000
0100
0000
0000
1000
0000
0000
0000
,
0001
0000
0000
0010
0000
0000
0100
0000
0000
0010
0000
0000
0001
0000
0000
0000
,
1000
0000
0000
0010
0000
0000
0100
0000
0000
0001
0000
0000
1000
0000
0000
0000
,
0001
0000
0000
0010
0000
0000
0100
0000
0000
1000
0000
0000
0001
0000
0000
0000
,
1000
0000
0000
0100
0000
0000
0010
0000
0000
0001
0000
0000
1000
0000
0000
0000
,
0010
0000
0000
0100
0000
0000
0010
0000
2000
0000
0000
0000
3001
0000
0000
0000
,
1000
0000
0000
0001
0000
0000
0100
0000
0010
0000
0000
1000
0000
0000
0001
0000
,
0010
0000
0000
0100
0000
0000
0020
0000
0000
0000
0032
0000
0000
0000
0000
0000
,
1003
0000
0001
0000
0000
0100
0000
0000
0010
0000
0000
1000
0000
0000
0001
0000
,
0000
0000
1000
0000
0000
0010
0000
0000
0100
0000
0000
0001
0000
0000
1000
0000
,
0001
0000
0000
0010
0000
0000
0100
0000
0010
0000
0000
0001
0000
0000
1000
0000
,
0001
0000
0000
0100
0000
0000
0010
0000
1000
0000
0000
0001
0000
0000
1000
0000
,
0100
0000
0010
0000
0000
0001
0000
0000
1000
0000
0000
0001
0000
0000
0100
0000
,
0010
0000
1000
0000
0000
1000
0000
0000
0001
0000
0000
0001
0000
0000
0010
0000
,
1001
0000
0000
0000
,
0000
0000
0000
0000
0000
0010
0000
1000
,
0100
0000
0000
0010
0000
0000
1001
0000
0000
0000
0000
0000
0000
0000
0000
0000
,
0000
0000
0000
0000
0000
0000
0000
0000
0011
0000
0000
0100
0000
0000
1000
0000
,
0001
0000
0000
1000
0000
0000
0010
0000
0000
0100
0000
0000
0001
0000
0000
0000
,
1000
0000
0000
0100
0000
0000
0010
0000
0000
0001
0000
0000
1000
0000
0000
0000
,
0001
0000
0000
0100
0000
0000
1000
0000
0000
0100
0000
0000
0001
0000
0000
0000
,
1000
0000
0100
0000
0010
0000
0001
0000
0100
0000
0010
0000
,
2000
0000
0000
0000
,
3002
0000
0000
0000
,
2000
0003
0000
0000
0000
0000
0000
0000
0000
0000
0000
0000
0000
0000
0000
0000
,
0020
3000
0000
0000
0000
0000
0000
0000
0000
0000
0000
0000
0000
0000
0000
0000
,
0230
0000
0000
0000
0301
0000
1000
0001
,
0020
0000
0000
0000
0130
0000
0010
0001
,
0200
0000
0000
0000
0310
0000
0001
0010
,
2000
0000
0000
0000
3001
0000
0100
0010
,
1000
0000
0100
0000
1000
0000
0001
0010
,
0100
0000
0010
0000
0001
0000
1000
0001
,
0100
0000
0010
1000
0000
0001
0000
1000
,
0100
0000
0010
0000
0001
0000
1000
0100
,
0010
0000
0000
0001
0000
0000
1000
0000
0001
0000
0000
0000
0001
0000
0000
0000
,
0100
0000
0000
0010
0000
0000
1000
0000
0000
0000
0001
0000
0000
0000
1000
0000
,
0010
0000
0100
0002
0000
1000
0000
0023
,
0000
0000
0000
0130
,
0001
0000
0000
0100
0000
0000
0020
0000
0000
0000
1030
0000
0001
0000
0000
0000
,
1000
0000
0000
0001
0000
0000
1000
0000
0000
0000
0100
0000
0000
0000
0010
0000
,
0001
0000
1000
0001
0000
0100
0000
0020
,
1000
0000
1000
0000
1030
0000
0001
1000
,
0100
0000
0000
0010
0000
0000
0002
0000
1000
0000
0000
0000
1003
0000
0000
0000
,
0001
0000
0000
0100
0000
0000
0010
0000
0000
0000
1000
0000
0000
0000
0001
0000
,
1000
0000
0100
0020
0000
0001
0000
0130
,
0010
0001
0100
0000
0010
1000
0100
0000
,
1000
0001
0000
0200
0000
0010
0000
0301
,
1000
0100
0000
0020
0000
0001
0000
0130
,
0100
0000
0010
0001
0000
1000
0000
0001
,
0100
0010
1000
0010
0100
0000
0001
0000
,
0010
0000
0000
0100
0000
0000
0220
0000
0000
0000
0000
0000
0000
0000
0330
0000
,
1000
0000
0000
0010
0000
0000
0220
0000
0000
0000
0030
0000
0302
0000
2000
0000
,
0000
0000
0000
0000
0000
0000
0000
3003
,
0001
0000
0100
0000
0001
0010
0100
1000
,
1001
0000
0000
0000
;

//---------------dance-double - ----------------
#NOTES:
     dance-double:
     :
     Hard:
     9:
     0.665858,0.757646,0.334256,0.306401,0.496741,502.000000,466.000000,36.000000,33.000000,0.000000,0.000000,0.665858,0.757646,0.334256,0.306401,0.496741,502.000000,466.000000,36.000000,33.000000,0.000000,0.000000:
00000000
00000000
00000000
00000000
,
00000000
00000000
00000000
00000000
,
00000000
00000000
00000000
00000000
,
00100000
00000000
00000000
00000000
00100000
00000000
00000000
10000000
01000000
00000000
00010000
00000000
00001000
00010000
00001000
00010000
,
00000100
00000010
00000100
00001000
00000001
00000100
00000010
00000010
,
00001000
00000100
00010000
00001000
00100000
00010000
10000000
10000000
,
00100000
01000000
00010000
00100000
00001000
00010000
01000000
01000000
,
00100000
00001000
00010000
00000100
00000010
00001000
00010000
00010000
,
00000100
00000000
00000010
00000000
00000001
00000100
00000000
00000000
00001000
00000000
00001000
00000000
00010000
00000000
01000000
00000000
,
10000000
00000000
00100000
00000000
01000000
00010000
00000000
00000000
00100000
00000000
00100000
00000000
00001000
00000000
00010000
00000000
,
01000000
00000000
00010000
00000000
00001000
00010000
00000000
00000000
00000100
00000000
00000100
00000000
00000010
00000000
00000001
00000000
,
00000101
00000000
00000000
00001100
00000000
00000000
00011000
00000000
00010000
00001000
00010000
00001000
00010000
00000000
00000000
00000000
,
00001000
00000000
00000000
00010000
00001000
00000000
00000100
00000000
00000000
00000001
00000000
00000000
00000010
00000000
00000100
00000000
,
00000010
00000000
00000000
00000100
00001000
00000000
00000001
00000000
00000000
00000100
00000000
00000000
00001000
00000000
00010000
00000000
,
01000000
00000000
00000000
00100000
01000000
00000000
10000000
00000000
00000000
00100000
00000000
00000000
01000000
00000000
00010000
00000000
,
01000000
00000000
00000000
00010000
00100000
00000000
01000000
00000000
00000000
00010000
00000000
00000000
00001000
00000000
00010000
00000000
,
00000100
00000000
00000000
00000010
00000001
00000000
00001000
00000000
00000000
00000010
00000000
00000000
00000100
00000000
00001000
00000000
,
00010000
00000000
00000000
00100000
10000000
00000000
00010000
00000000
00000000
00100000
00000000
00100000
01000000
00000000
01000000
00000000
,
00100000
00000000
00001000
00000000
00100000
00000000
00001000
00000000
00010000
00000100
00010000
00000100
00010000
00001000
00010000
00001000
,
00010000
00000000
00000000
00011000
00000000
00000000
00010100
00000000
00000100
00001000
00000100
00001000
00000100
00000000
00000000
00000000
,
00000010
00000000
00000000
00000001
00001000
00000001
00001000
00000000
00000010
00000000
00000100
00000001
00000000
00001000
00000100
00000000
,
00000010
00000000
00000100
00010000
00000000
00001000
00020000
00000000
00000000
01030000
00200000
00000000
00000000
00310000
10000000
00010000
,
02000000
00000000
00000000
00000000
03100000
00000000
10000000
00010000
10000000
00010000
00000000
00200000
00000000
00000000
01300000
00000000
,
00010000
00000000
00001000
00010000
00000000
00000100
00000000
00000020
00000000
00000000
00000000
00000000
00000031
00000000
00000100
00000000
,
00001000
00000000
00000000
00100000
00001000
00100000
00001000
00000000
01000000
00000000
00010000
01000000
00000000
00100000
10000000
00000000
,
01000000
00000000
00100000
00001000
00000000
00010000
00000100
00000000
00000010
00000100
00000000
00002000
00000000
00003001
00000100
00000010
,
00020000
00000000
00000000
00000000
00031000
00000000
00010000
00000100
00010000
00000100
00000000
00000010
00000000
00000001
00001000
00000001
,
00000000
00000000
00000101
00000000
00000000
00001100
00000000
00000000
00011000
00000000
00000000
01010000
00000000
00000000
11000000
00000000
,
10010000
01000000
00000000
00010000
00000000
00001000
00000000
00000100
,
00000000
00001000
00000000
00010000
00000000
00011000
00000000
00011000
,
00010100
00000000
00000000
00000110
00000000
00000000
00000011
00000000
00000000
00000000
00000001
00000000
00000000
00000000
00000100
00000000
,
00000000
00000000
00001000
00000000
00000000
00000000
00010000
00000000
00011000
00000000
00000000
00101000
00000000
00000000
00110000
00000000
,
01000000
00000000
00000000
10000000
01000000
00000000
00010000
00000000
00000000
00001000
00010000
00000000
00001000
00000000
00000100
00000000
,
00001000
00000000
00000000
00010000
00000100
00000000
00000010
00000000
00000000
00000001
00001000
00000000
00000001
00000000
00000100
00000000
,
00000010
00000000
00000000
00001000
00000001
00000000
00000010
00000000
00000000
00000100
00010000
00000000
00001000
00000000
01000000
00000000
,
01100000
00000000
10100000
00000000
10010000
00000000
00110000
00000000
00101000
00000000
00011000
00000000
,
00020200
00000000
00000000
00030000
,
00000320
00000000
00000032
00000000
,
00000203
00000000
00002300
00000000
,
00023000
00000000
02030000
00000000
,
23000000
00000000
00000000
00100000
30010000
00000000
01000000
00010000
,
00200000
00001000
00000000
00010000
00310000
00000000
00001000
00000100
,
00000020
00000000
00000000
00000001
00000130
00000000
00001000
00000001
,
00000200
00000010
00000000
00001000
00001300
00000000
00010000
00100000
,
01000000
00000000
00000000
00100000
10000000
00000000
00010000
00000000
00100000
00000000
01000000
00000000
00010000
00000000
00001000
00000000
,
00000010
00000000
00000000
00000001
00001000
00000000
00000010
00000000
00000100
00000000
00001000
00000000
00010000
00000000
01000000
00000000
,
01000000
00000000
10000000
00100000
00000000
00010000
00000000
00002000
,
00010000
00000000
00000000
00000000
00010000
00000000
00000000
00000000
00013000
00000000
00000000
00000000
00001000
00010000
00001000
00010000
,
00000100
00000000
00000000
00000010
00000100
00000000
00001000
00000000
00000100
00000000
00000010
00000000
00000001
00000000
00000100
00000000
,
00000010
00000000
00000000
00001000
00000001
00000000
00000100
00000000
00001000
00000000
00010000
00000000
01000000
00000000
00010000
00000000
,
00001000
00000000
00001000
00000000
00010000
00000000
00000100
00010000
00001000
00100000
00010000
00000000
01000000
00000000
02200000
00000000
,
00000000
00000000
00000000
03300000
,
10000000
00100000
00000000
10000000
00100000
00000000
01000000
00000000
00010000
00000000
00100000
00000000
01000000
00000000
00100000
00000000
,
00001000
00010000
00000000
00001000
00010000
00000000
00000100
00000000
00000100
00000000
00000010
00000000
00000010
00000000
00000001
00000000
,
00001000
00001000
00000010
00000100
00000100
00001000
00001000
00020000
,
01000000
00000000
01030000
00000000
00100000
00000000
00001000
00000000
00010000
00000000
00000100
00000000
00001000
00000100
00001000
00000100
,
00001000
00000001
00000000
00001000
00000001
00000000
00000020
00000000
00000100
00000000
00000130
00000000
00010000
00000000
00001000
00000000
,
01000000
00010000
00000000
01000000
00010000
00000000
10000000
00000000
10000000
00000000
00100000
00000000
00100000
00000000
01000000
00000000
,
00010000
00010000
00100000
00002000
00000000
00010000
00000000
00003010
,
00000001
00000100
00000010
00010000
00001000
01000000
00100000
10000000
,
00010000
00100000
00000000
01000000
00100000
00000000
00002000
00000000
00010000
00000000
00013000
00000000
00000100
00000000
00000010
00000000
,
00000001
00000100
00000000
00000010
00001000
00000000
00000001
00000100
00000001
00000000
00001000
00000100
00001000
00000000
00000001
00000100
,
00000010
00000000
00001000
00000000
00000100
00010000
00001000
00000000
00100000
00000000
00110000
00000000
00100000
00000000
02100000
00000000
,
10000000
00000000
13000000
00000000
00010000
00000000
10000000
01000000
00010000
00000000
00010000
00000000
00001000
00010000
00001000
00010000
,
00000100
00000000
00000000
00011000
00000000
00000000
00202000
00000000
00000000
00000000
00000000
00000000
00303000
00000000
00000000
00000000
,
00110000
00000000
00000000
01100000
00000000
00000000
02020000
00000000
00000000
00000000
03030000
00000000
00011000
00000000
00022000
00000000
,
00000000
00000000
00000000
00033000
,
00001000
00000000
00000000
00000000
00010000
00000000
00000000
00001000
00000100
00000000
00000001
00000000
00000010
00000100
00001000
00000100
,
00010000
00000000
00000000
00000000
;
