#TITLE:More;
#SUBTITLE:(Junk O Punk Remix);
#ARTIST:Junkie XL feat. Lauren Rocket;
#TITLETRANSLIT:;
#SUBTITLETRANSLIT:;
#ARTISTTRANSLIT:;
#GENRE:Punktronica;
#CREDIT:;
#BANNER:[Round E] - More (Junk O Punk Remix).png;
#BACKGROUND:[Round E] - More (Junk O Punk Remix)-bg.png;
#LYRICSPATH:;
#CDTITLE:cdtitle.png;
#MUSIC:[Round E] - More (Junk O Punk Remix).ogg;
#OFFSET:-0.468661;
#SAMPLESTART:56.939251;
#SAMPLELENGTH:11.294117;
#SELECTABLE:YES;
#BPMS:0.000000=170.000000
;
#STOPS:125.500000=0.706000,
155.500000=0.706000,
345.500000=0.529000
;
#BGCHANGES:;
#KEYSOUNDS:;
#ATTACKS:;

//---------------dance-single - ----------------
#NOTES:
     dance-single:
     09-13:
     Challenge:
     9:
     0.636154,0.606473,0.499119,0.304150,0.003899,571.000000,507.000000,64.000000,39.000000,0.000000,0.000000,0.636154,0.606473,0.499119,0.304150,0.003899,571.000000,507.000000,64.000000,39.000000,0.000000,0.000000:
// measure 0
0000
0000
0000
0000
,  // measure 1
0000
0000
0000
0000
,  // measure 2
0000
0000
0000
0000
,  // measure 3
0000
0000
0000
0000
,  // measure 4
1000
0100
1000
0002
0000
0013
0010
0010
,  // measure 5
0001
0100
0001
2000
0000
3010
0010
0010
,  // measure 6
1000
0100
1000
0002
0000
0013
0010
0010
,  // measure 7
0001
0100
0001
0200
0000
0301
0100
0001
,  // measure 8
1000
0100
0010
0001
0100
0010
0000
0101
,  // measure 9
0000
1100
0000
0101
0000
1000
0100
0010
,  // measure 10
0001
0000
0010
0001
0100
1000
0000
1000
,  // measure 11
0100
0001
0010
0011
0000
1100
0000
0011
,  // measure 12
0001
0010
0100
1000
0010
0100
0001
1000
,  // measure 13
0100
0000
0100
0001
0000
0001
0100
1000
,  // measure 14
0001
0000
1001
0000
1000
0010
0100
0001
,  // measure 15
1000
0100
1000
0100
0000
1000
0100
1000
,  // measure 16
0001
0100
0010
0001
1000
0100
0010
1000
,  // measure 17
0001
0000
0001
0100
0000
0100
1000
0100
,  // measure 18
0001
1000
0001
1000
0001
0010
0100
1000
,  // measure 19
0001
0101
0000
1010
0000
0001
0010
0001
,  // measure 20
1000
0100
0010
1000
0001
0100
0010
0001
,  // measure 21
1000
0000
1000
0100
0000
0100
0001
0100
,  // measure 22
1000
0000
0001
1000
0001
0000
1001
0000
,  // measure 23
1010
1001
0011
1001
,  // measure 24
1000
0010
0000
0001
0010
0001
0000
0100
,  // measure 25
0001
0100
0000
1000
0100
1000
0000
0001
,  // measure 26
0100
0001
0000
0100
1000
0100
0000
1000
,  // measure 27
0010
1000
0000
0010
0001
0010
0000
0001
,  // measure 28
0100
0010
0100
0010
1000
0001
1000
0001
,  // measure 29
0010
0100
0010
0100
0001
1000
0001
1000
,  // measure 30
0010
0001
0010
0001
0100
1000
0100
1000
,  // measure 31
0001
0010
1000
0100
0001
0001
0010
2000
,  // measure 32
0000
3010
0001
0000
1000
1000
0100
0002
,  // measure 33
0000
0103
1000
0000
0001
0001
0010
2000
,  // measure 34
0000
3010
0001
0000
0001
0010
0100
1000
,  // measure 35
0010
0100
0001
0000
1000
1000
0010
0002
,  // measure 36
0000
0013
1000
0000
0001
0001
0100
2000
,  // measure 37
0000
3100
0001
0000
1000
1000
0010
0002
,  // measure 38
0000
0013
1000
0000
0001
0010
0001
0100
,  // measure 39
1000
1000
1010
0002
0000
1003
1100
0000
,  // measure 40
0001
0001
0011
2000
0000
3001
0101
0000
,  // measure 41
1000
1000
1010
0002
0000
1003
1100
0000
,  // measure 42
1000
0100
0001
0100
0001
0100
1000
0000
,  // measure 43
0001
0001
0101
2000
0000
3001
0011
0000
,  // measure 44
1000
1000
1100
0002
0000
1003
1010
0000
,  // measure 45
0001
0001
0101
2000
0000
3001
0011
0000
,  // measure 46
0001
0100
1000
0001
0010
1000
0001
0100
,  // measure 47
0010
1000
0100
0000
1000
0100
0001
0000
,  // measure 48
0100
0001
0010
0000
0001
0010
1000
0000
,  // measure 49
0001
0011
1000
1010
,  // measure 50
0001
0000
0101
0000
1000
0000
1100
0100
,  // measure 51
0010
0001
0100
0000
0001
0100
1000
0000
,  // measure 52
0100
1000
0010
0000
1000
0010
0001
0000
,  // measure 53
1000
1010
0001
0011
,  // measure 54
1000
0000
0000
0000
0000
0000
0000
0000
0004
0000
4000
0000
0000
0000
0000
0000
0000
0000
0000
0000
0000
0000
0000
0000
0000
0000
0000
0000
0000
0003
0000
3000
,  // measure 55
0001
0001
0100
0020
0000
0031
0001
0010
,  // measure 56
0100
0100
0001
0020
0000
0130
0100
0001
,  // measure 57
0100
0100
0010
0002
0000
0103
0100
0010
,  // measure 58
1000
0010
0100
0001
0010
0100
1000
0000
,  // measure 59
1000
1000
0100
0020
0000
1030
1000
0010
,  // measure 60
0100
0100
1000
0020
0000
0130
0100
1000
,  // measure 61
0100
0100
0010
2000
0000
3100
0100
0010
,  // measure 62
0001
0100
0010
0100
1000
0100
0010
0100
,  // measure 63
0101
0202
0303
0001
,  // measure 64
0001
0001
0000
1000
,  // measure 65
1100
2200
3300
1000
,  // measure 66
1000
1000
0000
0001
,  // measure 67
0011
0011
0100
1000
,  // measure 68
0001
0001
0100
0010
,  // measure 69
1010
0000
1001
0000
0001
0010
0000
0001
,  // measure 70
0010
0010
0100
1000
0010
0010
0100
0000
,  // measure 71
0001
0001
0101
2000
0000
3100
0011
0000
,  // measure 72
1000
1000
1100
0002
0000
0103
1010
0000
,  // measure 73
0001
0001
0101
2000
0000
3100
0011
0000
,  // measure 74
0001
0010
1000
0010
1000
0010
0001
0000
,  // measure 75
1000
1000
1010
0002
0000
0013
1100
0000
,  // measure 76
0001
0001
0011
2000
0000
3010
0101
0000
,  // measure 77
1000
1000
1010
0002
0000
0013
1100
0000
,  // measure 78
0001
0100
1000
0001
0010
1000
0001
1000
,  // measure 79
0100
0010
0011
2000
0000
3001
0101
0000
,  // measure 80
0100
0010
1010
0002
0000
1003
1100
0000
,  // measure 81
0100
0010
0011
2000
0000
3001
0101
0000
,  // measure 82
1000
0100
0001
0100
0001
0100
1000
0000
,  // measure 83
0010
0100
0101
2000
0000
3100
0011
0000
,  // measure 84
0010
0100
1100
0002
0000
0103
1010
0000
,  // measure 85
0010
0100
0101
2000
0000
3100
0011
0000
,  // measure 86
0010
0000
0000
0000
0001
0000
0000
0000
0100
0000
0000
0000
2000
3000
0000
0000
0000
0000
0000
0000
0000
0000
0000
0000
0000
0000
0000
0000
0000
0000
0000
0000
;

//---------------dance-single - ----------------
#NOTES:
     dance-single:
     09-12:
     Hard:
     9:
     0.572650,0.572780,0.210566,0.272956,0.027296,514.000000,487.000000,27.000000,35.000000,54.000000,0.000000,0.572650,0.572780,0.210566,0.272956,0.027296,514.000000,487.000000,27.000000,35.000000,54.000000,0.000000:
0000
0000
0000
0000
,
0000
0000
0000
0000
,
0000
0000
0000
0000
,
0000
0000
0000
0000
,
1000
1000
1000
0200
0000
1300
0001
1000
,
0001
0001
0001
0200
0000
0301
1000
0001
,
1000
1000
1000
0200
0000
1300
0001
1000
,
0001
0001
0001
0200
0000
0310
0010
1000
,
0001
0010
0001
0010
0001
0100
0000
0101
,
0000
1100
0000
0101
0000
1000
0100
1000
,
0100
0000
0010
0001
1000
0010
0000
0100
,
0001
0101
1000
1100
,
1000
0010
1000
0010
1000
0100
1000
0100
,
0010
0000
0100
0010
0000
0001
0100
0010
,
0100
0000
0010
0000
0100
0010
1000
0001
,
0010
1100
0010
0101
,
1000
0010
0100
0010
0001
0010
0100
0010
,
1000
0000
1000
0001
0000
0001
1000
0100
,
0010
0100
0010
0100
0010
0100
0000
0010
,
0001
1100
1000
0101
,
0001
0010
0100
0010
1000
0010
0100
0010
,
0001
0000
0001
1000
0000
1000
0001
0100
,
1000
0000
1000
0100
0001
0000
1001
0000
,
1010
1001
0011
1001
,
1000
0010
0000
0010
1000
0001
0000
0001
,
1000
0100
0000
0100
1000
0001
0000
0010
,
0001
1000
0000
1000
0001
0100
0000
0100
,
0001
1000
0000
1000
0001
0010
0000
0001
,
2000
3010
0020
0031
,
0002
0103
0200
1300
,
2000
3020
0032
0203
,
1300
0010
0100
0001
0001
0010
0001
0020
,
0000
0001
0031
0000
1000
0010
1000
0020
,
0000
1000
1030
0000
0001
0010
0001
0020
,
0000
0001
0031
0000
1000
0010
1000
0010
,
1000
0001
0010
0000
0001
0100
0001
0200
,
0000
0001
0301
0000
1000
0100
1000
0200
,
0000
1000
1300
0000
0001
0100
0001
0200
,
0000
0001
0301
0000
1000
0100
0010
0001
,
1000
0000
0010
MM0M
0010
0000
0002
0000
0000
0000
1000
0000
1003
0000
0000
0000
,
0001
0000
0100
M0MM
0100
0000
2000
0000
0000
0000
0001
0000
3001
0000
0000
0000
,
1000
0000
0010
MM0M
0010
0000
0002
0000
0000
0000
1000
0000
1003
0000
0000
0000
,
0001
0100
0010
1000
0100
0010
0001
0000
,
1000
0000
0100
M0MM
0100
0000
0002
0000
0000
0000
1000
0000
1003
0000
0000
0000
,
0001
0000
0010
MM0M
0010
0000
2000
0000
0000
0000
0001
0000
3001
0000
0000
0000
,
1000
0000
0100
M0MM
0100
0000
0002
0000
0000
0000
1000
0000
1003
0000
0000
0000
,
0001
0100
0001
0100
1000
0100
1000
0100
,
0001
0010
0100
0000
0100
0010
1000
0000
,
1000
0010
0100
0000
0100
0010
0001
0000
,
1000
1010
0001
0011
,
1000
0000
1100
0000
0001
0000
0010
0001
,
1000
0010
0100
0000
0100
0010
0001
0000
,
0001
0010
0100
0000
0100
0010
1000
0000
,
0001
0011
1000
1100
,
0001
0000
0000
0000
0000
0000
0000
0000
4000
0000
0004
0000
0000
0000
0000
0000
0000
0000
0000
0000
0000
0000
0000
0000
0000
0000
0000
0000
0000
3000
0000
0003
,
1000
1000
0100
0020
0000
0130
0100
0010
,
0001
0001
0100
0020
0000
0130
0100
0010
,
1000
1000
0100
0020
0000
0130
0100
1000
,
0001
0100
0010
0100
1000
0100
0001
0000
,
0010
0010
0001
0200
0000
0301
0001
0100
,
0010
0010
1000
0200
0000
1300
1000
0100
,
0010
0010
0001
0200
0000
0310
0010
1000
,
0100
0010
0100
0001
0100
0010
0100
1000
,
1001
2002
3003
0001
,
0001
0001
0000
0001
,
1001
2002
3003
1000
,
1000
1000
0000
1000
,
1100
0101
0001
0010
,
0001
0100
0001
0010
,
0011
0000
1010
0000
1000
0100
0000
0010
,
0001
0001
0100
0010
1000
1000
0100
0000
,
0010
0001
0001
0100
M0MM
0100
1000
0000
,
0010
1000
1000
0100
M0MM
0100
0001
0000
,
0010
0001
0001
0100
M0MM
0100
1000
0000
,
1000
0010
0100
0001
0010
0100
1000
0000
,
0100
1000
1000
0010
MM0M
0010
0001
0000
,
0100
0001
0001
0010
MM0M
0010
1000
0000
,
0100
1000
1000
0010
MM0M
0010
0001
0000
,
1000
0010
1000
0010
0001
0010
0001
0010
,
1000
0100
0010
1000
0MMM
1000
0100
0000
,
1000
0010
0100
1000
0MMM
1000
0010
0000
,
1000
0100
0010
1000
0MMM
1000
0100
0000
,
1000
0010
0100
0001
0010
0100
1000
0000
,
0001
0100
0010
0001
MMM0
0001
0100
0000
,
0001
0010
0100
0001
MMM0
0001
0010
0000
,
0001
0100
0010
0001
MMM0
0001
0100
0000
,
0010
0000
0000
0000
1000
0000
0000
0000
0100
0000
0000
0000
0002
0003
0000
0000
0000
0000
0000
0000
0000
0000
0000
0000
0000
0000
0000
0000
0000
0000
0000
0000
;

//---------------dance-single - ----------------
#NOTES:
     dance-single:
     07-10:
     Medium:
     7:
     0.514716,0.505943,0.382138,0.085786,0.000000,462.000000,413.000000,49.000000,11.000000,24.000000,0.000000,0.514716,0.505943,0.382138,0.085786,0.000000,462.000000,413.000000,49.000000,11.000000,24.000000,0.000000:
0000
0000
0000
0000
,
0000
0000
0000
0000
,
0000
0000
0000
0000
,
0000
0000
0000
0000
,
1000
0000
0000
0200
0000
1300
0001
1000
,
0001
0000
0000
0200
0000
0301
1000
0001
,
1000
0000
0000
0200
0000
1300
0001
1000
,
0001
0000
0000
0002
0000
1003
0010
1000
,
0010
0000
1000
0000
0001
0010
0000
0100
,
0000
0100
0000
0100
0000
0010
0001
0000
,
0100
0000
0010
0000
1000
0001
0000
0001
,
1000
1100
0001
0101
,
1000
0000
0001
0000
0010
0000
0100
0010
,
0100
0000
1000
0001
0000
0001
1000
0000
,
0010
0000
0010
0000
0100
0010
0100
0000
,
0001
0101
1000
1100
,
0001
0010
1000
0001
,
0100
0000
1000
0010
0000
0010
0100
0000
,
0001
0000
1000
0000
0001
0010
0000
0100
,
1000
1010
0001
0011
,
1000
0010
0001
1000
,
0100
0000
0001
0010
0000
0010
0100
0000
,
1000
1100
0001
0101
,
1000
1010
0001
0011
,
1000
0010
0000
1000
0010
1000
0000
0010
,
1000
0010
0000
1000
0010
1000
0000
0001
,
0010
0001
0000
0010
0001
0010
0000
0001
,
0010
0001
0000
0010
0001
0010
0000
0001
,
1000
1010
1000
1100
,
0001
0011
0001
0101
,
1000
1100
0001
0011
,
1000
0100
0010
0001
0001
0000
0100
0010
,
0000
0010
0100
0000
0001
0000
0010
0100
,
0000
0100
0010
0000
0001
0000
0100
0010
,
0000
0010
0100
0000
0001
1000
0001
1000
,
0001
1000
0001
0000
1000
0000
0100
0010
,
0000
0010
0100
0000
1000
0000
0010
0100
,
0000
0100
0010
0000
1000
0000
0100
0010
,
0000
0010
0100
0000
1000
0010
0100
0001
,
0011
0000
0100
1000
0000
1000
0010
0000
,
1010
0000
0100
0001
0000
0001
0010
0000
,
0011
0000
0100
1000
0000
1000
0010
0000
,
0100
0001
0100
0001
0100
0001
0100
0000
,
1001
0000
0010
1000
0000
1000
0100
0000
,
1001
0000
0010
0001
0000
0001
0100
0000
,
1001
0000
0010
1000
0000
1000
0100
0000
,
0010
0100
0010
0100
0010
0100
0010
0000
,
0001
0100
0001
0000
0100
0010
0100
0000
,
1000
0100
1000
0000
0100
0010
0100
0000
,
0001
0101
0001
1001
,
0001
0011
0001
1001
,
1000
0100
1000
0000
0100
0010
0100
0000
,
0001
0100
0001
0000
0100
0010
0100
0000
,
1000
1100
1000
1010
,
0001
2002
0000
3003
,
1000
0000
0001
0010
0000
0001
0100
0000
,
0001
0000
1000
0010
0000
1000
0100
0000
,
1000
0000
0001
0010
0000
0001
0100
0000
,
0010
1000
0001
0000
0010
0001
1000
0000
,
0001
0000
0100
0010
0000
1000
0100
0000
,
1000
0000
0100
0010
0000
0001
0100
0000
,
0001
0000
0100
0010
0000
1000
0100
0000
,
0010
0001
0100
0000
0010
1000
0100
0000
,
0011
0022
0033
0001
,
0001
0001
0000
1000
,
1010
2020
3030
1000
,
1000
1000
0000
0001
,
0011
0011
0100
1000
,
0010
0010
0100
0001
,
1001
0000
1001
0000
1000
0001
0000
0001
,
0010
0100
1000
0000
0010
0100
0001
0000
,
1001
0000
0001
0010
M00M
0010
1000
0000
,
1001
0000
1000
0010
M00M
0010
0001
0000
,
1001
0000
0001
0010
M00M
0010
1000
0000
,
0001
0010
0001
0010
0001
0010
0001
0000
,
1001
0000
1000
0100
M00M
0100
0001
0000
,
1001
0000
0001
0100
M00M
0100
1000
0000
,
1001
0000
1000
0100
M00M
0100
0001
0000
,
1000
0010
1000
0010
1000
0010
1000
0000
,
1001
0000
1000
0100
M00M
0100
0001
0000
,
0011
0000
0001
0100
M00M
0100
1000
0000
,
1010
0000
1000
0010
M00M
0010
0001
0000
,
0100
0001
0100
0001
0100
0001
0100
0000
,
1001
0000
0001
0100
M00M
0100
1000
0000
,
1010
0000
1000
0100
M00M
0100
0001
0000
,
0011
0000
0001
0010
M00M
0010
1000
0000
,
0100
1000
0001
0200
0300
0000
0000
0000
;

//---------------dance-single - ----------------
#NOTES:
     dance-single:
     05-07:
     Easy:
     5:
     0.370997,0.472213,0.483521,0.444528,0.000000,333.000000,271.000000,62.000000,57.000000,0.000000,0.000000,0.370997,0.472213,0.483521,0.444528,0.000000,333.000000,271.000000,62.000000,57.000000,0.000000,0.000000:
0000
0000
0000
0000
,
0000
0000
0000
0000
,
0000
0000
0000
0000
,
0000
0000
0000
0000
,
1000
0000
0000
2000
0000
0000
3000
0000
,
0001
0000
0000
0002
0000
0000
0003
0000
,
1000
0000
0000
2000
0000
0000
3000
0000
,
0100
0000
0000
0200
0000
0000
0300
0000
,
1000
0010
0100
0001
,
0010
0001
0100
0010
,
1000
0100
0010
0001
,
1000
1000
0001
0001
,
0100
0010
1000
0100
,
1000
0010
0100
0001
,
0010
0100
1000
0001
,
0100
0100
0010
0010
,
1000
0010
0001
1000
,
0100
0001
0010
0100
,
1000
0010
1000
0001
,
0010
0010
0100
0100
,
1000
0100
0001
1000
,
0010
0001
0100
0010
,
1000
1000
0001
0001
,
1000
0001
1000
0001
,
1000
1010
0000
1010
,
0000
1010
0000
1010
,
0001
0011
0000
0011
,
0000
0011
0000
0011
,
1000
1010
0001
0011
,
1000
1100
0001
0101
,
0010
1100
0010
0101
,
0010
0000
1001
0000
1000
0000
0000
0200
,
0000
0000
1300
0000
0001
0000
0000
0200
,
0000
0000
0301
0000
1000
0000
0000
0200
,
0000
1300
0001
0001
,
1000
0000
1000
0000
0010
0000
0000
2000
,
0000
0000
3001
0000
0010
0000
0000
0002
,
0000
0000
1003
0000
0010
0000
0000
2000
,
0000
3001
0010
0010
,
0011
0000
0000
2100
0000
0000
3001
0000
,
1010
0000
0000
0102
0000
0000
1003
0000
,
0011
0000
0000
2100
0000
0000
3001
0000
,
0100
0100
0010
0010
,
0101
0000
0000
2010
0000
0000
3100
0000
,
1100
0000
0000
0012
0000
0000
0103
0000
,
0101
0000
0000
2010
0000
0000
3100
0000
,
1000
1000
0001
0001
,
2000
3020
0230
2300
,
3200
0320
2030
3002
,
1003
1100
1000
1001
,
1000
1010
1000
1001
,
0002
0023
0230
0302
,
0203
0320
0032
2003
,
3001
0101
0001
0011
,
0100
2002
0000
3003
,
1000
0000
0000
0020
0000
0000
0031
0000
,
1000
0000
0000
0200
0000
0000
0301
0000
,
1000
0000
0000
0020
0000
0000
0130
0000
,
0001
0001
1000
1000
,
0001
0000
0000
0020
0000
0000
1030
0000
,
0001
0000
0000
0200
0000
0000
1300
0000
,
0001
0000
0000
0020
0000
0000
0130
0000
,
1000
1000
0001
0001
,
0101
0202
0303
0000
,
0000
0000
0000
0000
,
1100
2200
3300
0000
,
0000
0000
0000
0000
,
1000
0010
1000
0010
,
0100
0001
0100
0001
,
0010
0010
0010
0000
,
0001
0001
1000
1000
,
1010
0000
0000
2100
0000
0000
3001
0000
,
0011
0000
0000
0102
0000
0000
1003
0000
,
1010
0000
0000
2100
0000
0000
3001
0000
,
0010
0010
0001
0001
,
0101
0000
0000
0021
0000
0000
0130
0000
,
1100
0000
0000
1020
0000
0000
0130
0000
,
0101
0000
0000
0021
0000
0000
0130
0000
,
1000
1000
0001
0001
,
0101
0000
0000
2100
0000
0000
3010
0000
,
1010
0000
0000
0012
0000
0000
0103
0000
,
0101
0000
0000
2100
0000
0000
3010
0000
,
1000
1000
0001
0001
,
0011
0000
0000
2010
0000
0000
3001
0000
,
1100
0000
0000
0102
0000
0000
1003
0000
,
0011
0000
0000
2010
0000
0000
3001
0000
,
0010
0020
0030
0000
;

//---------------dance-single - ----------------
#NOTES:
     dance-single:
     03-04:
     Beginner:
     3:
     0.240647,0.302688,0.163773,0.257358,0.000000,216.000000,195.000000,21.000000,33.000000,0.000000,0.000000,0.240647,0.302688,0.163773,0.257358,0.000000,216.000000,195.000000,21.000000,33.000000,0.000000,0.000000:
0000
0000
0000
0000
,
0000
0000
0000
0000
,
0000
0000
0000
0000
,
0000
0000
0000
0000
,
2000
0000
0000
3000
,
0002
0000
0000
0003
,
2000
0000
0000
3000
,
0200
0000
0000
0300
,
1000
0010
1000
0000
,
0001
0010
0001
0000
,
0100
0100
0100
0000
,
0010
0000
0010
0000
,
1000
0100
1000
0000
,
0001
0100
0001
0000
,
0010
0010
0010
0000
,
0100
0000
0100
0000
,
1000
0010
0100
0000
,
0001
0010
0100
0000
,
0010
0010
0010
0000
,
0001
0000
0001
0000
,
0100
0010
1000
0000
,
0100
0010
0001
0000
,
1000
0000
0001
0000
,
1000
0001
1000
0000
,
0010
0000
0010
0000
,
0010
0000
0010
0000
,
0100
0000
0100
0000
,
0100
0000
0100
0000
,
0002
0000
0023
0000
,
0230
0000
2300
0000
,
3020
0000
0230
0000
,
0302
0000
0000
0003
1000
0000
0000
0000
,
1000
0000
0001
0000
,
0001
0000
1000
0000
,
1000
0000
0001
0001
,
0001
0000
0010
0000
,
0010
0000
0100
0000
,
0100
0000
0010
0000
,
0010
0000
0100
0100
,
0100
0000
2001
0000
,
3100
0000
1002
0000
,
0103
0000
2001
0000
,
3100
1000
0010
0000
,
0010
0000
1002
0000
,
0013
0000
2001
0000
,
3010
0000
1002
0000
,
0013
0001
0100
0000
,
0001
0010
0001
0010
,
0001
0010
0001
0010
,
0000
0001
0000
0001
,
0000
0001
0000
0001
,
1000
0010
1000
0010
,
1000
0010
1000
0010
,
0000
1000
0000
1000
,
0000
2002
0000
3003
,
1000
1000
1000
0000
,
0100
0100
0100
0000
,
0001
0001
0001
0000
,
0100
1000
0001
0000
,
1000
1000
1000
0000
,
0010
0010
0010
0000
,
0001
0001
0001
0000
,
0010
1000
0001
0000
,
1000
2000
3000
0000
,
0000
0000
0000
0000
,
0001
0002
0003
0000
,
0000
0000
0000
0000
,
1000
1000
0000
1000
,
0001
0001
0000
0001
,
0010
0010
0010
0000
,
1001
0000
1001
0000
,
0001
0000
0012
0000
,
1003
0000
2010
0000
,
3001
0000
0021
0000
,
0130
1000
0010
0000
,
1000
0000
2100
0000
,
3001
0000
0102
0000
,
1003
0000
1200
0000
,
0310
0001
0100
0000
,
0010
0000
0102
0000
,
0013
0000
2100
0000
,
3010
0000
0102
0000
,
0103
0001
0010
0000
,
0100
0000
0012
0000
,
0103
0000
2010
0000
,
3100
0000
0012
0000
,
0103
0100
0000
0000
;
