#TITLE:il vento d'oro;
#SUBTITLE:;
#ARTIST:菅野 祐悟;
#TITLETRANSLIT:;
#SUBTITLETRANSLIT:;
#ARTISTTRANSLIT:Yugo Kanno;
#GENRE:Jazz Rock;
#CREDIT:;
#BANNER:il vento d'oro.png;
#BACKGROUND:il vento d'oro-bg.png;
#LYRICSPATH:;
#CDTITLE:;
#MUSIC:il vento d'oro.ogg;
#OFFSET:-0.021000;
#SAMPLESTART:14.182999;
#SAMPLELENGTH:14.223000;
#SELECTABLE:YES;
#BPMS:0.000000=135.000000
,168.000000=67.500000
,176.000000=135.000000
;
#STOPS:
;
#BGCHANGES:;
#KEYSOUNDS:;
#ATTACKS:;

//---------------dance-single - ----------------
#NOTES:
     dance-single:
     :
     Hard:
     9:
     0.546526,0.707823,0.057314,0.100299,0.426270,534.000000,526.000000,8.000000,14.000000,0.000000,0.000000,0.546526,0.707823,0.057314,0.100299,0.426270,534.000000,526.000000,8.000000,14.000000,0.000000,0.000000:
0000
0000
0000
0000
,
0000
0000
0000
0000
,
0000
0000
0000
0000
,
0000
0000
0000
0000
,
0001
0000
0001
0000
0001
0000
0001
0100
,
0010
0000
0010
0000
0010
0000
0010
0100
,
0001
1000
0100
0010
0100
0001
0100
0010
,
0001
0000
0001
0000
0001
0000
0001
0010
0001
0000
0010
0000
0001
0000
1000
0000
,
0010
0000
0100
0000
0010
0100
0000
0100
0000
0010
0000
0100
0000
0100
0010
0000
,
1000
1000
0001
0010
0100
1000
1000
0001
,
0100
0000
0010
0000
0100
0010
0000
0010
0000
0100
0000
0010
0000
0010
0100
0000
,
0001
0000
0001
0000
1000
0100
1000
0001
0000
0010
0000
0100
0000
1000
0001
0000
,
1000
0000
0001
0100
0010
0000
0010
0000
0010
0000
0100
0010
1000
0000
0000
0000
,
0001
0000
1000
0001
0010
0100
1000
0001
0010
0000
0010
0001
1000
0000
0001
0000
,
0100
0000
0010
0000
0110
0000
0100
0001
1000
0000
0001
0010
0100
0000
0010
0000
,
0001
0000
0100
0000
1000
0000
0010
0000
0001
0000
0000
0000
0001
0100
0001
0100
,
0020
0000
1000
0000
0130
0010
1000
0100
,
0020
0000
0000
0000
0001
0000
0000
0000
0130
0000
0010
0001
1000
0000
1000
0000
,
0010
0000
1000
0000
0001
0010
0000
0100
0000
0010
0000
0001
1000
0000
0100
0000
,
0010
0000
0100
1000
0000
0001
0000
0010
0000
0100
0000
0010
0001
1000
0001
1000
,
0020
0000
0100
0000
1030
0001
0010
0100
,
1000
0001
0100
0010
0100
0001
0010
0100
,
1000
0000
0001
0100
0010
0000
0100
0010
0000
0100
0010
0000
0010
0000
0000
0000
,
1000
0000
0001
0010
0100
1000
0100
0010
0100
1000
0100
0000
1000
0100
0010
0001
,
1000
0100
0001
0100
1000
0001
0010
1000
,
0001
0000
0100
0000
0010
0000
0001
0000
1000
0000
0100
0010
0100
0000
1000
0000
,
0001
0000
0100
0000
0010
0000
0001
0000
1000
0000
0100
1000
0200
0000
0000
0000
,
1300
0000
0100
0000
0010
0000
1000
0000
0001
0000
0010
0000
0100
0010
0100
0010
,
0001
0000
1000
0010
0100
0000
0100
0000
0100
0000
0010
0100
0001
0000
0000
0000
,
1000
0000
0001
1000
0100
0010
0001
1000
0100
0000
0100
1000
0001
0000
1000
0000
,
0010
0000
0100
0000
0110
0000
0010
1000
0001
0000
1000
0100
0010
0000
0100
0000
,
1000
0000
0010
0000
0001
0000
0100
0000
1000
0000
0000
0000
0001
0010
0100
0000
,
1000
0000
1000
0000
1000
0100
0010
0001
,
0100
0000
0100
0000
0100
0000
0100
0001
,
1000
0000
1000
0000
1000
0000
1000
0100
,
0010
0000
0000
0000
0010
0000
0000
0000
0010
0100
0000
0000
0010
0000
0001
0000
,
1000
0000
0000
0010
0000
0000
0001
0000
0000
0000
0001
0000
0010
0000
1000
0000
,
0001
0000
0000
0010
0000
0000
0100
0000
0100
0000
0000
0000
1000
0000
0100
0000
,
0010
0000
0000
0000
0100
0000
0000
0000
1000
0000
0000
0000
0010
0000
0000
0000
0100
0000
0000
0000
0010
0000
0000
0000
0100
0000
0000
0001
0000
0000
0100
0000
0000
0001
0000
0000
1000
0000
0000
0001
0000
0000
1000
0000
0000
0001
0000
0000
,
0010
0100
0000
0010
1000
0000
0010
0100
0000
0010
0001
0000
0110
0000
0001
0000
,
2000
0000
0000
3000
,
0002
0000
0000
0000
0003
0000
0000
0000
0002
0000
0000
0000
0000
0000
0000
0000
0003
0000
1000
0000
0000
0001
0000
0000
0020
0000
0000
0000
0000
0000
0000
0000
,
0130
0000
0000
0000
0000
0000
0100
0000
0000
0000
0000
0000
0000
0000
1000
0100
0010
0000
0000
0001
0000
0000
0100
0000
0010
0000
0000
1000
0000
0000
0100
0000
,
0010
0000
0000
0000
0000
0000
0010
0000
0000
0000
0000
0000
0001
0000
0010
0000
0100
0000
0000
1000
0000
0000
0010
0000
0100
0000
0000
0000
0020
0000
0000
0000
,
0130
0100
0001
0001
,
1000
0100
0001
0010
,
1000
0100
0110
0000
0001
0100
0110
0000
,
1000
0000
0100
0000
0010
0000
0001
0000
1000
0000
0001
1000
0002
0000
0000
0000
,
1003
0000
0001
0000
0100
0000
1000
0000
0100
0000
0001
0000
0010
0000
0100
0010
,
0001
1000
0010
0001
1000
0100
0001
0010
,
0100
1000
0010
0001
0010
1000
0001
0010
,
0100
1000
0010
0100
1000
0001
0010
0100
,
0001
0000
1000
0000
0100
0000
0001
0000
0100
0000
1000
0000
0010
0000
0100
0010
,
1000
0001
0010
1000
0001
0100
1000
0010
,
0100
0001
0010
1000
0010
0001
1000
0010
,
0001
0000
0000
0010
0000
0000
1000
0000
0001
0000
0000
0010
0000
0000
0100
0000
,
2200
3300
0000
0000
,
0000
0000
0000
0000
,
0000
0000
0000
0000
,
0000
0000
0000
0000
,
1000
0000
1000
0000
1000
0000
1000
0100
,
0010
0000
0010
0000
0010
0000
0010
0100
,
1000
0001
0100
0010
0100
1000
0100
0010
,
1000
0000
1000
0000
1000
0000
1000
0010
1000
0000
0010
0000
1000
0000
0001
0000
,
0010
0000
0100
0010
0001
1000
0010
0000
1000
0001
0100
0010
0100
0001
0100
0001
,
1000
0000
0100
0000
0010
0000
1000
0000
0010
0100
0000
1000
0000
0001
0100
0000
,
0010
0001
1000
0100
0010
0001
0010
0100
,
0001
0000
0001
0000
1000
0001
0010
0100
0000
0010
0000
0001
0000
1000
0001
0000
,
1000
0000
0001
0100
0010
0000
0010
0000
0010
0000
0100
0010
1000
0000
0000
0000
,
0001
0000
1000
0001
0010
0100
1000
0001
0010
0000
0010
0001
1000
0000
0001
0000
,
0100
0000
0010
0000
0110
0000
0100
0001
1000
0000
0001
0010
0100
0000
0010
0000
,
0001
0000
0100
0000
1000
0000
0010
0000
0001
0100
0000
1000
0000
0100
0001
0000
,
0000
0000
0220
0000
,
0000
0000
0000
0000
,
0000
0000
0000
0000
,
0000
0000
0000
0000
,
0330
0000
0000
0000
;

//---------------dance-single - ----------------
#NOTES:
     dance-single:
     :
     Medium:
     7:
     0.412453,0.490031,0.093135,0.200598,0.082388,403.000000,390.000000,13.000000,28.000000,0.000000,0.000000,0.412453,0.490031,0.093135,0.200598,0.082388,403.000000,390.000000,13.000000,28.000000,0.000000,0.000000:
// measure 0
0000
0000
0000
0000
,  // measure 1
0000
0000
0000
0000
,  // measure 2
0000
0000
0000
0000
,  // measure 3
0000
0000
0000
0000
,  // measure 4
1000
0100
0010
0001
,  // measure 5
1000
0100
0010
0001
,  // measure 6
1000
0100
0010
0000
0001
0100
0010
0000
,  // measure 7
1000
0100
0010
0100
0010
0001
1000
0001
,  // measure 8
1000
1000
0010
0100
0100
0010
0100
0001
,  // measure 9
1000
1000
0100
0010
0010
0001
1000
0010
,  // measure 10
0100
0100
0001
1000
1000
0010
0100
0001
,  // measure 11
0010
0010
0001
1000
1000
0100
0010
0001
,  // measure 12
0011
0000
1100
0100
0100
1000
0001
0000
,  // measure 13
0010
0000
0100
0000
1000
0000
0000
0010
0100
0000
0000
0010
1000
0000
0000
0000
,  // measure 14
0001
0100
0010
0000
0100
0001
1000
0000
,  // measure 15
0001
0010
0100
1000
0001
0000
1002
0000
,  // measure 16
0203
0000
0010
0000
0301
0100
0010
1000
,  // measure 17
0200
0000
0000
0000
0000
0000
0000
0000
0010
0000
0000
0000
0000
0000
0000
0000
1300
0000
0000
0000
0000
0100
0000
0000
0000
0000
0100
0000
0000
0000
0000
0000
,  // measure 18
2000
0100
0001
0001
,  // measure 19
3002
0000
0010
0000
1000
0000
1003
0100
,  // measure 20
0020
0000
0100
0000
0031
0010
0100
1000
,  // measure 21
0020
0000
1000
2030
0000
0001
3002
0000
,  // measure 22
0203
0000
0000
0000
0320
0000
0000
0100
0000
0000
0100
0000
0130
0000
0000
0000
,  // measure 23
0010
0010
0100
0100
0001
1000
0200
0000
,  // measure 24
1300
0100
1000
0100
1000
0100
0010
0001
,  // measure 25
1000
0001
1000
0001
1000
0010
0100
0000
,  // measure 26
0001
1000
0010
0100
0001
0010
0100
0000
,  // measure 27
1000
0100
0010
0100
1000
0001
1000
0010
,  // measure 28
1010
0000
0101
0100
0100
0001
1000
0000
,  // measure 29
0010
0000
0100
0000
0001
0000
0000
0010
0100
0000
0000
0010
0001
0000
0000
0000
,  // measure 30
1000
0100
0010
0000
0100
1000
0001
0000
,  // measure 31
1000
0010
0100
0001
1000
0000
0001
0100
,  // measure 32
0010
0000
0010
0000
0010
1000
0100
0010
,  // measure 33
0100
0000
0100
0000
0100
0000
0100
0010
,  // measure 34
0001
0000
0001
0000
0001
1000
0010
0100
,  // measure 35
0010
0010
0010
1001
,  // measure 36
0001
0000
0000
0100
0000
0000
0010
0000
0000
0000
0100
0000
0010
0000
0000
0000
,  // measure 37
0100
0000
0000
0001
0000
0000
1000
0000
0000
0000
0001
0000
1000
0000
0000
0000
,  // measure 38
0001
0000
0010
0100
0000
1000
0001
0000
0100
0010
0000
0000
,  // measure 39
0100
0010
0100
0010
0100
0010
0110
0001
,  // measure 40
2000
0000
0000
3000
,  // measure 41
0002
0000
0000
0000
0003
0000
0000
0000
0002
0000
0000
0000
0000
0000
0000
0000
0003
0000
1000
0000
0000
0001
0000
0000
0020
0000
0000
0000
0000
0000
0000
0000
,  // measure 42
0130
0000
0000
0100
0000
0000
0000
0000
0010
0000
0001
0000
0100
0000
0100
0000
,  // measure 43
0010
0000
0000
0010
0000
0000
0000
0000
0100
0000
0001
0000
1000
0000
0002
0000
,  // measure 44
1003
1000
0100
0100
,  // measure 45
0001
0010
1000
0001
,  // measure 46
0010
1100
0010
1100
,  // measure 47
0010
0100
1000
1001
,  // measure 48
0020
0000
1030
0100
0020
0000
0031
0100
,  // measure 49
0010
0000
0001
0010
1000
0000
0001
0010
,  // measure 50
0200
0000
1300
0010
0200
0000
0301
0010
,  // measure 51
0100
0000
0001
0100
0010
0000
1000
0010
,  // measure 52
0002
0000
1003
0010
0002
0000
1003
0100
,  // measure 53
0001
0000
1000
0100
0010
0000
1000
0010
,  // measure 54
0002
0000
1003
0010
0002
0000
1003
0100
,  // measure 55
0001
0000
0000
1000
0000
0000
0100
0000
0010
0000
0000
0001
0000
0000
0100
0000
,  // measure 56
0020
0030
0000
0000
,  // measure 57
0000
0000
0000
0000
,  // measure 58
0000
0000
0000
0000
,  // measure 59
0000
0000
0000
0000
,  // measure 60
1000
0100
0010
0001
,  // measure 61
1000
0100
0010
0001
,  // measure 62
1000
0100
0010
0000
0001
0100
0010
0000
,  // measure 63
1000
0100
0010
0100
0010
0001
1000
0001
,  // measure 64
1000
0010
0001
0010
0100
1000
0100
0001
,  // measure 65
0010
0100
1000
0001
0100
1000
0100
0001
,  // measure 66
1000
0100
0010
1000
0001
0100
0010
0001
,  // measure 67
1000
0010
0100
1000
0100
0001
1000
0010
,  // measure 68
1010
0000
0101
0100
0100
0001
1000
0000
,  // measure 69
0010
0000
0100
0000
0001
0000
0000
0010
0100
0000
0000
0010
0001
0000
0000
0000
,  // measure 70
1000
0100
0010
0000
0100
1000
0001
0000
,  // measure 71
1000
0000
0010
0000
0100
0000
0001
0000
1000
0100
0000
0010
0000
0100
1000
0000
,  // measure 72
0000
0000
2002
0000
,  // measure 73
0000
0000
0000
0000
,  // measure 74
0000
0000
0000
0000
,  // measure 75
0000
0000
0000
0000
,  // measure 76
3003
0000
0000
0000
;

//---------------dance-single - ----------------
#NOTES:
     dance-single:
     :
     Easy:
     4:
     0.275310,0.353911,0.136120,0.265075,0.003582,269.000000,250.000000,19.000000,37.000000,0.000000,0.000000,0.275310,0.353911,0.136120,0.265075,0.003582,269.000000,250.000000,19.000000,37.000000,0.000000,0.000000:
// measure 0
0000
0000
0000
0000
,  // measure 1
0000
0000
0000
0000
,  // measure 2
0000
0000
0000
0000
,  // measure 3
0000
0000
0000
0000
,  // measure 4
0001
0001
0001
0001
,  // measure 5
1000
1000
1000
1000
,  // measure 6
0001
1000
0010
0100
,  // measure 7
0010
0010
0010
1001
,  // measure 8
1000
0100
0010
0010
,  // measure 9
0001
0100
0010
0010
,  // measure 10
0100
0001
0010
0100
,  // measure 11
0010
0001
1000
0001
,  // measure 12
0100
0010
0001
0001
,  // measure 13
0010
0100
0101
1001
,  // measure 14
0001
0011
1000
1100
,  // measure 15
0010
0001
1000
1001
,  // measure 16
0002
0000
1003
0010
,  // measure 17
0200
0000
1300
0100
,  // measure 18
0001
1000
0100
0100
,  // measure 19
0010
0001
1000
0001
,  // measure 20
2000
0000
3001
0100
,  // measure 21
0020
1000
2030
0001
,  // measure 22
3002
0203
0010
0310
,  // measure 23
0100
0001
1000
1001
,  // measure 24
2000
0001
0010
3002
,  // measure 25
0023
0100
1000
0230
,  // measure 26
2300
0001
0010
3010
,  // measure 27
0100
0001
1000
0001
,  // measure 28
0010
0100
0001
0001
,  // measure 29
0100
0010
0011
1001
,  // measure 30
0001
0101
1000
1010
,  // measure 31
0100
0001
1000
1001
,  // measure 32
0001
0001
0001
1000
,  // measure 33
0100
0100
0100
0010
,  // measure 34
0100
0100
0100
1000
,  // measure 35
0001
0001
0001
1001
,  // measure 36
1000
0010
0010
0100
,  // measure 37
1000
0100
0010
1000
,  // measure 38
0001
0010
1000
0100
,  // measure 39
0002
0000
0000
1003
,  // measure 40
0002
0000
0000
0003
,  // measure 41
2000
0000
3000
0000
2000
0000
0000
0000
3000
0001
0000
0000
2000
0000
0000
0000
,  // measure 42
3001
0000
0000
0000
0001
0100
0010
0100
,  // measure 43
0010
0000
0000
0000
1000
0001
0010
0200
,  // measure 44
2300
3000
0002
0003
,  // measure 45
0020
0230
0320
0032
,  // measure 46
2003
3100
0002
0103
,  // measure 47
1000
0100
0010
0001
,  // measure 48
2000
0010
3002
0010
,  // measure 49
1003
0010
0001
0010
,  // measure 50
2000
0100
3002
0100
,  // measure 51
1003
0100
0010
0001
,  // measure 52
0200
1300
0200
0301
,  // measure 53
0010
1000
0010
0001
,  // measure 54
0200
1300
0200
0301
,  // measure 55
0010
1000
0100
0001
,  // measure 56
2000
3000
0000
0000
,  // measure 57
0000
0000
0000
0000
,  // measure 58
0000
0000
0000
0000
,  // measure 59
0000
0000
0000
0000
,  // measure 60
0001
0001
0001
0001
,  // measure 61
1000
1000
1000
1000
,  // measure 62
0001
1000
0010
0100
,  // measure 63
0010
0010
0010
1001
,  // measure 64
1000
0100
0001
0100
,  // measure 65
1000
0010
0100
1000
,  // measure 66
0100
0010
0001
0001
,  // measure 67
0010
0100
0001
1000
,  // measure 68
0100
0010
1000
1000
,  // measure 69
0010
0100
1100
1001
,  // measure 70
1000
1010
0001
0101
,  // measure 71
0010
1000
0001
0010
,  // measure 72
0000
0000
2200
0000
,  // measure 73
0000
0000
0000
0000
,  // measure 74
0000
0000
0000
0000
,  // measure 75
0000
0000
0000
0000
,  // measure 76
3300
0000
0000
0000
;

//---------------dance-single - ----------------
#NOTES:
     dance-single:
     :
     Beginner:
     3:
     0.155565,0.245016,0.107463,0.257911,0.000000,152.000000,137.000000,15.000000,36.000000,0.000000,0.000000,0.155565,0.245016,0.107463,0.257911,0.000000,152.000000,137.000000,15.000000,36.000000,0.000000,0.000000:
// measure 0
0000
0000
0000
0000
,  // measure 1
0000
0000
0000
0000
,  // measure 2
0000
0000
0000
0000
,  // measure 3
0000
0000
0000
0000
,  // measure 4
1000
0000
0000
0000
,  // measure 5
1000
0000
0000
0000
,  // measure 6
1000
0000
0001
0000
,  // measure 7
0100
0000
0100
0000
,  // measure 8
0010
0000
0010
0010
,  // measure 9
0010
0000
1000
1000
,  // measure 10
1000
0000
0001
0001
,  // measure 11
0001
0000
0100
0100
,  // measure 12
0200
0300
0100
0100
,  // measure 13
0000
0001
0000
1001
,  // measure 14
0000
1000
0000
0100
,  // measure 15
0000
0010
0000
0001
,  // measure 16
0002
0000
0003
0000
,  // measure 17
2000
0000
3000
0000
,  // measure 18
0020
0000
0000
0000
,  // measure 19
0030
0000
0000
0000
,  // measure 20
2000
0000
3000
0000
,  // measure 21
0002
0003
0020
0030
,  // measure 22
0100
0100
0100
0100
,  // measure 23
0000
1000
0000
1000
,  // measure 24
2000
0000
3000
0001
,  // measure 25
0002
0000
0003
0100
,  // measure 26
0200
0000
0000
0300
,  // measure 27
0010
0010
0100
0100
,  // measure 28
0200
0300
0100
0100
,  // measure 29
0000
0001
0000
1001
,  // measure 30
0000
1000
0000
0100
,  // measure 31
0000
0010
0000
0001
,  // measure 32
0001
0000
0000
0000
,  // measure 33
0100
0000
0000
0000
,  // measure 34
0010
0000
0000
0000
,  // measure 35
0100
0000
0000
0000
,  // measure 36
0001
0001
0001
0000
,  // measure 37
1000
1000
1000
0000
,  // measure 38
0002
0003
0020
0030
,  // measure 39
0100
0100
0100
0100
,  // measure 40
0200
0000
0000
0300
,  // measure 41
0010
0000
0020
0030
0000
0000
0000
0000
,  // measure 42
0001
0000
1000
0000
,  // measure 43
0010
0000
0100
0000
,  // measure 44
0010
0000
0010
0000
,  // measure 45
1000
0000
0001
0000
,  // measure 46
0010
0000
0100
0000
,  // measure 47
1000
0000
0001
0000
,  // measure 48
2002
3003
0220
0330
,  // measure 49
0010
0010
0010
0000
,  // measure 50
0220
0330
2002
3003
,  // measure 51
1000
1000
1000
0000
,  // measure 52
2002
3003
0220
0330
,  // measure 53
0100
0100
0100
0000
,  // measure 54
0220
0330
2002
3003
,  // measure 55
0001
0001
0001
0000
,  // measure 56
2002
3003
0000
0000
,  // measure 57
0000
0000
0000
0000
,  // measure 58
0000
0000
0000
0000
,  // measure 59
0000
0000
0000
0000
,  // measure 60
1000
0000
0000
0000
,  // measure 61
1000
0000
0000
0000
,  // measure 62
1000
0000
0001
0000
,  // measure 63
0100
0000
0100
0000
,  // measure 64
0010
0010
0010
0000
,  // measure 65
0110
0000
1001
0000
,  // measure 66
1000
0000
0100
0100
,  // measure 67
0100
0000
0010
0010
,  // measure 68
0020
0030
0010
0010
,  // measure 69
0000
0001
0000
1001
,  // measure 70
0000
1000
0000
0010
,  // measure 71
0000
0100
0100
0100
,  // measure 72
0000
0000
0220
0000
,  // measure 73
0000
0000
0000
0000
,  // measure 74
0000
0000
0000
0000
,  // measure 75
0000
0000
0000
0000
,  // measure 76
0330
0000
0000
0000
;
