#TITLE:White Christmas;
#SUBTITLE:;
#ARTIST:Santa Claus & D'Jingle Bells;
#TITLETRANSLIT:;
#SUBTITLETRANSLIT:;
#ARTISTTRANSLIT:;
#GENRE:Italo-disco;
#CREDIT:TiKAL+;
#MUSIC:[Round D] - White Christmas.ogg;
#BANNER:bn.png;
#BACKGROUND:bg.png;
#CDTITLE:cdtitle.png;
#SAMPLESTART:82.843;
#SAMPLELENGTH:1.966;
#SELECTABLE:YES;
#OFFSET:-0.035;
#BPMS:0.000=122.089;
#STOPS:;
#DISPLAYBPM:122.090;
#BGCHANGES:;
#FGCHANGES:;

//--------------- dance-single - TiKAL ----------------
#NOTES:
     dance-single:
     TiKAL:
     Easy:
     1:
     0,0,0,0,0:
0000
0000
0000
0000
,
0000
0000
0000
0000
,
0000
0000
0000
0000
,
0000
0000
0000
0000
,
0001
0000
0000
1000
,
0100
0000
0000
0000
,
0100
0000
0000
0100
,
0010
0000
0000
0000
,
0001
0000
0000
0100
0000
0000
0010
0000
,
1000
0000
0000
0100
0000
0000
0010
0000
,
0001
0000
0000
0000
,
1001
0000
0000
0000
,
1000
0000
0000
0010
0000
0000
0100
0000
,
0001
0000
0000
0010
0000
0000
0100
0000
,
1000
0000
0000
0000
,
0000
1001
0000
0000
,
0001
0000
0000
0000
,
0100
0000
0000
0000
,
0010
0000
0000
0000
,
1000
0000
0000
0000
,
0001
0000
0010
0000
,
0100
0000
1000
0000
,
0001
0000
0000
0000
,
0000
0000
1000
0000
,
0010
0000
0010
0000
,
0100
0001
0000
1000
,
0100
0000
0100
0000
,
0010
0001
0000
1000
,
0010
0000
0000
0000
,
0100
0000
0001
0000
,
2002
0000
0000
0000
,
3003
0000
0000
0000
,
1000
0000
0000
0000
,
0100
0000
0000
0000
,
0010
0000
0000
0000
,
0001
0000
0000
0000
,
1000
0000
0010
0000
,
0100
0000
0001
0000
,
1000
0000
0000
0000
,
0000
0000
0001
0000
,
0010
0000
0010
0000
,
0100
1000
0000
0001
,
0200
0000
0000
0000
,
0000
0300
0001
0000
,
0100
0000
0100
0000
,
0010
0010
1000
0001
,
2002
0000
0000
0000
,
3003
0000
0000
0000
;

//--------------- dance-single - TiKAL ----------------
#NOTES:
     dance-single:
     TiKAL:
     Medium:
     4:
     0,0,0,0,0:
0000
0000
0000
0000
,
0000
0000
0000
0000
,
0000
0000
0000
0000
,
0000
0000
0000
0000
,
0101
0000
0000
1000
,
1100
0000
0000
0000
,
0011
0000
0000
1000
,
1010
0000
0001
0010
,
0200
0000
0000
2300
0000
0000
3001
0000
,
0200
0000
0000
0302
0000
0000
1003
0000
,
0200
0010
0310
0000
,
1001
0000
1000
0010
,
0200
0000
0000
0302
0000
0000
1003
0000
,
0200
0000
0000
2300
0000
0000
3001
0000
,
0200
0000
0010
0310
,
0000
0000
1001
0000
1000
0001
1000
0001
,
1000
0100
0010
0001
,
1000
0010
0100
0001
,
2000
0000
0000
0100
0000
0100
0000
3100
,
0002
0000
0000
0100
0000
0100
0000
0103
,
1000
0001
0010
0100
,
1000
0001
0100
0010
,
2000
0000
0000
0010
0000
0010
0000
3010
,
0001
0010
0001
0000
1000
0100
0010
0000
,
0002
0000
2000
3003
,
0001
0100
0010
1000
,
0002
0000
2000
3003
,
0001
0010
0100
1000
,
0002
0000
0000
0100
0000
1000
0000
1003
,
2000
0000
0000
0100
0000
0001
0000
3001
,
0100
0010
0100
0000
0001
1000
0001
0000
,
1000
0100
0010
0001
1000
0100
0010
0000
,
0002
0010
1000
0103
,
2000
0010
0001
3100
,
0020
0001
0100
1030
,
0200
0001
0010
1300
,
0001
0100
0010
1000
,
0001
0010
0100
1000
,
2002
0000
0000
3003
,
0000
0000
1000
0100
,
0020
0000
0000
0030
0020
0000
0000
0030
,
0002
2003
3000
0020
,
0200
0000
0000
0000
,
0000
0330
2000
3200
,
0320
0000
0000
0030
0020
0000
0000
0030
,
0002
0203
0320
2030
,
0002
0000
0000
0000
,
3003
0000
0000
0000
;

//--------------- dance-single - TiKAL ----------------
#NOTES:
     dance-single:
     TiKAL:
     Hard:
     7:
     0,0,0,0,0:
0000
0000
0000
0000
,
0000
0000
0000
0000
,
0000
0000
0000
0000
,
0000
0000
0000
0000
,
0101
0000
0000
1100
,
1010
0000
0000
0000
,
0011
0000
0000
0110
,
1001
0000
0000
0000
1000
0100
0010
0001
,
1000
0000
1001
0001
0010
0100
1000
0000
,
0001
0000
1000
0001
0100
0010
1000
0000
,
0001
0000
0011
0000
0000
0011
0000
0000
0022
0000
0000
0000
0033
0000
0000
0000
,
1000
0000
1010
0000
0000
1010
0000
0000
1010
0000
1000
0000
0010
0000
0100
0000
,
0001
0000
1001
1000
0010
0100
0001
0000
,
1000
0000
0001
1000
0100
0010
0002
0000
,
2000
0000
0000
3003
,
0100
0000
0000
0000
0110
0000
0000
1001
0000
0001
1000
0000
0010
0000
0100
0000
,
0001
0000
1000
0000
0100
0000
0000
0100
0000
0010
0000
0000
0100
0000
0000
0000
,
1000
0000
0001
0000
0100
0000
0000
0100
0000
0010
0000
0000
0100
0000
0000
0000
,
0001
0010
0000
0001
0010
0000
0001
0010
0000
0001
0010
0000
0000
0000
0100
0000
,
1000
0010
0000
1000
0010
0000
1000
0001
0000
1000
0001
0000
0000
0000
0100
0000
,
0001
0000
1000
0000
0010
0000
0000
0010
0000
0000
0100
0000
0010
0000
0000
0000
,
1000
0000
0001
0000
0010
0000
0000
0010
0000
0100
0000
0000
0010
0000
0000
0000
,
0001
0100
0000
0001
0100
0000
0001
0100
0000
0001
0100
0000
0000
0000
0010
0000
,
1000
0000
0100
0000
0100
0000
1000
0001
0000
1000
0001
0000
0100
0000
0010
0100
,
0001
0000
0001
0000
1000
0000
0100
1000
0000
1000
0000
1000
0001
0000
0000
0000
,
1000
0000
1000
0000
0001
0000
0100
0001
0000
0001
0000
0001
1000
0000
0000
0000
,
0001
0010
0000
0001
1000
0000
0001
0010
0000
0001
1000
0000
0000
0000
0100
0000
,
1000
0010
0000
1000
0001
0000
1000
0010
0000
1000
0001
0000
0000
0000
0100
0001
,
1000
0000
1000
0000
0001
0000
0010
0001
0000
0001
0000
0001
1000
0000
0000
0000
,
0001
0000
0001
0000
1000
0000
0010
1000
0000
1000
0000
1000
0001
0000
0000
0000
,
1000
0000
0100
0000
0100
0000
1000
0010
0000
1000
0010
0000
0100
0000
0001
0010
,
0000
0001
0010
0000
0100
0000
1000
0000
0001
0000
0100
0000
0010
0000
1000
0000
,
0001
0000
0001
0000
0001
0000
1000
0100
0000
0100
0000
1000
0100
0000
0010
0000
,
0001
0000
0001
0000
0001
0000
1000
0010
0000
0010
0000
1000
0010
0000
0100
0000
,
0001
0000
0001
0000
0001
0000
0010
0100
0000
0100
0000
0010
0100
0000
0000
0000
,
1000
0000
1000
0000
1000
0000
0010
0100
0000
0100
0000
0010
0100
0000
0000
0000
,
0001
0000
0001
0000
0001
0000
0000
1000
0000
1000
0000
0000
0100
0000
0000
0000
,
1000
0000
1000
0000
1000
0000
0000
0001
0000
0001
0000
0000
0100
0000
0000
0000
,
0010
0000
0000
0000
0010
0000
0000
1000
0000
1000
0000
0000
0100
0000
0000
0000
,
0010
0000
0000
0000
0010
0000
0000
0001
0000
0001
0000
0000
0100
0000
0000
0000
,
0020
0000
0000
0000
2030
3001
0000
0001
,
0020
0230
0300
2000
,
0002
0000
0000
0000
,
0000
3003
0002
0203
,
0320
0000
2030
0001
,
3200
2300
3002
0203
,
0020
0000
0000
0000
,
0330
0000
0000
0000
;
