#TITLE:ボカロPになりたい;
#SUBTITLE:;
#ARTIST:ヒゲドライバー;
#TITLETRANSLIT:VocaloP ni naritai;
#SUBTITLETRANSLIT:;
#ARTISTTRANSLIT:Hige Driver;
#GENRE:;
#CREDIT:;
#MUSIC:VocaloP ni naritai.ogg;
#BANNER:;
#BACKGROUND:;
#CDTITLE:;
#SAMPLESTART:63.476;
#SAMPLELENGTH:15.000;
#SELECTABLE:YES;
#OFFSET:-1.411;
#BPMS:0.000=185.000;
#STOPS:60.000=0.973
,185.000=0.973
,256.000=0.324
,263.000=0.324
;
#BGCHANGES:;
#FGCHANGES:;

//--------------- dance-single - ----------------
#NOTES:
     dance-single:
     :
     Easy:
     6:
     0,0,0,0,0:
0000
0000
0000
0000
,
0000
0000
0100
0001
,
0101
0000
0000
0101
0000
0000
1010
0000
,
0000
1010
0000
0000
0220
0000
0330
0000
,
1001
0000
0000
0101
0000
0000
1010
0000
,
0000
1001
0000
0000
0001
0000
0010
0000
,
0011
0000
0000
1001
0000
0000
1010
0000
,
0000
2002
0000
0000
3003
0000
0000
0000
,
2000
0100
0010
3001
,
0200
0010
0001
0310
,
0002
1000
0100
1003
,
0020
0100
0001
1030
,
0001
0100
0001
0000
1000
0010
1000
0000
,
0001
1000
0001
0000
0100
0010
0100
0000
,
0001
0100
0010
1000
,
0001
2002
3000
0020
,
0030
0000
0200
0000
0303
0000
0010
1000
,
0001
2002
0003
0020
,
0030
0000
0001
0001
3001
0000
0010
0000
,
0000
2002
3000
0020
,
0030
0000
0200
0000
0303
0000
0001
1000
,
0001
2020
0030
0200
,
0300
0000
0001
0001
3001
0000
0100
0000
,
0000
0001
0010
0001
,
0010
0110
0100
0001
,
0010
0011
0001
1000
,
0010
0110
0010
1000
,
0100
0110
0010
0001
,
0100
0110
0010
1000
,
0001
0200
0320
2030
,
3200
0000
0020
0000
0330
0000
0000
0110
,
0000
0100
0002
0000
0000
0000
2003
0000
,
0000
0000
3020
0000
0000
0000
0130
0001
,
0000
0010
0200
0000
0000
0000
0320
0000
,
0000
0000
0000
0000
0031
0000
1000
0000
0001
0000
0000
0000
1000
0000
0000
0010
,
0000
0100
0020
0000
0000
0000
0230
0000
,
0000
0000
0320
0000
0000
0000
1030
0100
,
1000
0100
2000
0000
3020
0000
2030
0000
,
3002
0000
0203
0000
0320
0000
0130
0001
,
0100
0010
1000
0100
0000
0000
0010
0001
,
0000
0000
0100
0010
0000
0000
1000
0001
,
0000
0000
0100
0010
0000
0000
0100
0001
,
0000
0000
1000
0100
0000
0000
0010
0100
,
0000
0001
0001
0010
,
0010
0100
0100
0010
,
0010
0000
0001
1000
0001
1000
0010
0100
,
0010
0100
0000
0000
2002
0000
0003
0000
,
0020
0030
0200
3300
,
0022
0033
0001
0200
,
0320
2030
3200
0320
,
0032
0103
1010
1000
,
0010
0100
0020
2030
,
3200
1300
0020
2030
,
3002
2003
3020
1030
,
0002
0013
0011
0000
,
2002
0003
0200
0300
,
0020
3030
0101
0002
,
2003
3002
2003
3020
,
2030
3000
1001
0001
,
0100
0010
1010
1000
,
0100
0010
0220
0000
,
0330
0000
2002
0000
,
3003
0000
0000
0000
0000
0000
1000
0000
0001
0000
1000
0000
,
0001
0000
0010
0000
0100
0000
0010
0000
0100
0000
0010
0000
,
0001
0000
0000
0100
0000
0010
0000
0100
0000
0001
0000
1000
,
0000
0001
0000
1000
0000
0010
0000
1000
0000
0001
0000
0000
,
1000
1010
0010
0101
,
0010
1001
0100
0100
,
0010
0000
0100
0000
0010
0000
0100
0000
0010
0000
0100
0000
,
0010
0000
0100
0000
0010
0000
0100
0000
0000
0000
0000
0000
,
1001
0000
0000
0101
0000
0000
1010
0000
,
0000
1001
0000
0000
0220
0000
0330
0000
,
1001
0000
0000
0101
0000
0000
1001
0000
,
0000
1010
0000
0000
0220
0000
0330
0000
,
1001
0000
0000
0101
0000
0000
1010
0000
,
0000
1001
0000
0000
0100
0000
0010
0000
,
1001
0000
0000
1001
0000
0000
1010
0000
,
0000
0011
0000
0000
0000
0000
0000
0000
;

//--------------- dance-single - ----------------
#NOTES:
     dance-single:
     :
     Medium:
     8:
     0,0,0,0,0:
0000
0000
0000
0000
,
0000
0000
0000
0000
1000
0100
1000
0100
,
0010
0000
0000
0001
0000
0000
0010
0000
0000
0000
0000
0000
0001
0000
0000
1000
,
0000
0001
0000
0000
2002
0000
3003
0000
,
0100
0000
0000
0010
0000
0000
1000
0000
0000
0000
0000
0000
0001
0000
0000
0100
,
0000
0001
0000
0000
1000
0100
1000
0010
,
0100
0000
0000
0001
0000
0000
0100
0000
0000
0000
0000
0000
0010
0000
0000
1000
,
0000
0020
0000
0000
0030
0000
0000
0000
,
1001
0001
0100
0010
,
1010
1000
0001
0010
,
0011
0001
0100
0010
,
1010
1000
0010
0100
,
0001
1000
0001
1000
0010
0100
0010
0100
,
0001
1000
0100
1000
0001
1000
0100
1000
,
0001
0000
0100
0000
0010
0000
1000
0001
,
0100
0000
0000
0000
1001
0000
0000
0001
0000
0000
0100
0000
0001
0000
0000
0010
,
0000
0000
0100
0000
1000
0000
0000
0100
0000
0000
0010
0000
0001
0000
0000
0000
,
0011
0000
0000
0000
0001
0000
0000
1000
0000
0000
0010
0000
0100
0000
0000
0001
,
0000
0000
1000
0000
0100
0000
0010
0000
0010
0000
0000
0000
0001
0000
0000
1000
,
0000
0000
0010
0000
1000
0000
0000
0010
0000
0000
0100
0000
0001
0000
0000
1000
,
0000
0000
0100
0000
0010
0000
0000
0001
0000
0000
1000
0000
0010
0000
0000
0000
,
0101
0000
0000
0000
0001
0000
0000
1000
0000
0000
0001
0000
0100
0000
0000
0010
,
0000
0000
1000
0000
0100
0000
0010
0000
0010
0000
0000
0000
0001
0000
0000
0100
,
0000
0010
0100
0001
0100
0000
0001
0000
,
1000
0000
0001
0010
0001
0000
1000
0000
,
1000
0000
0001
1000
0001
0000
0100
0000
,
0100
0000
0001
0010
0001
0000
1000
0000
,
1000
0000
0001
0010
0001
0010
0001
0010
,
0001
0000
1000
0001
1000
0000
0010
0100
,
0010
0200
0320
2030
,
3002
0000
0203
0000
0300
0000
0000
1001
,
0000
0110
0010
0000
1000
0000
0100
0000
,
0010
0000
0001
0000
1000
0000
0001
1001
,
0000
0101
0100
0000
0010
0000
1000
0001
,
1000
0000
0010
0000
1000
0000
0001
0100
,
0000
0010
1010
0000
1000
0000
0001
0100
,
0010
0000
1000
0100
0010
0000
0001
1000
,
0100
1000
0200
0000
2300
0000
3010
0000
,
0100
0000
0002
0000
1003
0000
0010
0100
,
0001
1000
0001
0010
0000
0001
0010
0001
,
0000
1000
0001
1000
0000
0010
1000
0010
,
0100
0010
0100
0001
0000
1000
0001
1000
,
0000
0010
0100
0001
0000
1000
0100
0010
,
0000
0001
0100
0010
0100
0001
1000
0100
,
1000
0001
0100
0010
1000
0001
0010
0100
,
1000
0010
0100
0001
0100
0001
0100
0010
,
1000
0010
0000
0000
1001
0000
0001
0000
,
1000
0000
0000
1000
0000
0000
1000
0000
0001
0000
0000
0001
0000
0000
0001
0000
,
0200
0000
0310
1010
,
1001
0101
0110
1010
,
0100
0010
0100
0001
0010
0000
0001
1000
,
0001
1000
0010
1000
0002
0000
1003
0000
,
0010
1000
1001
0020
,
0230
0320
2030
3010
,
0200
0300
0110
0001
,
1000
0000
0000
0010
0000
0000
0100
0000
0001
0000
0000
1000
0000
0000
1000
0000
,
0100
1100
2000
3020
,
2030
3020
0130
0001
,
1000
0000
0100
0010
0200
0000
2300
0000
,
3002
0203
0320
2030
,
3200
0320
0032
0000
,
0000
0000
0203
0000
,
0310
0000
0000
0000
0000
0000
1000
0000
1000
0000
1000
0000
,
0010
0000
0010
0000
0010
0000
0100
0000
0100
0000
0100
0000
,
0001
0000
0000
0100
0000
0010
0000
0100
0000
0001
0000
0010
,
0000
0100
0000
0010
0000
0001
0000
0100
0000
0010
0000
0000
,
1000
0000
0001
0000
0100
0000
0010
0000
0100
0000
0001
0000
,
1000
0000
0010
0000
0010
0000
0100
0000
0100
0000
0001
0000
,
0001
0000
1000
0000
0010
0000
0100
0000
0100
0000
0100
0000
,
0001
0000
0000
0000
0001
0000
0000
0000
0001
0000
0000
0000
0100
0000
0000
0010
0000
0000
1000
0000
0000
0100
0000
0000
,
1000
0000
0000
0010
0000
0000
0100
0000
0000
0000
0000
0000
0001
0000
0000
0010
,
0000
0100
0000
0000
1000
0001
0010
0001
,
1000
0000
0000
0010
0000
0000
0100
0000
0000
0000
0000
0000
0001
0000
0000
0001
,
0000
0001
0000
0000
0200
0000
0300
0000
,
0010
0000
0000
0010
0000
0000
0010
0000
0000
0000
0000
0000
1000
0000
0000
0001
,
0000
0100
0000
0000
0010
1000
0010
1000
,
0010
0000
0000
0100
0000
0000
0001
0000
0000
0000
0000
0000
0001
0000
0000
0100
,
0000
0001
0000
0000
0000
0000
0000
0000
;

//--------------- dance-single - ----------------
#NOTES:
     dance-single:
     :
     Hard:
     9:
     0.692843,0.79739,0.357163,0.169182,0.413557,516,478,38,18,0,0,0.692843,0.79739,0.357163,0.169182,0.413557,516,478,38,18,0,0:
0000
0000
0000
0000
,
0000
0000
0000
0000
0001
0010
0100
1000
,
1001
0000
0000
0001
0000
0000
0101
0000
0000
0000
0000
0000
0110
0000
0000
0010
,
0000
1010
1000
0010
2000
0000
3000
0000
,
1001
0000
0000
0001
0000
0000
0101
0000
0000
0000
0000
0000
1001
0000
0000
1000
,
0000
1010
0000
0000
0001
0100
0010
0100
,
0001
0000
0000
1000
0000
0000
1010
0000
0000
0000
0000
0000
1010
0000
0000
0010
,
0000
0220
0000
0000
0330
0000
1000
0000
,
0002
0100
0010
1003
,
0200
0001
0010
0301
,
0020
1000
0100
1030
,
0002
0010
0100
1003
,
0010
1000
0010
1000
0001
0100
0010
1000
,
0001
0100
0001
0100
0010
1000
0100
0010
,
0001
0000
1000
0000
0010
0000
0100
0010
,
1000
0000
0000
0000
0001
0000
0000
0100
0000
0000
0010
0000
1000
0000
0000
0010
,
0000
0000
0100
0000
0001
0000
0000
0010
0000
0000
0001
0000
1000
0000
0010
0000
,
0100
0000
0001
0000
1000
0000
0000
0010
0000
0000
0100
0000
0001
0000
0000
0010
,
0000
0000
0001
0000
1000
0000
0100
0000
0001
0000
0000
0000
0100
0000
0000
0010
,
0000
0000
0001
0000
1000
0000
0000
0010
0000
0000
0100
0000
0001
0000
0000
1000
,
0000
0000
0100
0000
0010
0000
0000
0001
0000
0000
0100
0000
0010
0000
1000
0000
,
0100
0000
1000
0000
0001
0000
0000
0010
0000
0000
1000
0000
0010
0000
0000
0001
,
0000
0000
0100
0000
0010
0000
1000
0000
1000
0000
0000
0000
0010
0000
0000
1000
,
0000
0000
0001
0000
1000
0001
1000
0000
0010
0000
0100
0000
0001
0000
0100
0000
,
1000
0100
0001
1000
0010
0100
0001
1000
,
0001
0000
0100
0000
0010
0000
1000
0000
0001
1000
0001
0000
1000
0000
0100
0000
,
1000
0001
0100
0000
0100
0000
0010
0000
,
0010
0000
0000
0000
1000
0000
0010
0000
1000
0000
0000
0000
0010
0000
0000
0100
,
0000
0001
1000
0100
0010
0001
0100
0010
,
1000
0100
0020
0000
0032
0000
2003
0000
,
3020
0000
0130
0001
1000
0100
1000
1010
,
0000
0000
0101
0000
0001
0000
0000
0100
0000
0000
0010
0000
1000
0000
0000
0010
,
0000
0000
0100
0000
0001
0000
0000
1000
0000
0000
0001
0000
0100
0000
1010
0000
,
0000
0000
0101
0000
0010
0000
0000
1000
0000
0000
0100
0000
0010
0000
0000
0001
,
0000
0000
0100
0000
0010
0000
0000
1000
0000
0000
0100
0000
0010
0000
0100
0000
,
0010
0001
1000
1000
0010
0100
0001
1000
,
0100
0010
0001
1000
0010
1000
0100
0010
,
0001
1000
1001
0000
0101
0000
1010
0000
,
1001
0000
2000
0000
3020
0000
0130
0001
,
0100
0000
0001
0000
0010
0000
0100
0000
0000
0000
1000
0001
1000
0000
0000
0000
,
0000
0000
0001
0100
0001
0000
0000
0000
0000
0000
1000
0010
1000
0000
0000
0000
,
0000
0000
0001
1000
0001
0000
0000
0000
0000
0000
1000
0010
1000
0000
0010
0000
,
0000
0000
0100
0001
0100
0000
0010
0000
0000
0000
1000
0001
1000
0000
0010
0000
,
0000
0000
0000
0100
0001
0000
0000
0001
0100
0000
0000
0100
0010
0000
0000
0010
,
1000
0000
0000
1000
0100
0000
0000
0100
0010
0000
0000
0010
0100
0000
0000
0100
,
1000
0000
0000
0100
0010
0000
0010
0000
0001
0000
0001
0000
0100
0000
0100
0000
,
0010
0010
0000
0000
1001
0000
0001
0000
,
1000
0000
0000
1000
0000
0000
1000
0000
0010
0000
0000
0010
0000
0000
0010
0000
,
0100
0001
0010
0001
1000
0010
0100
0001
,
1000
0100
0010
0001
0100
0010
1000
0001
,
0010
0100
0010
0001
0000
1000
0100
0010
,
0001
1000
0010
1000
1010
0000
0100
0001
,
0100
0010
1000
0100
0010
0100
0110
0000
,
1001
0000
0110
0000
1001
0000
1000
0001
,
0010
0001
1000
0001
0011
0000
1000
0000
,
0100
0000
0000
0010
0000
0000
0100
0000
1000
0000
0000
0010
0000
0000
0100
0000
,
0010
1000
0100
1000
0010
0100
0010
1000
,
0100
0010
0100
1000
0010
0100
0001
1000
,
0100
0010
0100
1000
1001
0000
0010
0000
,
0200
0302
0013
0001
,
2000
0000
3002
0000
1003
0100
0010
0001
,
1000
0010
0100
0001
1000
0100
0010
0100
,
1000
0000
0000
0010
0000
0000
0100
0000
0000
0010
0000
0000
1000
0000
0000
0000
0010
0000
0000
0000
0100
0000
0000
0000
,
0001
0000
0100
0000
0010
0000
1000
0000
0010
0000
1000
0000
,
1010
0000
0000
0010
0000
0100
0000
0001
0000
0100
0000
0010
,
0000
0100
0000
0001
0000
0010
0000
0001
0000
0101
0000
0000
,
0001
0000
1000
0010
0100
0001
1000
0000
0010
0100
0001
1000
,
0100
0000
1000
0010
0100
0001
1000
0100
1000
0001
0100
0001
,
1000
0000
1000
0000
0010
0000
0100
0000
0100
0000
0001
0000
,
0010
0000
0000
0000
0000
0000
0000
0000
0010
0000
0000
0000
0000
0000
0000
0000
0001
0000
0000
0000
0000
0000
0000
0000
0100
0000
0000
0000
0000
0000
0001
0000
0000
0000
0000
0000
0010
0000
0000
0100
0000
0000
0010
0000
0000
0100
0000
0000
,
0010
0000
0000
1000
0000
0000
1010
0000
0000
0000
0000
0000
1001
0000
0000
0001
,
0000
0101
0000
0000
0010
1000
0100
1000
,
1001
0000
0000
0001
0000
0000
0101
0000
0000
0000
0000
0000
1010
0000
0000
1000
,
0000
1001
0001
1000
0002
0000
0003
0000
,
1001
0000
0000
1000
0000
0000
1001
0000
0001
0000
0010
0000
0100
0000
0000
0010
,
0000
0001
1000
0010
1000
0100
0010
0001
,
0100
0000
0000
0010
0000
0000
1000
0000
0001
0000
1000
0000
0001
0000
0000
0100
,
0000
0100
0000
0000
0000
0000
0000
0000
;

//--------------- dance-single - ----------------
#NOTES:
     dance-single:
     :
     Challenge:
     13:
     1.101029,1.196085,0.347764,0.178582,1.442751,820,783,37,19,0,0,1.101029,1.196085,0.347764,0.178582,1.442751,820,783,37,19,0,0:
0000
0000
0000
0000
,
0000
0000
0000
0000
0000
0000
0000
0000
0001
0100
0001
0100
0010
1000
0010
1000
,
0001
0000
0000
1001
0000
0000
1010
0000
1000
0100
0010
0001
0100
0000
0000
0010
,
0000
0000
1010
0000
1000
0001
0100
0010
2000
0000
0000
0000
0000
0000
3000
0000
,
1001
0000
0000
0001
0000
0000
0101
0000
0010
1000
0100
0010
0001
0000
0000
0100
,
0000
0000
0110
0000
0010
1000
0100
0010
0001
1000
0001
1000
0010
0100
0010
0100
,
0001
0000
0000
1000
0000
0000
1010
0000
1000
0010
0100
0001
1000
0000
0000
0010
,
0000
0220
0000
0000
0330
0000
1000
0000
,
0002
0100
0010
1003
,
0200
0001
0010
0301
,
0020
1000
0100
1030
,
0002
0010
0100
1003
,
0010
1000
0010
1000
0001
0100
0010
1000
,
0001
0100
0001
0100
0010
1000
0100
0010
,
0001
0000
1000
0001
1000
0000
0010
1000
0010
0000
0100
0001
0100
0010
1000
0001
,
1000
0000
0000
0000
0001
0000
0000
0100
0000
0000
0010
0000
1000
0100
1000
0001
,
0010
0001
1000
0010
0100
0001
0100
0010
1000
0010
0100
0001
1000
0100
1000
0100
,
0010
0001
0100
0010
1000
0100
1000
0001
0010
0001
1000
0010
0100
0001
0100
0010
,
1000
0001
0010
0100
1000
0010
0100
0001
0100
0010
1000
0001
1000
0000
0000
0010
,
0000
0000
0100
0000
0001
0010
0001
1000
0010
1000
0001
1000
0010
0100
0010
1000
,
0001
1000
0001
0010
0100
1000
0001
0100
0010
0100
0001
1000
0010
0100
0010
0100
,
0001
1000
0100
1000
0001
0010
0001
1000
0100
1000
0001
0100
0001
0010
0100
1000
,
0100
0010
0001
1000
0010
0100
0001
1000
0100
0010
0001
1000
0010
0000
0000
1000
,
0000
0000
0001
0000
1000
0001
1000
0000
0010
0000
0100
0000
0001
1000
0010
0000
,
0100
0000
0001
0010
0200
0000
1300
0000
0010
0000
0100
0000
0001
0000
1000
0000
,
0010
0000
0100
0000
0001
0000
1000
0000
0010
0100
0010
0000
1000
0000
0001
0100
,
0010
0000
1000
0000
0002
0003
0100
0000
0002
0003
0010
0000
0002
0003
1000
0000
,
0002
0003
0100
0000
0010
0000
1000
0000
0010
0000
1000
0000
0010
0000
1000
0100
,
0000
0010
0001
0010
0001
0000
0100
0000
0010
0000
1000
0000
0100
0000
1000
0000
,
0001
0100
0210
0000
0302
0000
2003
0000
,
3020
0000
0000
0000
0130
0000
0001
0000
1000
0010
0100
0001
1000
0000
1010
0000
,
0000
0000
0101
0000
0001
0000
0000
0100
0000
0000
0010
0000
1000
0000
0000
0010
,
0000
0000
0100
0000
0001
0000
0000
1000
0000
0000
0001
0000
0100
0000
1010
0000
,
0000
0000
0101
0000
0010
0000
0000
1000
0000
0000
0100
0000
0010
0000
0000
0001
,
0000
0000
0100
0000
0010
0000
0000
1000
0000
0000
0100
0010
0100
0000
1000
0001
,
1000
0010
1010
1000
0010
0100
0001
1000
,
0100
0010
0001
1000
0010
1000
0100
0010
,
0001
1000
1001
0000
0101
0000
1010
0000
,
1001
0000
2000
0000
3020
0000
0130
0001
,
0100
0000
0001
0000
0010
0000
0001
0000
0100
0000
0010
1000
0010
0000
0100
0000
,
0001
0000
1000
0010
1000
0000
0001
0000
0100
0000
0010
1000
0100
0000
0010
0000
,
0001
0000
1000
0010
0100
0000
0001
0000
0000
0000
1000
0010
1000
0000
0010
0000
,
0000
0000
0100
0001
0100
0000
0010
0000
0000
0000
1000
0001
1000
0000
0010
0000
,
0000
0000
0100
0001
1000
0000
0010
0100
0010
0000
1000
0001
1000
0000
0010
0100
,
0010
0000
1000
0010
0100
0000
0001
0100
0010
0000
1000
0100
0010
0000
0001
0010
,
0100
0000
1000
0001
1000
0000
1000
0000
0010
0000
0010
0000
0100
0000
0100
0000
,
0010
0000
0010
0000
0000
0000
0000
0000
0001
0100
0010
1000
0001
0010
0001
0100
,
0010
1000
0010
0100
0001
0100
0010
1000
0001
0100
0010
1000
0100
0010
0001
0100
,
0010
1000
0100
1000
0001
0100
0010
1000
0010
0100
0001
1000
0001
0010
0100
1000
,
0001
0100
0010
1000
0001
0010
0100
0010
0001
0100
0010
1000
0001
0010
0100
1000
,
0010
0100
0001
0100
0010
1000
0001
0010
0100
0000
0010
0001
1000
0010
0100
0001
,
1000
0010
0100
0001
0010
0100
1000
0001
0100
0010
0100
0001
1000
0010
0100
0001
,
1000
0100
0010
0001
1000
0010
1000
0100
0010
0001
0100
0010
1000
0100
0010
0001
,
1000
0010
0100
0001
1000
0100
0010
0001
1000
0100
1000
0010
0100
0001
0010
0100
,
1000
0001
0100
0010
1000
0001
0010
0001
1000
0100
0010
0001
1000
0010
0100
0001
,
1000
0100
1000
0001
0100
0010
1000
0100
0010
0100
1000
0001
0100
0010
1000
0100
,
0010
0001
0100
0010
1000
0001
0010
0001
1000
0010
0100
0001
1000
0100
0010
0001
,
1000
0010
0100
0001
1000
0100
1000
0010
0100
0001
0100
0010
1000
0001
0010
0100
,
1000
0100
0010
0001
0100
0010
1000
0001
1000
0100
0010
0100
1000
0010
0100
0001
,
1000
0100
0010
0100
1000
0010
0100
0001
1000
0100
0010
0001
1000
0010
0100
0001
,
1000
0100
0010
0001
1000
0010
0100
0001
1000
0001
0010
0001
0100
0010
0100
0001
,
1000
0100
0010
0001
0100
0010
1000
0001
0010
0100
0010
0001
1000
0010
0100
0001
,
1000
0000
0000
0100
0000
0000
0010
0000
0000
0001
0000
0000
0100
0000
0000
0010
0000
0000
1000
0000
0000
0001
0000
0000
1000
0000
0000
0000
0000
0000
0000
0000
0010
0000
0000
0000
0000
0000
0000
0000
0100
0000
0000
0000
0000
0000
0000
0000
,
1001
0000
0001
0000
0100
0000
0110
0000
0010
0000
1000
0000
,
1010
0000
0000
0110
0000
0100
0000
0001
0000
0101
0000
0100
,
0000
0010
0000
0110
0000
0010
0000
0100
0000
0101
0000
0000
,
1001
0000
1000
0010
0100
0001
1000
0000
0010
0100
0001
1000
,
0100
0000
1000
0010
0100
0001
1000
0100
1000
0001
0100
0001
,
1000
0000
1000
0000
0010
0000
0100
0000
0100
0000
0001
0000
,
0010
0000
0000
0000
0000
0000
0000
0000
0010
0000
0000
0000
0000
0000
0000
0000
0001
0000
0000
0000
0000
0000
0000
0000
1001
0000
0000
0000
0000
0000
0010
0000
0000
0100
0000
0000
0010
0000
0000
0100
0000
0000
0010
0000
0000
0100
0000
0000
,
0010
0000
0000
1000
0000
0000
1010
0000
1000
0001
0100
0010
1000
0000
0000
0100
,
0000
0000
1100
0000
0010
0001
0100
0010
1000
0100
1000
0100
0010
0001
0010
0100
,
1000
0000
0000
0010
0000
0000
1010
0000
0100
0001
0010
0001
0100
0000
0000
0010
,
0000
0000
1010
0000
0100
0001
0100
0010
2000
0000
0000
0000
3000
0000
0000
0000
,
1001
0000
0000
0110
0000
0000
1001
0000
0001
0100
0010
1000
0100
0000
0000
0010
,
0000
0000
1001
0000
1000
0000
0001
0000
1000
0001
1000
0001
1000
0001
1000
0001
,
0100
0000
0000
0010
0000
0000
1010
0000
1000
0001
1000
0001
0010
0000
0000
0100
,
0000
1100
0000
0000
0000
0000
0000
0000
;
