#TITLE:Viva La Vida;
#SUBTITLE:;
#ARTIST:Captain Jack;
#TITLETRANSLIT:;
#SUBTITLETRANSLIT:;
#ARTISTTRANSLIT:;
#GENRE:TROPICAL DANCE;
#CREDIT:DaffaK, skeleton by Gameoson;
#BANNER:[Round D] - Viva La Vida.png;
#BACKGROUND:[Round D] - Viva La Vida-bg.png;
#LYRICSPATH:;
#CDTITLE:cdtitle.png;
#MUSIC:[Round D] - Viva La Vida.ogg;
#OFFSET:-1.784000;
#SAMPLESTART:70.355003;
#SAMPLELENGTH:15.000000;
#SELECTABLE:YES;
#BPMS:0.000000=140.000000
;
#STOPS:
;
#BGCHANGES:;
#KEYSOUNDS:;
#ATTACKS:;

//---------------dance-single - ----------------
#NOTES:
     dance-single:
     :
     Beginner:
     1:
     0.126434,0.168961,0.030172,0.060343,0.000000,88.000000,85.000000,3.000000,6.000000,0.000000,0.000000,0.126434,0.168961,0.030172,0.060343,0.000000,88.000000,85.000000,3.000000,6.000000,0.000000,0.000000:
// measure 0
0000
0000
0000
0000
,  // measure 1
0000
0000
0000
0000
,  // measure 2
0000
0000
0000
0000
,  // measure 3
0000
0000
0000
0000
,  // measure 4
1000
0000
1000
0000
,  // measure 5
1000
0000
0000
0000
,  // measure 6
0001
0000
0001
0000
,  // measure 7
0001
0000
0000
0000
,  // measure 8
1000
0000
1000
0000
,  // measure 9
2000
0000
3000
0000
,  // measure 10
0001
0000
0001
0000
,  // measure 11
0002
0000
0003
0000
,  // measure 12
0010
0000
0010
0000
,  // measure 13
0010
0000
0000
0000
,  // measure 14
0100
0000
0100
0000
,  // measure 15
0100
0000
0000
0000
,  // measure 16
1000
0000
1000
0000
,  // measure 17
0001
0000
0001
0000
,  // measure 18
1000
0000
0001
0000
,  // measure 19
1000
0000
0000
0000
,  // measure 20
0010
0000
0010
0000
,  // measure 21
0100
0000
0100
0000
,  // measure 22
0010
0000
1000
0000
,  // measure 23
0001
0000
0000
0000
,  // measure 24
0001
0000
0001
0000
,  // measure 25
1000
0000
1000
0000
,  // measure 26
0001
0000
1000
0000
,  // measure 27
0001
0000
0000
0000
,  // measure 28
0010
0000
0010
0000
,  // measure 29
0100
0000
0100
0000
,  // measure 30
0010
0000
0001
0000
,  // measure 31
1000
0000
0000
0000
,  // measure 32
1001
0000
0000
0000
,  // measure 33
0001
0000
0001
0000
,  // measure 34
0001
0000
0000
0000
,  // measure 35
1000
0000
1000
0000
,  // measure 36
1000
0000
0000
0000
,  // measure 37
0010
0000
0010
0000
,  // measure 38
0010
0000
0000
0000
,  // measure 39
0100
0000
0100
0000
,  // measure 40
0100
0000
0000
0000
,  // measure 41
0001
0000
0010
0000
,  // measure 42
0002
0000
0003
0000
,  // measure 43
1000
0000
0010
0000
,  // measure 44
2000
0000
3000
0000
,  // measure 45
0100
0000
0100
0000
,  // measure 46
0010
0000
0010
0000
,  // measure 47
0100
0000
0010
0000
,  // measure 48
1001
0000
0000
0000
,  // measure 49
1000
0000
0100
0000
,  // measure 50
2000
0000
3000
0000
,  // measure 51
0001
0000
0100
0000
,  // measure 52
0002
0000
0003
0000
,  // measure 53
0010
0000
0010
0000
,  // measure 54
0100
0000
0100
0000
,  // measure 55
0010
0000
0100
0000
,  // measure 56
1001
0000
0000
0000
;

//---------------dance-single - ----------------
#NOTES:
     dance-single:
     :
     Easy:
     3:
     0.229879,0.253442,0.060343,0.140801,0.000000,160.000000,154.000000,6.000000,14.000000,0.000000,0.000000,0.229879,0.253442,0.060343,0.140801,0.000000,160.000000,154.000000,6.000000,14.000000,0.000000,0.000000:
// measure 0
0000
0000
0000
0000
,  // measure 1
0000
0000
0000
0000
,  // measure 2
0000
0000
0000
0000
,  // measure 3
0000
0000
0000
0000
,  // measure 4
1000
0010
1000
0000
,  // measure 5
0001
0010
0001
0000
,  // measure 6
1000
0100
1000
0000
,  // measure 7
1001
0000
0001
1000
,  // measure 8
0002
0003
0100
0010
,  // measure 9
2000
3000
0002
0003
,  // measure 10
2000
3000
0100
0010
,  // measure 11
0002
0003
2000
3000
,  // measure 12
0001
0100
0010
0000
,  // measure 13
1000
0100
0010
0000
,  // measure 14
0001
1000
0010
0000
,  // measure 15
2002
0000
3003
0000
,  // measure 16
1000
0100
1000
0000
,  // measure 17
0001
0100
0001
0000
,  // measure 18
1000
0100
1000
0001
,  // measure 19
0100
0001
1000
0000
,  // measure 20
0001
0010
0001
0000
,  // measure 21
1000
0010
1000
0000
,  // measure 22
0001
0010
0001
1000
,  // measure 23
0010
1000
0001
0000
,  // measure 24
1000
0100
0001
0000
,  // measure 25
0001
0100
1000
0000
,  // measure 26
1000
0010
0001
0010
,  // measure 27
1000
0001
1000
0000
,  // measure 28
0001
0100
1000
0000
,  // measure 29
1000
0100
0001
0000
,  // measure 30
0001
0010
1000
0010
,  // measure 31
0001
1000
0001
0000
,  // measure 32
2002
0000
3003
0000
,  // measure 33
1000
0000
0010
0000
,  // measure 34
0001
0000
0010
0000
,  // measure 35
1000
0000
0001
0000
,  // measure 36
0100
0000
0100
0000
,  // measure 37
0001
0000
0010
0000
,  // measure 38
1000
0000
0010
0000
,  // measure 39
0001
0000
1000
0000
,  // measure 40
1001
0000
0000
0000
,  // measure 41
2000
3000
0001
0010
,  // measure 42
0100
0100
0010
0010
,  // measure 43
0002
0003
1000
0010
,  // measure 44
0100
0100
0010
0010
,  // measure 45
1000
0100
0001
0100
,  // measure 46
1000
0010
0001
0010
,  // measure 47
1000
0001
1000
0000
,  // measure 48
1001
0000
0001
1000
,  // measure 49
0002
0003
1000
0010
,  // measure 50
0100
0100
0010
0010
,  // measure 51
2000
3000
0001
0010
,  // measure 52
0100
0100
0010
0010
,  // measure 53
0001
0100
1000
0100
,  // measure 54
0001
0010
1000
0010
,  // measure 55
0001
1000
0001
0000
,  // measure 56
1001
0000
0000
0000
;

//---------------dance-single - ----------------
#NOTES:
     dance-single:
     :
     Medium:
     7:
     0.429587,0.450564,0.533033,0.472690,0.075429,299.000000,246.000000,53.000000,47.000000,0.000000,0.000000,0.429587,0.450564,0.533033,0.472690,0.075429,299.000000,246.000000,53.000000,47.000000,0.000000,0.000000:
// measure 0
0000
0000
0000
0000
,  // measure 1
0000
0000
0000
0000
,  // measure 2
0000
0000
0000
0000
,  // measure 3
0000
0000
0000
0000
,  // measure 4
1000
0000
1010
0000
0100
0001
1000
0000
,  // measure 5
0002
0010
2003
0010
,  // measure 6
3001
0000
0011
0000
0100
1000
0001
0000
,  // measure 7
2002
3003
0110
1001
,  // measure 8
0001
0000
0101
0000
0010
1000
0001
0000
,  // measure 9
2001
0100
3002
0100
,  // measure 10
1003
0000
1100
0000
0010
0001
1000
0000
,  // measure 11
1002
0100
2003
0100
,  // measure 12
3001
0000
0011
0000
0100
1000
0001
0000
,  // measure 13
2000
0010
3002
0010
,  // measure 14
1003
0000
1010
0000
0100
0001
1000
0000
,  // measure 15
2002
0000
0000
3003
,  // measure 16
2100
0000
3001
0000
1000
0001
0010
0000
,  // measure 17
0012
0000
1003
0000
0001
1000
0100
0000
,  // measure 18
1000
0010
0001
0000
0001
0010
1000
0000
,  // measure 19
1000
0010
0001
0010
1000
0000
1001
0000
,  // measure 20
0001
0100
1000
0000
1000
0100
0001
0000
,  // measure 21
0001
0100
1000
0100
0001
0000
1001
0000
,  // measure 22
1000
0010
0001
0000
0001
0010
1000
0000
,  // measure 23
1000
0100
0001
0100
1000
0001
0100
0000
,  // measure 24
0102
0000
1003
0000
0001
1000
0010
0000
,  // measure 25
2010
0000
3001
0000
1000
0001
0100
0000
,  // measure 26
0001
0010
1000
0000
1000
0010
0001
0000
,  // measure 27
0001
0010
1000
0010
0001
0000
1001
0000
,  // measure 28
1000
0100
0001
0000
0001
0100
1000
0000
,  // measure 29
1000
0100
0001
0100
1000
0000
1001
0000
,  // measure 30
0001
0010
1000
0000
1000
0010
0001
0000
,  // measure 31
0001
0100
1000
0100
0001
1000
0100
0000
,  // measure 32
2002
3000
0200
0303
,  // measure 33
0002
0000
0000
0000
0103
0000
0020
0000
0000
0000
1030
0000
,  // measure 34
0002
0000
0000
0000
0013
0000
0200
0000
0000
0000
1300
0000
,  // measure 35
0002
0000
0000
0000
0103
0000
0020
0000
0000
0000
1030
0000
,  // measure 36
0001
0000
0010
0000
0100
0000
2000
0000
0000
0000
3001
0000
,  // measure 37
2000
0000
0000
0000
3100
0000
0020
0000
0000
0000
0031
0000
,  // measure 38
2000
0000
0000
0000
3010
0000
0200
0000
0000
0000
0301
0000
,  // measure 39
2000
0000
0000
0000
3100
0000
0020
0000
0000
0000
0031
0000
,  // measure 40
0200
0000
0010
0310
,  // measure 41
1001
0000
1100
0000
0010
0001
1000
0000
,  // measure 42
2010
3001
2100
3001
,  // measure 43
1010
0000
0101
0000
0001
1000
0100
0000
,  // measure 44
2100
3001
2010
3001
,  // measure 45
0011
0000
1100
0000
1000
0010
0100
0000
,  // measure 46
1002
0103
1002
0013
,  // measure 47
0101
0000
1010
0000
1000
0001
1000
0000
,  // measure 48
2002
3003
0110
0110
,  // measure 49
1001
0000
0101
0000
0010
1000
0001
0000
,  // measure 50
0012
1003
0102
1003
,  // measure 51
0011
0000
1100
0000
1000
0001
0100
0000
,  // measure 52
0102
1003
0012
1003
,  // measure 53
1010
0000
0101
0000
0001
0010
0100
0000
,  // measure 54
2001
3100
2001
3010
,  // measure 55
1100
0000
0011
0000
0001
1000
0001
0000
,  // measure 56
1001
0000
0000
0000
;

//---------------dance-single - ----------------
#NOTES:
     dance-single:
     :
     Hard:
     8:
     0.504298,0.506884,0.221259,0.412346,0.346974,351.000000,329.000000,22.000000,41.000000,0.000000,0.000000,0.504298,0.506884,0.221259,0.412346,0.346974,351.000000,329.000000,22.000000,41.000000,0.000000,0.000000:
// measure 0
0000
0000
0000
0000
,  // measure 1
0000
0000
0000
0000
,  // measure 2
0000
0000
0000
0000
,  // measure 3
0000
0000
0000
0000
,  // measure 4
1000
0001
0200
0000
0310
1000
0002
0000
,  // measure 5
1003
0000
0000
1000
0100
0000
0000
0100
0010
0000
0000
0010
0001
0000
0000
0001
,  // measure 6
1000
0010
0200
0000
0301
1000
0100
0000
,  // measure 7
0220
0330
1001
0110
,  // measure 8
2001
0000
3010
0100
0002
0000
0013
0100
,  // measure 9
1000
0000
0000
1000
0001
0000
0000
0001
0100
0000
0000
0100
0010
0000
0000
0000
,  // measure 10
1002
0000
0013
0100
2000
0000
3010
0100
,  // measure 11
0001
0000
0000
0001
1000
0000
0000
1000
0100
0000
0000
0100
0010
0000
0000
0010
,  // measure 12
0001
1000
0200
0000
0310
0001
2000
0000
,  // measure 13
3001
0000
0000
0001
0100
0000
0000
0100
0010
0000
0000
0010
1000
0000
0000
1000
,  // measure 14
0001
0000
0000
0010
0000
0000
0200
0000
0000
0000
0000
0000
1300
0000
0001
0000
1000
0000
0001
0000
0000
0000
0000
0000
,  // measure 15
2002
0000
0000
3003
,  // measure 16
2001
0000
3100
0010
0002
0000
0103
0000
,  // measure 17
2001
0000
3010
0100
0001
1000
0100
0000
,  // measure 18
1000
0010
0002
0000
0013
1000
0200
0000
,  // measure 19
0301
0100
1000
0001
1000
0010
0100
0000
,  // measure 20
0001
0010
2000
0000
3010
0001
0200
0000
,  // measure 21
1300
0100
0001
1000
0001
0010
0100
0000
,  // measure 22
1000
0001
0020
0000
1030
0010
0002
0000
,  // measure 23
0103
1000
0100
0001
1000
0100
0010
0000
,  // measure 24
1002
0000
0103
0010
2000
0000
3100
0000
,  // measure 25
1002
0000
0013
0100
1000
0001
0100
0000
,  // measure 26
0001
0010
2000
0000
3010
0001
0200
0000
,  // measure 27
1300
0100
0001
1000
0001
0010
0100
0000
,  // measure 28
1000
0010
0002
0000
0013
1000
0200
0000
,  // measure 29
0301
0100
1000
0001
1000
0010
0100
0000
,  // measure 30
0001
1000
0020
0000
0031
0010
2000
0000
,  // measure 31
3100
0001
0100
1000
0001
0100
0010
0000
,  // measure 32
0220
0330
2002
3003
,  // measure 33
1000
0000
0010
0000
0001
0000
0010
0000
1000
0000
0001
0000
,  // measure 34
1000
0000
0100
0000
0001
0000
0100
0000
1000
0000
0001
0000
,  // measure 35
0100
0000
1000
0000
0100
0000
0001
0000
0010
0000
1000
0000
,  // measure 36
0010
0000
0001
0000
1000
0000
0010
0000
0100
0001
0100
0000
,  // measure 37
0001
0000
0010
0000
1000
0000
0010
0000
0001
0000
1000
0000
,  // measure 38
0001
0000
0100
0000
1000
0000
0100
0000
0001
0000
1000
0000
,  // measure 39
0100
0000
0001
0000
0100
0000
1000
0000
0010
0000
0001
0000
,  // measure 40
0020
0000
0100
0130
,  // measure 41
2001
0000
3100
0010
0001
1000
0010
0000
,  // measure 42
1010
0000
0000
1000
0001
0000
0000
0001
0010
0000
0000
0010
1000
0000
0000
1000
,  // measure 43
0010
0001
0100
1000
0100
0001
1000
0000
,  // measure 44
1100
0000
0000
0100
0001
0000
0000
0001
0100
0000
0000
0100
1000
0000
0001
0000
,  // measure 45
0100
1000
0100
0010
1000
0001
0010
0100
,  // measure 46
1000
0000
0000
1000
0001
0000
0000
0001
0100
0000
0000
0100
0010
0000
0000
0010
,  // measure 47
1000
0001
0100
0010
0100
0001
1000
0000
,  // measure 48
2002
3003
0110
0110
,  // measure 49
1002
0000
0103
0010
1000
0001
0010
0000
,  // measure 50
0011
0000
0000
0001
1000
0000
0000
1000
0010
0000
0000
0010
0001
0000
0000
0001
,  // measure 51
0010
1000
0100
0001
0100
1000
0001
0000
,  // measure 52
0101
0000
0000
0100
1000
0000
0000
1000
0100
0000
0000
0100
0001
0000
1000
0000
,  // measure 53
0100
0001
0100
0010
0001
1000
0010
0100
,  // measure 54
0001
0000
0000
0001
1000
0000
0000
1000
0100
0000
0000
0100
0010
0000
0000
0010
,  // measure 55
0001
0000
0000
1000
0000
0000
0100
0000
0000
0010
0000
0000
0001
0000
1000
0000
0001
0000
1000
0000
0000
0000
0000
0000
,  // measure 56
1001
0000
0000
0000
;

//---------------dance-single - ----------------
#NOTES:
     dance-single:
     :
     Challenge:
     9:
     0.646536,0.619525,0.311774,0.100572,0.573262,450.000000,419.000000,31.000000,10.000000,0.000000,0.000000,0.646536,0.619525,0.311774,0.100572,0.573262,450.000000,419.000000,31.000000,10.000000,0.000000,0.000000:
// measure 0
0000
0000
0000
0000
,  // measure 1
0000
0000
0000
0000
,  // measure 2
0000
0000
0000
0000
,  // measure 3
0000
0000
0000
0000
,  // measure 4
1000
0000
0010
0000
0001
0000
0000
0001
0010
0000
1000
0000
0001
0000
0000
0001
,  // measure 5
1000
0000
0000
1000
0100
0000
0010
0000
0001
0000
0000
0001
0100
0000
0010
0000
,  // measure 6
1000
0100
0001
0100
1000
0010
0100
0001
,  // measure 7
2002
3003
0101
1010
,  // measure 8
1001
0000
0000
1000
0100
0000
0001
0000
0100
0000
0010
0000
0001
1000
0000
0001
,  // measure 9
1000
0000
0000
1000
0010
0000
0100
0000
0001
0000
0000
0001
0010
0000
0100
0000
,  // measure 10
1000
0000
0010
0000
0001
0000
0010
0000
1000
0000
0001
0010
0000
0100
0010
0000
,  // measure 11
0001
0000
0000
0001
1000
0000
0010
0000
0100
0000
0000
0100
0001
0000
1000
0000
,  // measure 12
0001
0000
0010
0000
1000
0000
0010
0000
0001
0000
1000
0000
0010
0100
0000
0010
,  // measure 13
1000
0000
0000
1000
0001
0000
0010
0000
0100
0000
0000
0100
1000
0000
0010
0000
,  // measure 14
0001
0000
0000
0010
0000
0000
1000
0000
0000
0001
0000
0000
1000
0000
0100
0000
0010
0000
0001
0000
0000
1000
0000
0000
,  // measure 15
2002
0000
0000
3003
,  // measure 16
0101
0000
0000
0001
1000
0000
0010
0000
0100
0000
0000
0000
1001
0000
0000
0000
,  // measure 17
1100
0000
0000
1000
0001
0000
0010
0000
0100
0000
1000
0000
0001
1000
0001
0000
,  // measure 18
0100
0000
0000
0100
1000
0000
0001
0000
0010
0000
0000
0010
1000
0000
0001
0000
,  // measure 19
1000
0000
0000
1000
0100
0000
0001
0000
0100
0000
0010
0001
0000
0001
1000
0000
,  // measure 20
0100
0000
0000
0100
0001
0000
1000
0000
0010
0000
0000
0010
0001
0000
1000
0000
,  // measure 21
0001
0000
0000
0001
0100
0000
1000
0000
0100
0000
0010
0000
1000
0001
1000
0000
,  // measure 22
0001
0000
0000
0001
0010
0000
0100
0000
1000
0000
0000
1000
0010
0000
0100
0000
,  // measure 23
0001
0000
0000
0001
1000
0000
0100
0000
0010
0000
0001
1000
0001
0000
1000
0000
,  // measure 24
1010
0000
0000
1000
0001
0000
0100
0000
0010
0000
1000
0000
0100
0000
0000
0000
,  // measure 25
0011
0000
0000
0001
1000
0000
0100
0000
0010
0000
0001
0000
1000
0001
1000
0000
,  // measure 26
0010
0000
0000
0010
0001
0000
1000
0000
0100
0000
0000
0100
0001
0000
1000
0000
,  // measure 27
0001
0000
0010
0001
0010
0000
0100
0000
1000
0000
0010
0100
0000
0100
0001
0000
,  // measure 28
0010
0000
0000
0010
1000
0000
0001
0000
0100
0000
0000
0100
1000
0000
0001
0000
,  // measure 29
1000
0000
0010
1000
0010
0000
0100
0000
0001
0000
0010
0000
0100
1000
0100
0000
,  // measure 30
1000
0000
0000
1000
0010
0000
0100
0000
0001
0000
0000
0001
0010
0000
0100
0000
,  // measure 31
1000
0000
0000
1000
0001
0000
0100
0000
0010
0000
1000
0001
1000
0000
0001
0000
,  // measure 32
2002
0000
0000
3003
0000
0000
2200
0000
3300
0000
0011
0000
,  // measure 33
1001
0000
1000
0000
0010
0000
0101
0000
0001
0000
1000
0000
,  // measure 34
1100
0000
0010
0000
0001
0000
1001
0000
1000
0000
0010
0100
,  // measure 35
0001
0000
1000
0000
0100
0000
0001
0000
0100
1000
0100
1000
,  // measure 36
0001
0000
0100
0000
0010
0000
1010
0000
1000
0000
0001
0000
,  // measure 37
1001
0000
0001
0000
0010
0000
1100
0000
1000
0000
0001
0000
,  // measure 38
0101
0000
0010
0000
1000
0000
1001
0000
0001
0000
0010
0100
,  // measure 39
1000
0000
0001
0000
0100
0000
1000
0000
0100
0001
0100
0002
,  // measure 40
2000
3003
0101
1010
,  // measure 41
1001
0000
0000
0001
0010
0000
1000
0000
0010
0000
0100
0000
1000
0100
1000
0000
,  // measure 42
0001
0000
1000
0001
1000
0000
0010
0000
0100
0000
0001
1000
0001
0000
1000
0000
,  // measure 43
0100
0000
0001
0000
1000
0000
0010
0000
0001
0000
1000
0010
0000
0100
0010
0000
,  // measure 44
1000
0000
0001
1000
0001
0000
0010
0000
0100
0000
1000
0001
1000
0000
0001
0000
,  // measure 45
0100
0000
0010
1000
0010
0000
1000
0000
0100
0000
0001
0000
0100
0010
0000
0010
,  // measure 46
0001
0000
0100
0001
0100
0000
0010
0000
1000
0000
0100
1000
0100
0000
0010
0000
,  // measure 47
0001
0000
1000
0000
0010
0000
0001
0000
0010
0000
1000
0001
1000
0000
0100
0000
,  // measure 48
1100
0011
0101
1010
,  // measure 49
1001
0000
0000
0001
0010
0000
1000
0000
0010
0000
0001
0000
1000
0010
1000
0010
,  // measure 50
1000
0000
0001
0100
0010
0000
0100
0000
0001
0000
1000
0100
0010
0000
0100
0000
,  // measure 51
1000
0000
0010
0000
0001
0000
1000
0000
0100
0000
0001
0010
0001
0010
0100
0000
,  // measure 52
1000
0000
0001
0010
0100
0000
1000
0000
0001
0000
1000
0010
0100
0000
0001
0000
,  // measure 53
1000
0000
0010
1000
0010
0000
0001
0000
0010
0000
1000
0000
0001
0010
0001
0010
,  // measure 54
0001
0000
1000
0100
0010
0000
0100
0000
1000
0000
0001
0100
0010
0000
0100
0000
,  // measure 55
0001
0000
0000
0010
0000
0000
1000
0000
0000
0010
0000
0000
0001
0000
0100
0000
0010
0000
1000
0000
0000
0001
0000
0000
,  // measure 56
1001
0000
0000
0000
;
