#TITLE:Seek Bromance (Avicii's Vocal Edit);
#SUBTITLE:;
#ARTIST:Tim Berg;
#TITLETRANSLIT:;
#SUBTITLETRANSLIT:;
#ARTISTTRANSLIT:;
#GENRE:Progressive House;
#CREDIT:Song sent in by K-Step;
#MUSIC:Seek Bromance (Avicii Vocal Edit).ogg;
#BANNER:Seek Bromance (Avicii Vocal Edit) banner.png;
#BACKGROUND:Seek Bromance (Avicii Vocal Edit) background.png;
#CDTITLE:;
#SAMPLESTART:64.450;
#SAMPLELENGTH:19.286;
#SELECTABLE:YES;
#OFFSET:-0.002;
#BPMS:0.000=125.988;
#STOPS:;
#DISPLAYBPM:126.000;
#BGCHANGES:;
#FGCHANGES:;

//--------------- dance-single - forcednature ----------------
#NOTES:
     dance-single:
     forcednature:
     Beginner:
     1:
     0,0,0,0,0:
0000
0000
0000
0000
,
0000
0000
0000
0000
,
0001
0000
0000
0000
,
0100
0000
0000
0000
,
0010
0000
0000
0000
,
1000
0000
0000
0000
,
0001
0000
0000
0000
,
0010
0000
0000
0000
,
0100
0000
0000
0000
,
1000
0000
0000
0000
,
0010
0000
0000
0000
,
0001
0000
0000
0000
,
0100
0000
0000
0000
,
0010
0000
0000
0000
,
0001
0000
1000
0000
,
0001
0000
1000
0000
,
0020
0000
0000
0000
,
0030
0000
0000
0000
,
0100
0000
0100
0000
,
0100
0000
0000
0000
,
0010
0000
0010
0000
,
0010
0000
0000
0000
,
1000
0000
1000
0000
,
2000
0000
0000
0000
,
0002
0000
0000
0000
,
0000
0000
3003
0000
,
1000
0000
0000
0010
,
0000
0000
0100
0000
,
0001
0000
0000
0010
,
0000
0000
0100
0000
,
1000
0000
0000
0001
,
0000
0000
0100
0000
,
0001
0000
0000
1000
,
0000
0000
0010
0000
,
0100
0000
0001
0000
,
1000
0000
0010
0000
,
1000
0000
0100
0000
,
0010
0000
0001
0000
,
1000
0000
0001
0000
,
0010
0000
0100
0000
,
1000
0000
0001
0000
,
0100
0000
0001
0000
,
1000
0000
0010
0000
,
1000
0000
0001
0000
,
0010
0000
0001
0000
,
0010
0000
0100
0000
,
1000
0000
0100
0000
,
1000
0000
0001
0000
,
0200
0000
0000
0000
,
0000
0000
0300
0000
,
1001
0000
0000
0000
;

//--------------- dance-single - forcednature ----------------
#NOTES:
     dance-single:
     forcednature:
     Easy:
     2:
     0,0,0,0,0:
0000
0000
0000
0000
,
0000
0000
0010
0010
,
0020
0000
1030
1000
,
2000
0000
3001
0001
,
0002
0000
0013
0010
,
0020
0000
0130
0100
,
0200
0000
1300
1000
,
2000
0000
3001
0001
,
0002
0000
0013
0010
,
0020
0000
0031
0001
,
0002
0000
1003
1000
,
2000
0000
3010
0010
,
0020
0000
0130
0100
,
0200
0000
0300
0000
,
0010
0000
0010
0000
,
1000
0000
0001
0000
,
0010
0000
0020
0000
,
0000
0000
0000
0030
,
0200
0000
0000
2300
0000
0000
3002
0000
,
0000
0000
0000
0003
,
0100
0001
1000
0010
,
0200
0000
0000
0300
0000
0000
0000
0000
,
0002
0000
0000
0023
0000
0000
0230
0000
,
0000
0000
0000
0000
,
2000
0000
0000
0000
,
0000
0000
0000
3300
,
0001
0000
0000
0010
0000
0000
0100
0000
,
0000
1000
0000
0000
0001
0000
0000
0000
,
0100
0000
0000
0010
0000
0000
1000
0000
,
0000
0001
0000
0000
1000
0000
0000
0000
,
0100
0000
0000
0010
0000
0000
0001
0000
,
0000
1000
0000
0000
0010
0000
0000
0000
,
0100
0000
0000
0001
0000
0000
1000
0000
,
0000
0100
0000
0000
0010
0000
0000
0000
,
0001
0000
0000
1000
0000
0000
0020
0000
,
0000
0000
0000
0200
0000
0000
0000
0330
,
0000
0100
0001
1000
,
0100
0010
0001
1000
,
0010
0000
0000
1000
0000
0000
0002
0000
,
0000
0000
0000
2000
0000
0000
3003
0000
,
0010
0100
1000
0001
,
1000
0100
0010
0001
,
0100
0000
0000
0001
0000
0000
2000
0000
,
0000
0000
0000
0020
0000
0000
3030
0000
,
0010
1000
0001
0010
,
0100
1000
0001
0010
,
0100
0000
0000
1000
0000
0000
0002
0000
,
0000
0000
0000
0200
0000
0000
0303
0000
,
0100
0001
1000
0010
,
0100
0100
0100
0000
,
1001
0000
0000
0000
;

//--------------- dance-single - forcednature ----------------
#NOTES:
     dance-single:
     forcednature:
     Medium:
     4:
     0,0,0,0,0:
0000
0000
0000
0000
,
0000
0000
1000
0001
,
0200
0000
0000
0300
0010
0000
1000
0000
,
0200
0000
0000
0300
0010
0000
0001
0000
,
2000
0000
0000
3002
0000
0000
0203
0000
,
0320
0000
0000
0030
1000
0000
0001
0000
,
0020
0000
0000
0030
0100
0000
1000
0000
,
0002
0000
0000
0003
1000
0000
0010
0000
,
0200
0000
0000
0000
0000
0000
0301
0000
0000
1000
0000
0000
0100
0000
0000
0000
,
0020
0000
0000
0030
0001
0000
1000
0000
,
0020
0000
0000
0030
1000
0000
0001
0000
,
0020
0000
0000
0000
0000
0000
0130
0000
0000
1000
0000
0000
0001
0000
0000
0000
,
0020
0000
0000
0030
0100
0000
1000
0000
,
2002
0000
0000
3003
0000
0000
1000
0000
,
0001
0100
0001
1000
,
0100
0010
0100
1000
,
0002
0000
0000
0020
0003
0000
0200
0030
,
0000
0000
2000
3300
0001
0100
0001
0000
,
1000
0000
0010
0000
0100
0000
0001
0000
0000
2000
0000
0000
,
0000
0000
0000
0200
0000
0000
3300
0000
,
0010
0001
1000
0100
,
1000
0001
0100
0001
,
1000
0000
0010
0000
0100
0000
0001
0000
0000
2000
0000
0000
,
0000
0000
0000
0002
0000
0000
3003
0000
,
0220
0000
0000
0000
,
0000
0000
0000
0330
,
0010
0000
0000
0010
0000
0000
0010
0000
0000
0010
0000
0000
1000
0000
0000
0000
,
0000
0000
0001
0000
0000
0001
0000
0000
0001
0000
0000
0001
0000
0000
0000
0000
,
1000
0000
0000
0000
0001
0000
0010
0000
0000
0010
0000
0000
0010
0000
0000
0010
,
0000
0010
0000
0000
0100
1000
0001
0000
,
0100
0000
0000
0100
0000
0000
0100
0000
0000
0100
0000
0000
0100
0000
0000
0000
,
0000
0000
0001
0000
0000
0001
0000
0000
0001
0000
0000
0001
0000
0000
0000
0000
,
1000
0100
0010
0000
0100
0000
1000
0000
,
0001
0010
2002
3003
,
1000
0000
0000
0000
0001
0000
0000
0000
1000
0000
0000
0000
0001
0000
0000
0000
0000
0000
0100
0000
0000
0002
0000
0000
,
0000
0000
0000
2000
0000
0000
0000
3003
,
0000
0100
1000
0000
0001
0000
0110
0000
,
1000
0000
0001
0000
1000
0010
0100
0000
,
0001
0000
1000
0000
0001
0000
0100
0000
0000
0020
0000
0000
,
0000
0000
0000
2000
0000
0000
3030
0000
,
0010
1000
0001
0010
,
0100
1000
0001
0100
,
0010
0000
1000
0000
0001
0000
0010
0000
0000
0200
0000
0000
,
0000
0000
0000
2000
0000
0000
3300
0000
,
0001
0010
0100
1000
,
0001
1000
0010
0100
,
0001
0000
1000
0000
0001
0000
0100
0000
0000
0020
0000
0000
,
0000
0000
0000
2000
0000
0000
3030
0000
,
0200
0000
0000
0000
,
0000
0000
0000
0300
,
1001
0000
0000
0000
;

//--------------- dance-single - forcednature ----------------
#NOTES:
     dance-single:
     forcednature:
     Hard:
     6:
     0,0,0,0,0:
0000
0000
0000
0000
,
0000
0000
0000
0000
1000
0100
1000
0001
,
0020
0000
0000
0000
0130
1000
0001
0100
,
0020
0000
0000
0000
1030
0001
0010
0100
,
2000
0000
0000
0000
0000
0000
3001
0000
0000
1000
0000
0000
0010
0000
0100
0000
,
0002
0000
0000
0000
1003
0100
0010
0100
,
2000
0000
0000
3001
0010
0100
1000
0100
,
0020
0000
0000
0000
0031
1000
0010
0100
,
0002
0000
0000
0000
0000
0000
1003
0000
0000
0100
0000
0000
1000
0000
0001
0000
,
0020
0000
0000
0000
0130
1000
0001
0010
,
0200
0000
0000
1300
0001
0100
0001
1000
,
0020
0000
0000
0000
0000
0000
1030
0000
0000
0001
0000
0000
0010
0000
0100
0000
,
2000
0000
0000
3001
0100
0010
1000
0000
,
2002
0000
0000
0000
0000
0000
0000
0000
3003
0000
1000
0000
0010
0000
0000
1000
,
0000
0001
0000
0000
0010
0000
0000
0100
0000
0000
1000
0000
0001
0000
0000
0100
,
0000
0010
1000
0000
0101
0000
1100
0000
,
2002
0000
3000
0020
0000
0003
0200
0000
,
0000
0330
1000
0000
0001
0100
0010
1000
,
0001
0000
0000
0000
0010
0000
0000
0000
0100
0000
0000
0000
1000
0000
0000
0000
0000
0000
0001
0000
0000
0200
0000
0000
,
0000
0000
0000
0020
0000
0000
0000
0330
,
0000
0000
1000
0000
0000
0001
0000
0000
0100
0000
0000
0000
0010
0000
0000
0000
,
1001
0000
1000
0000
0001
0010
0100
1000
,
0001
0000
0000
0000
0100
0000
0000
0000
0010
0000
0000
0000
1000
0000
0000
0000
0000
0000
0100
0000
0000
2000
0000
0000
,
0000
0000
0000
0002
0000
0000
0000
3003
,
0220
0000
0000
0000
,
0000
0000
0000
0000
0000
0000
0000
0330
,
1000
0000
0000
0100
0000
0000
1000
0000
0000
0001
0000
0000
0100
0000
0000
0001
,
0000
0000
1000
0000
0000
0010
0000
0000
1000
0000
0000
0001
0000
0000
0010
0000
,
0100
0000
1000
0000
0001
0000
0100
0000
0000
0010
0000
0000
1000
0000
0000
0001
,
0000
0000
1000
0000
0000
0100
0000
0000
0010
0000
0001
0000
1000
0000
0001
0000
,
0100
0000
0000
0001
0000
0000
1000
0000
0000
0010
0000
0000
1000
0000
0000
0001
,
0000
0000
0010
0000
0000
0100
0000
0000
1000
0000
0000
0001
0000
0000
0100
0000
,
0001
0000
1000
0000
0100
0000
0010
0000
0000
0001
0000
0000
1000
0000
0000
0010
,
0000
1000
0001
0000
0010
0100
1000
0001
,
0100
0000
0000
0000
0001
0000
0000
0000
1000
0000
0000
0000
0100
0000
0000
0000
0000
0000
0010
0000
0000
0002
0000
0000
,
0000
0000
0003
2200
0000
0000
0000
3300
,
0000
0001
0100
0010
1000
0000
2002
0000
,
0000
3003
1000
0000
0001
0010
0100
1000
,
0001
0000
0000
0000
1000
0000
0000
0000
0001
0000
0000
0000
0100
0000
0000
0000
0000
0000
0010
0000
0000
2000
0000
0000
,
0000
0000
3000
0202
0000
0000
0000
0303
,
1000
0001
0010
0100
1000
0000
1001
0000
,
0100
0000
0001
0000
0010
0100
1000
0001
,
1000
0000
0000
0000
0010
0000
0000
0000
0100
0000
0000
0000
0001
0000
0000
0000
0000
0000
1000
0000
0000
0200
0000
0000
,
0000
0000
0300
0022
0000
0000
0000
0033
,
0000
0000
0001
0000
0000
1000
0000
0000
0010
0000
0000
0000
0110
0000
0000
0000
,
1001
0000
1000
0000
0001
0010
0100
1000
,
0001
0000
0000
0000
0100
0000
0000
0000
0010
0000
0000
0000
1000
0000
0000
0000
0000
0000
0100
0000
0000
2000
0000
0000
,
0000
3000
0000
0022
0000
0000
0000
0030
,
0000
0100
0000
0100
0000
0100
0000
0100
,
0000
0100
0000
0100
0000
0100
0000
0103
,
1010
0000
0000
0000
;

//--------------- dance-single - forcednature ----------------
#NOTES:
     dance-single:
     forcednature:
     Challenge:
     7:
     0,0,0,0,0:
0000
0000
0000
0000
,
0000
0000
0000
0000
1000
0001
0100
0010
,
2000
0000
0000
0000
0000
0000
0000
3000
0001
0000
0010
0000
0100
0000
1000
0000
,
0002
0000
0000
0000
0000
0000
0000
0003
1000
0000
0010
0000
0001
0000
0010
0000
,
2000
0000
0000
0000
0000
0000
0000
0000
0000
3000
0000
0000
0001
0000
0000
0000
0000
0000
0100
0000
0000
0000
0000
0000
0010
0000
0000
0000
0001
0000
0000
0000
,
0020
0000
0000
0000
0000
0000
0000
0030
1000
0000
0001
0000
0010
0000
0100
0000
,
2000
0000
0000
0000
0000
3000
0001
0000
1000
0000
0100
0000
0010
0000
0001
0000
,
2000
0000
0000
0000
0000
0000
0000
3000
0100
0000
0001
0000
0100
0000
1000
0000
,
0002
0000
0000
0000
0000
0003
1000
0000
0000
0010
0000
0000
0100
0000
0001
0000
,
0020
0000
0000
0000
0000
0000
0000
0030
0100
0000
1000
0000
0100
0000
0001
0000
,
0200
0000
0000
0000
0000
0300
1000
0000
0001
0000
0100
0000
1000
0000
0100
0000
,
0020
0000
0000
0000
0000
0030
1000
0000
0000
0001
0000
0010
0100
0000
1000
0000
,
0002
0000
0000
0000
0000
0003
1000
0000
0010
0000
0100
0000
0001
0000
0000
0000
,
2002
0000
0000
0000
0000
0000
0000
0000
0000
3003
1000
0000
0100
0000
1000
0001
,
0000
0010
0000
0000
0001
0000
1000
0010
0000
0000
0100
0000
0001
0000
1000
0100
,
0000
0010
0110
0000
1001
0000
1010
0000
,
2200
0000
0000
0000
0000
0000
0000
0000
0000
0000
0000
0000
0000
0000
0000
0000
0300
0000
0000
0000
0000
0000
0000
0000
0020
0000
0000
0000
0000
0000
0000
0000
0000
0000
0000
0000
0000
0000
0000
0000
0000
0000
0000
0000
0000
3000
0000
0000
1000
0030
0000
0000
0100
0000
0000
0000
0010
0000
0000
0000
0001
0000
0000
0000
,
1000
0000
0000
0000
1001
0000
0000
0001
0100
0000
0010
0000
1000
0000
0001
0000
,
0010
0000
0000
0000
0100
0000
0000
0000
1000
0000
0000
0000
0001
0000
0000
0000
0000
0000
1000
0000
0000
0020
0000
0000
,
0000
0000
0030
0202
0000
0000
0000
0000
,
0303
0000
1000
0000
0000
0001
0000
0000
0010
0000
0000
0000
0110
0000
0000
0000
,
1001
0000
0000
0000
1000
0000
0000
0001
0100
0000
0010
0000
1000
0000
0001
0000
,
0100
0000
0000
0000
0001
0000
0000
0000
1000
0000
0000
0000
0100
0000
0000
0000
0000
0000
0010
0000
0000
0002
0000
0000
,
0000
0000
0000
0003
0000
0000
2200
0000
0000
0000
0000
0000
0000
0000
0300
0000
,
0020
0000
0000
0000
,
0000
0000
0000
0000
0000
0000
0000
3030
,
1000
0000
0000
0100
0000
0000
0001
0000
0000
0100
0000
0000
1000
0000
0000
0010
,
0000
0000
0100
0000
0000
1000
0000
0000
0100
0000
0000
0010
0000
0000
1000
0000
,
0010
0000
0001
0000
0010
0000
1000
0000
0000
0001
0000
0000
0010
0000
0000
1000
,
0000
0000
0010
0000
0000
0001
0000
0000
1000
0000
0100
0000
0001
0000
0100
0000
,
1000
0000
0000
0001
0000
0000
0100
0000
0000
0001
0000
0000
0010
0000
0000
0100
,
0000
0000
1000
0000
0000
0100
0000
0000
0001
0000
0000
0100
0000
0000
1000
0000
,
0010
0000
0100
0000
0001
0000
0010
0000
0000
1000
0000
0000
0010
0000
0000
0001
,
0000
0000
1000
0000
0010
0000
0000
0100
0001
0000
1000
0000
0001
0000
0100
0000
,
0010
0000
0000
0000
1000
0000
0000
0000
0001
0000
0000
0000
0010
0000
0000
0000
0000
0000
0100
0000
0000
1002
0000
0000
,
0000
0003
1000
0000
0000
0010
0000
0000
0100
0000
0000
0001
0000
0000
0010
0000
,
0100
0000
1000
0000
0100
0000
0001
0000
0000
0100
0000
0000
1000
0000
0000
0001
,
0000
0000
0010
0000
0100
0000
0000
1000
0001
0000
0100
0000
0010
0000
1000
0000
,
0001
0000
0000
0000
0010
0000
0000
0000
0100
0000
0000
0000
1000
0000
0000
0000
0000
0000
0001
0000
0000
2001
0000
0000
,
0000
3000
0001
0000
0000
1000
0000
0000
0010
0000
0000
1000
0000
0000
0001
0000
,
0010
0000
1000
0000
0010
0000
0001
0000
0000
0100
0000
0000
0010
0000
0000
1000
,
0000
0000
0001
0000
0010
0000
0000
0100
1000
0000
0001
0000
1000
0000
0010
0000
,
0100
0000
0000
0000
0001
0000
0000
0000
1000
0000
0000
0000
0100
0000
0000
0000
0000
0000
1000
0000
0000
0102
0000
0000
,
0000
0000
1003
0000
0000
0010
0000
0000
0001
0000
0000
0010
0000
0000
1000
0000
,
0100
0000
0010
0000
0001
0000
0010
0000
0000
1000
0000
0000
0010
0000
0000
0001
,
0000
0000
1000
0000
0010
0000
0000
0100
0001
0000
1000
0000
0100
0000
0010
0000
,
0001
0000
0000
0000
0100
0000
0000
0000
1000
0000
0000
0000
0100
0000
0000
0000
0000
0000
0001
0000
0000
2000
0000
0000
,
0000
0000
0010
0000
0000
0001
0000
0000
0100
0000
0000
0001
0000
0000
3010
0000
,
1000
0000
0100
0000
0001
0000
0100
0000
0000
1000
0000
0000
0001
0000
0000
0100
,
0000
0000
0001
0000
0000
1000
0000
0000
0010
0000
0000
0001
0000
0000
0010
0000
,
1001
0000
0000
0000
;

//--------------- dance-double - forcednature ----------------
#NOTES:
     dance-double:
     forcednature:
     Easy:
     2:
     0,0,0,0,0:
00000000
00000000
00000000
00000000
,
00000000
00000000
00010000
00001000
,
01000000
00000000
00010000
00100000
,
01000000
00000000
10000000
00010000
,
00100000
00000000
00000000
00001000
00000000
00000000
00010000
00000000
,
00000010
00000000
00001000
00000001
,
00000100
00000000
00000010
00010000
,
00001000
00000000
00100000
00010000
,
01000000
00000000
00000000
00100000
00000000
00000000
10000000
00000000
,
00010000
00000000
10000000
01000000
,
00100000
00000000
00010000
00000010
,
00001000
00000000
00000100
00000001
,
00000010
00000000
00000100
00010000
,
00001000
00000000
00000000
00000000
,
01000000
00000000
01000000
00000000
,
01000000
00000000
01000000
01000000
,
00020000
00000000
00000000
20000000
00030000
00000000
00200000
00000000
,
00000000
00000000
30300000
00000000
,
01000000
00000000
00000000
00000000
00010000
00000000
00000000
02000000
,
00000000
00000000
00000000
00020000
00000000
00000000
00000000
03030000
,
00000000
01000000
00001000
00010000
,
00000010
00001000
00000100
00000010
,
00000001
00000000
00000000
00000100
00000000
00000000
00000002
00000000
,
00000000
00000000
00000000
00000200
00000000
00000000
00000003
00000000
,
00000000
00000010
00000000
00000010
00000000
00000010
00000000
00000010
,
00000000
00000010
00000000
00000010
00000000
00000010
00000000
00000310
,
00000100
00000000
00000000
00000001
00000000
00000000
00001000
00000000
,
00000000
00000100
00000000
00000000
00010000
00000000
00000000
00000000
,
00001000
00000000
00000000
00100000
00000000
00000000
01000000
00000000
,
00000000
10000000
00000000
00000000
00010000
00000000
00000000
00000000
,
01000000
00000000
00000000
00001000
00000000
00000000
00010000
00000000
,
00000000
00000010
00000000
00000000
00001000
00000000
00000000
00000000
,
00000100
00000000
00000000
00000010
00000000
00000000
00000001
00000000
,
00000000
00001000
00000000
00000000
00000001
00000000
00000000
00000000
,
00000001
00000000
00000000
00000000
00001000
00000000
00000000
00000020
,
00000000
00000000
00000000
00020000
00000000
00000000
00030030
00000000
,
00000000
00001000
00000000
00100000
00000000
00000000
00010000
00000000
,
00000000
10000000
00100000
01000000
,
00010000
00000000
00000000
00100000
00000000
00000000
00000000
00002000
,
00000000
00000000
00000000
00020000
00000000
00000000
00033000
00000000
,
00000010
00001000
00000001
00000010
,
00000100
00010000
00001000
01000000
,
00010000
00000000
00000000
10000000
00000000
00000000
00000000
00020000
,
00000000
00000000
00000000
20000000
00000000
00000000
30030000
00000000
,
00100000
10000000
01000000
00100000
,
00001000
00010000
00000100
00000010
,
00000001
00000000
00000000
00001000
00000000
00000000
00000000
00000002
,
00000000
00000000
00000000
00002000
00000000
00000000
00000000
00000000
,
00000000
00000000
00000000
00000000
,
00000000
00000000
00003003
00000000
,
00011000
00000000
00000000
00000000
;

//--------------- dance-double - forcednature ----------------
#NOTES:
     dance-double:
     forcednature:
     Medium:
     5:
     0,0,0,0,0:
00000000
00000000
00000000
00000000
,
00000000
00000000
00010000
00001000
,
01000000
00000000
00010000
10000000
,
01000000
00000000
00100000
00001000
,
00010000
00000000
00000000
00000010
00000000
00000000
00001000
00000000
,
00000001
00000000
00000010
00000100
,
00010000
00000000
00001000
01000000
,
00010000
00000000
10000000
00100000
,
01000000
00000000
00000000
00001000
00000000
00000000
00010000
00000000
,
00000100
00000000
00000010
00000001
,
00001000
00000000
00000010
00010000
,
00001000
00000000
00000000
01000000
00000000
00000000
00010000
00000000
,
10000000
00000000
01000000
00100000
,
20020000
00000000
00000000
00000000
00000000
00000000
00000000
00000000
00000000
00000000
30030000
00000000
10000000
00000000
00000000
00010000
,
00000000
00000000
00000000
00000000
01000000
00000000
00000000
00001000
00000000
00000000
00000000
00000000
00010000
00000000
00000000
00000100
,
00000000
00001001
00001001
00001001
,
00000120
00000000
00000000
00020030
00000000
00000000
02030000
00000000
,
00000000
03000000
10000000
00000000
00100000
00000000
01000000
00000000
,
00010000
00000000
00000000
00000000
10000000
00000000
00000000
00000000
00010000
00000000
00000000
00000000
10000000
00000000
00000000
00000000
00000000
00000000
00100000
00000000
00000000
02000000
00000000
00000000
,
00000000
00000000
03000000
00022000
00000000
00000000
00000000
00033000
,
00000000
00000000
00000100
00000000
00000000
00001000
00000000
00000000
00000001
00000000
00000000
00000000
00001000
00000000
00000000
00000000
,
00001001
00000010
00010000
00001000
,
00100000
00000000
00000000
00000000
00010000
00000000
00000000
00000000
10000000
00000000
00000000
00000000
01000000
00000000
00000000
00000000
00000000
00000000
10000000
00000000
00000000
00020000
00000000
00000000
,
00000000
00000000
00030000
02200000
00000000
00000000
00000000
03300000
,
00022000
00000000
00000000
00000000
,
00000000
00000000
00000000
00033000
,
10000000
00000000
00000000
00010000
00000000
00000000
10000000
00000000
00000000
00010000
00000000
00000000
01000000
00000000
00000000
00001000
,
00000000
00000000
01000000
00000000
00000000
00001000
00000000
00000000
00100000
00000000
00000000
00001000
00000000
00000000
00010000
00000000
,
00000010
00000000
00001000
00000000
00000010
00000000
00001000
00000000
00000000
00000001
00000000
00000000
00000100
00000000
00000000
00000010
,
00000000
00000000
00001000
00000000
00000000
00000100
00000000
00000000
00010000
00000000
00001000
00000000
00100000
00000000
00010000
00000000
,
10000000
00000000
00000000
00100000
00000000
00000000
01000000
00000000
00000000
00010000
00000000
00000000
10000000
00000000
00000000
00010000
,
00000000
00000000
01000000
00000000
00000000
00100000
00000000
00000000
01000000
00000000
00000000
00001000
00000000
00000000
00010000
00000000
,
00000100
00000000
00001000
00000000
00000001
00000000
00000010
00000000
00000000
00000100
00000000
00000000
00001000
00000000
00000000
00000100
,
00000000
00010000
00001000
00000000
01000000
00000000
00101000
00000000
,
10000000
00000000
01000000
00000000
10000000
00000000
00010000
00000000
00000000
01000000
00000000
00000000
,
00001000
00010000
00000100
00001000
,
00000001
00000010
00000100
00010000
,
00001000
01000000
00100000
10000000
,
00010000
00000000
00100000
00000000
01000000
00000000
10000000
00000000
00000000
00010000
00000000
00000000
,
01000000
00001000
00010000
00000100
,
00001000
00000010
00010000
00001000
,
00100000
00010000
10000000
01000000
,
00100000
00000000
00001000
00000000
00010000
00000000
00000010
00000000
00000000
00001000
00000000
00000000
,
00000100
00000010
00000100
00001000
,
00000001
00000100
00000001
00001000
,
00000100
00010000
00001000
01000000
,
00001000
00000000
00010000
00000000
00000010
00000000
00001000
00000000
00000000
00000001
00000000
00000000
,
00000100
00000010
00001000
00000100
,
00020000
00000000
00000000
00000000
,
00000000
00000000
00000000
00030000
,
00011000
00000000
00000000
00000000
;

//--------------- dance-double - forcednature ----------------
#NOTES:
     dance-double:
     forcednature:
     Hard:
     5:
     0,0,0,0,0:
00000000
00000000
00000000
00000000
,
00000000
00000000
00000000
00000000
00010000
00001000
00010000
00001000
,
02000000
00000000
00000000
03000000
00010000
10000000
00010000
10000000
,
02000000
00000000
00000000
03000000
00100000
00001000
00100000
00001000
,
00020000
00000000
00000000
00000000
00030000
00000000
00000010
00000000
00000000
00001000
00000000
00000000
00000001
00000000
00001000
00000000
,
00000002
00000000
00000000
00000003
00001000
00000100
00010000
00000100
,
00020000
00000000
00030000
00001000
01000000
00001000
00100000
00010000
,
00200000
00000000
00000000
00300000
01000000
10000000
00010000
00100000
,
00002000
00000000
00000000
00000000
00003000
00000000
00010000
00000000
00000000
00000100
00000000
00000000
00001000
00000000
00000001
00000000
,
00002000
00000000
00000000
00003000
00000010
00001000
00000010
00010000
,
00000020
00000000
00000030
00010000
00001000
01000000
00001000
00100000
,
00020000
00000000
00000000
00000000
00030000
00000000
10000000
00000000
00000000
01000000
00000000
00000000
10000000
00000000
00010000
00000000
,
00200000
00000000
00300000
00001000
00010000
00000100
00001000
00000000
,
00002002
00000000
00000000
00000000
00000000
00000000
00000000
00000000
00003003
00000000
00000001
00000000
00000010
00000000
00000000
00000100
,
00000000
00001000
00000000
00000000
00000001
00000000
00000000
00001000
00000000
00000000
00000010
00000000
00010000
00000000
00000000
00001000
,
00000000
01000000
00010000
00000000
10010000
00000000
01100000
00000000
,
00022000
00003000
00000000
00000020
00030000
00000000
00001000
00001000
,
00002000
00003030
00000100
00000000
00010000
00000000
00001000
00000000
,
01000000
00000000
00010000
00000000
10000000
00000000
01000000
00000000
00000000
00200000
00000000
00000000
,
00000000
00000000
00000000
02000000
00000000
00000000
00000000
00000000
,
03300000
00000000
10000000
00000000
00000000
00010000
00000000
00000000
01000000
00000000
00000000
00000000
00011000
00000000
00000000
00000000
,
00011000
00001000
00010000
00000100
,
00001000
00000000
00000001
00000000
00000100
00000000
00000010
00000000
00000000
00002000
00000000
00000000
,
00000000
00000000
00000000
00000020
00000000
00000000
00000000
00003000
,
00020000
00000000
00000000
00000000
,
00000000
00000000
00000000
00000000
00000000
00000000
00000000
00030030
,
00001000
00000000
00000000
00100000
00000000
00000000
00001000
00000000
00000000
01000000
00000000
00000000
00001000
00000000
00000000
00100000
,
00000000
00000000
00010000
00000000
00000000
10000000
00000000
00000000
00100000
00000000
00000000
01000000
00000000
00000000
00010000
00000000
,
00100000
00000000
00001000
00000000
00010000
00000000
00000010
00000000
00000000
00001000
00000000
00000000
00000100
00000000
00000000
00000010
,
00000000
00000000
00000001
00000000
00000000
00001000
00000000
00000000
00000100
00000000
00010000
00000000
00001000
00000000
01000000
00000000
,
00010000
00000000
00000000
10000000
00000000
00000000
00100000
00000000
00000000
01000000
00000000
00000000
00010000
00000000
00000000
00100000
,
00000000
00000000
01000000
00000000
00000000
10000000
00000000
00000000
00010000
00000000
00000000
00100000
00000000
00000000
00001000
00000000
,
00010000
00000000
00000100
00000000
00001000
00000000
00000001
00000000
00000000
00001000
00000000
00000000
00000010
00000000
00000000
00000100
,
00000000
00000000
00000001
00000000
00000000
00001000
00000000
00000000
00000100
00000000
00000000
00010000
00000000
00000000
00001000
00000000
,
01000000
00000000
00000000
00000000
00010000
00000000
00000000
00000000
10000000
00000000
00000000
00000000
00010000
00000000
00000000
00000000
00000000
00000000
00100000
00000000
00000000
00002000
00000000
00000000
,
00000000
00000000
00000000
00000000
00000000
00000000
00020000
00000000
00000000
00000000
00000000
00000000
00000000
00033000
00000000
00000000
,
00000000
00000010
00001000
00000001
00001000
00000000
00002200
00000000
,
00000000
00003300
00010000
00000000
00001000
01000000
00010000
10000000
,
01000000
00000000
00000000
00000000
10000000
00000000
00000000
00000000
00010000
00000000
00000000
00000000
00100000
00000000
00000000
00000000
00000000
00000000
00001000
00000000
00000000
00020000
00000000
00000000
,
00000000
00000000
00000000
00000000
00000000
00000000
00000020
00000000
00000000
00000000
00000000
00030030
00000000
00000000
00000100
00000000
,
00000001
00001000
00000100
00000000
00022000
00000000
00000000
00000000
,
00033000
00000000
01000000
00000000
00010000
00100000
01000000
10000000
,
00010000
00000000
00000000
00000000
10000000
00000000
00000000
00000000
00100000
00000000
00000000
00000000
01000000
00000000
00000000
00000000
00000000
00000000
00001000
00000000
00000000
00020000
00000000
00000000
,
00000000
00000000
00000000
00000000
00000000
00000000
00000020
00000000
00000000
00000000
00000000
00000000
00000000
00000000
00000000
00030030
,
00000000
00000000
00000100
00000000
00000000
00000001
00000000
00000000
00001000
00000000
00000000
00000000
00001100
00000000
00000000
00000000
,
01010000
00000000
00110000
00000000
00001000
00010000
00000010
00001000
,
00000001
00000000
00000000
00000000
00000010
00000000
00000000
00000000
00000100
00000000
00000000
00000000
00010000
00000000
00000000
00000000
00000000
00000000
00001000
00000000
00000000
02000000
00000000
00000000
,
00000000
00000000
00000000
00200000
00000000
00000000
00000000
00000000
,
03000000
20000000
00000000
00000000
00000000
00000000
00000000
00000000
,
00000000
00000000
00000000
30300000
,
01100000
00000000
00000000
00000000
;

//--------------- dance-double - forcednature ----------------
#NOTES:
     dance-double:
     forcednature:
     Challenge:
     7:
     0,0,0,0,0:
00000000
00000000
00000000
00000000
,
00000000
00000000
00000000
00000000
00010000
00001000
00010000
00000100
,
00002000
00000000
00000000
00000000
00003010
00001000
00000100
00010000
,
00002000
00000000
00000000
00000000
01003000
00010000
00100000
01000000
,
20000000
00000000
00000000
00000000
00000000
00000000
30010000
00000000
00000000
00100000
00000000
00000000
00001000
00000000
00010000
00000000
,
00000020
00000000
00000000
00000000
00001030
00000100
00000010
00000100
,
00002000
00000000
00000000
00003100
00010000
00001000
01000000
00010000
,
20000000
00000000
00000000
00000000
31000000
00100000
01000000
10000000
,
00020000
00000000
00000000
00000000
00000000
00000000
00130000
00000000
00000000
00001000
00000000
00000000
00010000
00000000
00000010
00000000
,
00002000
00000000
00000000
00000000
00003100
00000010
00000001
00000100
,
00000020
00000000
00000000
00001030
00000100
00010000
00001000
01000000
,
00020000
00000000
00000000
00000000
00000000
00000000
10030000
00000000
00000000
00010000
00000000
00100000
01000000
00000000
10000000
00000000
,
00020000
00000000
00000000
00130000
00001000
00010000
00000010
00000000
,
00022000
00000000
00000000
00000000
00000000
00000000
00033000
00000000
00000000
00000000
01000000
00000000
00010000
00000000
10000000
01000000
,
00000000
00100000
00000000
00000000
01000000
00000000
10000000
00010000
00000000
00000000
01000000
00000000
00001000
00000000
00010000
00000100
,
00000000
00001000
00001001
00000000
00001010
00000000
00001100
00000000
,
00022000
00000000
00000000
00033000
00000000
00000000
02020000
00000000
00000000
03030000
00000000
00000000
00100000
00001000
01000000
00010000
,
00100000
00000000
00000000
00000000
00011000
00000000
00000000
00000001
00000100
00000000
00000010
00000000
00010000
00000000
00000100
00000000
,
00001000
00000000
00000000
00000000
00000010
00000000
00000000
00000000
00010000
00000000
00000000
00000000
00001000
00000000
00000000
00000000
00000000
00000000
01000000
00000000
00000000
00020000
00000000
00000000
,
00000000
00000000
00000000
00000000
00030000
00000000
20020000
00000000
00000000
00000000
00000000
00000000
00000000
00000000
00000000
30030000
,
00000000
00000000
00100000
00000000
00000000
10000000
00000000
00000000
01000000
00000000
00000000
00000000
01100000
00000000
00000000
00000000
,
10010000
00000000
00000000
00000000
01000000
00000000
00000000
00001000
00010000
00000000
00000100
00000000
00001000
00000000
00000001
00000000
,
00000010
00000000
00000000
00000000
00000100
00000000
00000000
00000000
00010000
00000000
00000000
00000000
00001000
00000000
00000000
00000000
00000000
00000000
01000000
00000000
00000000
00020000
00000000
00000000
,
00000000
00000000
00000000
00030000
00000000
00000000
20200000
00000000
00000000
00000000
00000000
00000000
00000000
00300000
00000000
00000000
,
02000000
00000000
00000000
00000000
,
00000000
00000000
00000000
00000000
00000000
00000000
00000000
00000000
00000000
00000000
00000000
00000000
00000000
33000000
00000000
00000000
,
10000000
00000000
00000000
01000000
00000000
00000000
00010000
00000000
00000000
01000000
00000000
00000000
10000000
00000000
00000000
00100000
,
00000000
00000000
01000000
00000000
00000000
00001000
00000000
00000000
00010000
00000000
00000000
00000100
00000000
00000000
00000001
00000000
,
00000100
00000000
00001000
00000000
00000010
00000000
00000001
00000000
00000000
00000010
00000000
00000000
00001000
00000000
00000000
00000100
,
00000000
00000000
00010000
00000000
00000000
00001000
00000000
00000000
01000000
00000000
00010000
00000000
01000000
00000000
10000000
00000000
,
01000000
00000000
00000000
00100000
00000000
00000000
10000000
00000000
00000000
00100000
00000000
00000000
00010000
00000000
00000000
00100000
,
00000000
00000000
10000000
00000000
00000000
01000000
00000000
00000000
00100000
00000000
00000000
00001000
00000000
00000000
00010000
00000000
,
00000100
00000000
00001000
00000000
00000100
00000000
00000001
00000000
00000000
00000100
00000000
00000000
00001000
00000000
00000000
00000010
,
00000000
00000000
00000100
00000000
00000000
00000001
00000000
00000000
00001000
00000000
00000000
00000100
00000000
00000000
00010000
00000000
,
00001000
00000000
00000000
00000000
01000000
00000000
00000000
00000000
00010000
00000000
00000000
00000000
10000000
00000000
00000000
00000000
00000000
00000000
00100000
00000000
00000000
10000000
00000000
00000000
,
00000000
00000000
00010000
00000000
00000000
00100000
00000000
00000000
01000000
00000000
00000000
10000000
00000000
00000000
00100000
00000000
,
01000000
00000000
00010000
00000000
00100000
00000000
00001000
00000000
00000000
00010000
00000000
00000000
00000100
00000000
00000000
00001000
,
00000000
00000000
00000001
00000000
00000000
00001000
00000000
00000000
00000010
00000000
00010000
00000000
00001000
00000000
01000000
00000000
,
00100000
00000000
00000000
00000000
10000000
00000000
00000000
00000000
01000000
00000000
00000000
00000000
00100000
00000000
00000000
00000000
00000000
00000000
01000000
00000000
00000000
10000000
00000000
00000000
,
00000000
00000000
00010000
00000000
00000000
00100000
00000000
00000000
00001000
00000000
00000000
00010000
00000000
00000000
00000010
00000000
,
00001000
00000000
00000001
00000000
00000100
00000000
00000010
00000000
00000000
00001000
00000000
00000000
00000100
00000000
00000000
00010000
,
00000000
00000000
00001000
00000000
00000000
01000000
00000000
00000000
00010000
00000000
10000000
00000000
00100000
00000000
01000000
00000000
,
00010000
00000000
00000000
00000000
00100000
00000000
00000000
00000000
00001000
00000000
00000000
00000000
00010000
00000000
00000000
00000000
00000000
00000000
00000010
00000000
00000000
00001000
00000000
00000000
,
00000000
00000000
00000001
00000000
00000000
00000010
00000000
00000000
00000100
00000000
00000000
00010000
00000000
00000000
00001000
00000000
,
01000000
00000000
00010000
00000000
10000000
00000000
00100000
00000000
00000000
01000000
00000000
00000000
00001000
00000000
00000000
00010000
,
00000000
00000000
00000100
00000000
00000000
00001000
00000000
00000000
00000001
00000000
00001000
00000000
00000010
00000000
00001000
00000000
,
00000100
00000000
00000000
00000000
00010000
00000000
00000000
00000000
00001000
00000000
00000000
00000000
01000000
00000000
00000000
00000000
00000000
00000000
00010000
00000000
00000000
10000000
00000000
00000000
,
00000000
00000000
00100000
00000000
00000000
10000000
00000000
00000000
01000000
00000000
00000000
00100000
00000000
00000000
00001000
00000000
,
00010000
00000000
00000010
00000000
00001000
00000000
00000001
00000000
00000000
00000100
00000000
00000000
00000010
00000000
00000000
00001000
,
00000000
00000000
00000100
00000000
00000000
00010000
00000000
00000000
00001000
00000000
00000000
01000000
00000000
00000000
00010000
00000000
,
10010000
00000000
00000000
00000000
;
