#TITLE:Revive The Rave;
#SUBTITLE:;
#ARTIST:void(Mournfinale);
#TITLETRANSLIT:;
#SUBTITLETRANSLIT:;
#ARTISTTRANSLIT:;
#GENRE:;
#CREDIT:;
#BANNER:[Round D] - Revive The Rave.png;
#BACKGROUND:[Round D] - Revive The Rave-bg.png;
#LYRICSPATH:;
#CDTITLE:;
#MUSIC:[Round D] - Revive The Rave.ogg;
#OFFSET:-1.478000;
#SAMPLESTART:59.272999;
#SAMPLELENGTH:15.000000;
#SELECTABLE:YES;
#BPMS:0.000000=165.000000
;
#STOPS:320.000=0.36363636363636363636363636363636
,320.500=0.18181818181818181818181818181818
,322.500=0.36363636363636363636363636363636
,323.000=0.18181818181818181818181818181818
,325.000=0.36363636363636363636363636363636
,325.500=0.18181818181818181818181818181818
,327.500=0.36363636363636363636363636363636
,328.500=0.18181818181818181818181818181818
,328.750=0.18181818181818181818181818181818
;
#BGCHANGES:-4.000=[Round D] - Revive The Rave.avi=1.000=0=0=0=StretchNoLoop====,
99999=-nosongbg-=1.000=0=0=0 // don't automatically add -songbackground-
;
#KEYSOUNDS:;
#ATTACKS:;

//---------------dance-single - ----------------
#NOTES:
     dance-single:
     :
     Beginner:
     1:
     0.117602,0.156973,0.007622,0.000000,0.000000,108.000000,107.000000,1.000000,0.000000,0.000000,0.000000,0.117602,0.156973,0.007622,0.000000,0.000000,108.000000,107.000000,1.000000,0.000000,0.000000,0.000000:
0000
0000
0000
0000
,
0000
0000
0000
0000
,
0000
0000
0000
0000
,
0000
0000
0000
0000
,
0001
0000
0000
0000
,
1000
0000
0000
0000
,
0010
0000
0000
0000
,
0100
0000
0000
0000
,
0100
0000
0000
0000
,
0010
0000
0000
0000
,
1000
0000
0000
0000
,
0001
0000
0000
0000
,
1000
0000
1000
0000
,
1000
0000
0000
0000
,
0001
0000
0001
0000
,
0001
0000
0000
0000
,
0000
0100
0000
0100
,
0000
0100
0000
0000
,
0000
0010
0000
0010
,
0000
0010
0000
0000
,
0000
1000
0000
1000
,
0000
1000
0000
0000
,
0000
0001
0000
0001
,
0000
0001
0000
0000
,
1000
0000
1000
0000
,
1000
0000
0000
0000
,
0001
0000
0001
0000
,
0001
0000
0000
0000
,
0100
0000
0100
0000
,
0100
0000
0000
0000
,
0010
0000
0010
0000
,
0010
0000
0000
0000
,
1000
0000
0000
0000
,
0100
0000
0000
0000
,
0010
0000
0000
0000
,
0001
0000
0000
0000
,
0001
0000
0001
0000
,
0001
0000
0000
0000
,
1000
0000
1000
0000
,
1000
0000
0000
0000
,
0010
0000
0010
0000
,
0010
0000
0010
0000
,
0100
0000
0100
0000
,
0100
0000
0100
0000
,
0001
0000
0001
0000
,
0001
0000
0001
0000
,
1000
0000
1000
0000
,
1000
0000
1000
0000
,
0000
0000
0001
0000
,
0000
0000
0001
0000
,
0000
0000
1000
0000
,
0000
0000
1000
0000
,
0000
0000
0010
0000
,
0000
0000
0010
0000
,
0000
0000
0100
0000
,
0000
0000
0100
0000
,
0001
0000
0000
0000
,
1000
0000
0000
0000
,
0001
0000
0000
0000
,
0010
0000
0000
0000
,
0100
0000
0000
0000
,
1000
0000
0000
0000
,
0010
0000
0000
0000
,
0100
0000
0000
0000
,
0100
0000
0000
0000
,
0010
0000
0000
0000
,
1000
0000
0000
0000
,
0001
0000
0000
0000
,
1000
0000
1000
0000
,
1000
0000
0000
0000
,
0001
0000
0001
0000
,
0001
0000
0000
0000
,
0000
0100
0000
0100
,
0000
0100
0000
0000
,
0000
0010
0000
0010
,
0000
0010
0000
0000
,
0000
1000
0000
1000
,
0000
1000
0000
0000
,
0000
0001
0000
0001
,
0000
0001
0000
0000
,
1000
0000
0000
0000
0000
0001
0000
0000
,
0000
0000
0100
0000
0000
0000
0000
0010
,
0000
0000
0000
1001
0000
0000
0000
0000
;

//---------------dance-single - ----------------
#NOTES:
     dance-single:
     :
     Easy:
     3:
     0.223226,0.289411,0.030489,0.114335,0.000000,205.000000,201.000000,4.000000,15.000000,0.000000,0.000000,0.223226,0.289411,0.030489,0.114335,0.000000,205.000000,201.000000,4.000000,15.000000,0.000000,0.000000:
0000
0000
0000
0000
,
0000
0000
0000
0000
,
0000
0000
0000
0000
,
0000
0000
0000
0000
,
0001
0000
0001
0000
,
1000
0000
1000
0000
,
0010
0000
0010
0000
,
0100
0000
0100
0000
,
0002
0000
0000
0003
,
2000
0000
0000
3000
,
0020
0000
0000
0030
,
0200
0000
0000
0300
,
0001
0001
0001
0001
,
1000
1000
1000
1000
,
0010
0010
0010
0010
,
0100
0000
0000
0000
,
0010
0000
0010
0000
,
1000
0000
0001
0000
,
1000
0000
1000
0000
,
0100
0000
0010
0000
,
0100
0000
0100
0000
,
1000
0000
0001
0000
,
0010
0000
0010
0000
,
0001
0000
1000
0000
,
0001
0001
0001
0000
,
1000
1000
1000
0000
,
0010
0000
0100
0000
,
0010
0000
0110
0000
,
0100
0100
0100
0000
,
0010
0010
0010
0000
,
1000
0000
0001
0000
,
1000
0000
1001
0000
,
0001
0000
0001
0000
,
0010
0000
0010
0000
,
0100
0000
0100
0000
,
1000
0000
1000
0000
,
1000
1000
1000
0000
,
0010
0010
0010
0000
,
0100
0100
0100
0000
,
0001
0001
0001
0000
,
1000
1000
0001
0001
,
0100
0100
0010
0000
,
0100
0100
0010
0010
,
1000
1000
0001
0000
,
0010
0010
0100
0100
,
1000
1000
0001
0000
,
0100
0100
0010
0010
,
0100
0100
0001
0000
,
2000
0000
0000
3000
,
0002
0000
0000
0003
,
0200
0000
0000
0300
,
0020
0000
0000
0030
,
2000
0000
0000
3000
,
0200
0000
0000
0300
,
0020
0000
0000
0030
,
0002
0000
0000
0003
,
1001
0000
0010
0000
,
0100
0001
1000
0000
,
0010
0000
0100
0000
,
0001
0010
0100
0000
,
1000
0000
0010
0000
,
0100
0010
1000
0000
,
0001
0000
1000
0000
,
0100
0010
0001
0000
,
1000
1000
1000
0000
,
0001
1000
0001
0000
,
0100
0100
0100
0000
,
0010
0100
0010
0000
,
0100
0100
0010
0010
,
1000
1000
0001
0001
,
0010
0010
0100
0100
,
2000
0000
0000
3001
,
0100
0100
0010
0010
,
1000
1000
0001
0000
,
0010
0010
0100
0100
,
0010
0010
0001
0000
,
1000
1000
0100
0100
,
0010
0010
0001
0000
,
0001
0001
0100
0100
,
0010
0010
1000
1000
,
0010
0000
0000
0010
0000
0010
0000
0000
,
0100
0000
0100
0000
0000
0001
0000
0001
,
0000
1000
0000
2002
0000
0000
0000
0000
,
0000
0000
0000
0000
,
0000
0000
0000
3003
0000
0000
0000
0000
;

//---------------dance-single - ----------------
#NOTES:
     dance-single:
     :
     Medium:
     7:
     0.469319,0.675293,0.205804,0.213426,0.125769,431.000000,404.000000,27.000000,28.000000,0.000000,0.000000,0.469319,0.675293,0.205804,0.213426,0.125769,431.000000,404.000000,27.000000,28.000000,0.000000,0.000000:
0000
0000
0000
0000
,
0000
0000
0000
0000
,
0000
0000
0000
0000
,
0000
0000
0000
0000
,
0010
0000
0000
0000
0100
0000
0000
0001
0000
0000
0001
0000
1000
0000
0000
0000
,
0001
0000
0000
0000
0100
0000
0000
0001
0000
0000
0001
0000
1000
0000
0000
0000
,
0100
0000
0000
0000
1000
0000
0000
0100
0000
0000
0100
0000
0010
0000
0000
0000
,
0001
0100
0001
0000
1000
0100
1000
0000
,
0001
0000
0010
0000
0010
0000
0000
0000
0001
0000
0000
1000
0000
0000
0020
0000
,
0000
1000
0100
1030
,
1000
0000
0010
0000
0010
0000
0000
0000
1000
0000
0000
0001
0000
0000
0100
0000
,
0020
0000
1030
0002
0000
0000
1003
0000
,
1100
0000
0010
0000
0001
0100
0010
0000
,
1000
0100
0010
0000
0001
0100
0010
0000
,
0101
0000
0010
0000
1000
0100
0001
0000
,
0200
0000
0020
0330
,
0001
0000
1000
0000
1000
0000
0000
0000
0010
0000
0000
0100
0000
0000
0010
0000
,
1000
0000
0001
0000
0001
0000
0000
0000
0100
0000
0000
0010
0000
0000
0100
0000
,
0001
0000
0010
0000
0010
0000
0000
0000
0100
0000
0000
1000
0000
0000
0001
0000
,
1000
0000
0010
0000
0010
0000
0000
0000
1000
0000
0000
0001
0000
0000
0100
0000
,
0001
0000
1000
0000
0100
0000
0000
0000
1000
0000
0000
0001
0000
0000
0010
0000
,
0001
0000
1000
0000
0010
0000
0000
0000
1000
0000
0000
0100
0000
0000
0010
0000
,
0001
0000
0100
0000
0010
0000
0000
0000
0100
0000
0000
0100
0000
0000
0100
0000
,
0010
0000
0010
0000
1000
0000
1000
0000
0001
0000
0000
0100
0000
0000
0001
0000
,
1000
0100
0001
0000
0100
0000
1000
0000
,
0001
0010
1000
0000
0010
0000
0001
0000
,
1000
0000
0010
0000
0000
0000
0100
0000
0100
0000
0000
0010
0000
0000
0100
0000
,
0001
0010
0001
0000
0100
0100
0010
0100
,
0001
0000
1000
0000
0010
0000
0000
0000
1000
0000
0000
0100
0000
0000
1000
0000
,
0001
0000
1000
0000
0100
0000
0000
0000
1000
0000
0000
0010
0000
0000
1000
0000
,
0001
0010
0001
0000
1000
0100
1000
0000
,
0001
0000
0100
0000
1000
0000
0000
0000
0100
0000
0000
0010
0000
0000
0100
0000
,
0001
1000
0100
1100
,
1000
0001
0100
0101
,
0210
0000
0000
0301
1000
0000
0000
0100
,
0010
0000
0000
0010
0000
0000
0010
0000
0002
0000
0000
0000
1003
0000
0000
0000
,
0100
1100
0010
0001
,
0100
0101
0010
1000
,
0001
0011
1000
0100
,
1000
0000
1010
0000
0100
0001
1000
0000
,
0001
0000
0010
0000
0001
0000
0000
1000
0000
0000
0001
0000
1000
0000
0000
0000
,
1000
0000
0010
0000
0100
0000
0000
0000
0001
0000
0000
0010
0000
0000
0001
0000
,
1000
0010
1000
0010
0010
1000
0001
0000
,
0001
0010
0100
1000
0001
0000
0110
0000
,
0100
0000
0010
0000
1000
0000
0000
0001
0000
0000
1000
0000
0100
0000
0000
0000
,
0100
0000
1000
0000
0010
0000
0000
0000
0100
0000
0000
0001
0000
0000
1000
0000
,
0001
0010
0100
0010
0010
0001
1000
0000
,
0001
0000
0000
1000
0000
0000
0001
0000
0020
0000
0000
0000
0000
0000
0000
0000
,
0032
0000
0100
0000
,
2003
0000
0100
0000
,
3002
0000
0010
0000
,
2003
0000
0010
0000
,
3002
1000
0203
0000
,
0320
1000
0032
0000
,
2003
0100
3020
0000
,
0230
0001
2000
3300
,
0110
0000
1001
0000
0001
0010
0100
0000
,
0110
0000
1001
0000
1000
0010
0100
0000
,
0001
0010
0001
0000
1000
0010
1000
0000
,
0001
0000
0100
0000
0010
0000
0000
0000
1000
0000
0000
0001
0000
0000
1000
0000
,
0100
0000
0110
0000
0001
1000
0010
0000
,
0100
0000
0110
0000
1000
0001
0010
0000
,
0001
0100
0010
0000
1000
0100
0001
0000
,
0100
1000
1000
0000
0001
1000
0000
0010
,
0100
0001
0001
0000
1000
0001
0010
0002
,
0000
2003
0010
3200
,
0310
0000
0001
0000
0001
0000
0000
0000
1000
0000
0000
0010
0000
0000
0100
0000
,
0020
0000
1030
0002
0000
0000
1003
0000
,
1001
0100
0100
0100
,
1001
0010
0010
0010
,
1001
0010
1001
0100
,
1001
0000
0010
0000
0210
0000
0301
1000
,
0001
0000
0000
0010
0000
0000
0100
0000
0000
0000
1000
0000
0100
0000
0010
0000
,
0001
0000
0000
0100
0000
0000
0010
0000
0000
0000
1000
0000
0010
0000
0100
0000
,
0001
0000
1000
0000
0000
0100
0000
0000
1000
0000
0000
0010
0000
0000
1000
0000
,
0001
0010
0000
0001
0000
1000
0100
0010
,
0001
0000
0000
0000
0000
0000
0000
0000
0001
0000
0000
0000
1000
0000
0000
0000
0000
0000
0000
0000
0000
0000
0000
0000
0010
0000
0000
0000
0000
0000
0000
0000
0000
0100
0000
0000
0000
0000
0000
0000
0000
0000
0001
0000
0000
0000
0000
0000
,
1000
0100
0010
0000
0001
0100
1000
0000
,
0100
0000
0010
0000
0100
0000
0010
0000
1000
0000
0000
0001
0000
0000
1000
0000
,
0002
0000
0010
0103
,
1001
1001
0100
0010
1000
0100
1100
0001
,
0010
0100
0010
0011
1000
0010
0100
0001
,
0001
0000
1000
1001
0010
0000
0200
0000
0000
0000
0000
0000
0000
0000
0000
0000
,
0000
0000
0000
0000
,
0000
0000
0000
0300
0000
0000
0000
0000
;

//---------------dance-single - ----------------
#NOTES:
     dance-single:
     :
     Hard:
     9:
     0.670767,0.771764,0.251538,0.221048,0.560243,616.000000,583.000000,33.000000,29.000000,0.000000,0.000000,0.670767,0.771764,0.251538,0.221048,0.560243,616.000000,583.000000,33.000000,29.000000,0.000000,0.000000:
// measure 0
0000
0000
0000
0000
,  // measure 1
0000
0000
0000
0000
,  // measure 2
0000
0000
0000
0000
,  // measure 3
0000
0000
0000
0000
,  // measure 4
1000
0000
0100
0000
0010
0000
0100
1000
0000
0000
0001
0000
1000
0000
0001
0000
,  // measure 5
0010
0000
0001
0000
0100
0000
0010
0100
0000
0000
0001
0000
1000
0000
0010
0000
,  // measure 6
1000
0000
0100
0000
0010
0000
0100
1000
0000
0000
0001
0000
0100
0000
0010
0000
,  // measure 7
0100
0000
0100
0000
0010
0000
0010
0000
1000
0001
1000
0000
0001
0000
0000
0000
,  // measure 8
1000
0000
0010
0000
0010
0000
0000
0000
1000
0000
0100
0010
0000
0100
1000
0000
,  // measure 9
0001
0000
0010
0000
0010
0000
0000
0000
0001
0000
0100
0010
0000
0100
0001
0000
,  // measure 10
1000
0000
0001
0000
0001
0000
0000
0000
0100
0000
0010
1000
0000
0001
1000
0000
,  // measure 11
0100
0000
0010
0000
0010
0000
0000
0000
0100
0000
1000
0001
0000
0100
0001
0000
,  // measure 12
0100
0000
0010
0000
0010
0000
0000
0000
0110
0000
0010
1000
0000
0001
1000
0000
,  // measure 13
0100
0000
0010
0000
0010
0000
0000
0000
0110
0000
0100
1000
0000
0001
1000
0000
,  // measure 14
0010
0000
0100
0000
0100
0000
0000
0000
0101
0000
0001
0010
0000
0001
1000
0000
,  // measure 15
0200
0000
0020
0330
,  // measure 16
0001
0000
0010
0000
0100
0000
0010
0000
0001
0000
0100
0001
0000
1000
0001
0000
,  // measure 17
1000
0000
0010
0000
0100
0000
0010
0000
1000
0000
0100
1000
0000
0001
1000
0000
,  // measure 18
0100
0000
0010
0000
0100
0000
1000
0000
0010
0000
0100
0001
0000
0100
0010
0000
,  // measure 19
1000
0000
0010
0000
0110
0000
0000
0000
1000
0001
0000
0100
0010
0000
1000
0001
,  // measure 20
1000
0000
0001
0000
0010
0000
0000
0000
0001
0000
0100
0001
0000
1000
0001
0000
,  // measure 21
1000
0000
0100
0000
0010
0000
0000
0000
0100
0000
1000
0001
0000
1000
0010
0000
,  // measure 22
0200
0000
0010
0000
0010
0000
0000
0000
1000
0000
0000
0001
0000
0000
1300
0000
,  // measure 23
0100
0000
0100
0000
0010
0000
0010
0000
0100
0010
0000
1000
0001
0000
1000
0100
,  // measure 24
1000
0000
0001
0000
0010
0000
0100
0010
0000
0001
0000
1000
0100
0000
1000
0000
,  // measure 25
0001
0000
0100
0000
0010
0000
0100
0001
0000
1000
0000
0001
0010
0000
0001
0000
,  // measure 26
1000
0000
0100
0000
0000
0000
1000
0000
0010
0000
0000
0010
0100
0000
0001
0000
,  // measure 27
1000
0100
0100
0010
0001
1000
0001
1000
,  // measure 28
0001
0000
0010
0000
0100
0000
0010
0001
0000
1000
0000
0010
1000
0000
0010
0000
,  // measure 29
1000
0000
0100
0000
0010
0000
0100
1000
0000
0001
0000
0100
0010
0000
0100
0000
,  // measure 30
0001
0000
1000
0000
0001
0000
0010
0001
0000
1000
0000
0100
0010
0000
0100
0000
,  // measure 31
1000
0000
0010
0000
0100
0000
0010
0000
0110
0000
0000
1001
0000
0000
0110
0000
,  // measure 32
1001
0100
1000
0001
1000
0010
1020
0000
,  // measure 33
1030
0100
1000
0010
0100
0001
0012
0000
,  // measure 34
1003
0100
0000
0100
0210
0000
1300
0000
,  // measure 35
0100
0000
0000
0000
0000
0000
0000
0000
0000
0100
0000
0000
0000
0000
0000
0000
0000
0000
0010
0000
0000
0000
0000
0000
0001
0000
0000
0000
0100
0000
0000
0000
0001
0000
0000
0000
1000
0000
0000
0000
0000
0000
0000
0000
0000
0000
0000
0000
,  // measure 36
1001
0000
0000
0010
1000
0010
0200
0000
0302
0000
2003
0000
,  // measure 37
3001
0000
0000
1000
0000
0000
0010
0000
0100
0000
0010
0000
2000
0000
0000
0000
3002
0000
0000
0000
2003
0000
0000
0000
,  // measure 38
3100
0000
0000
0010
0001
1000
0200
0000
2300
0000
3020
0000
,  // measure 39
1030
0000
0000
0010
0000
0000
0100
0000
0001
0000
0100
0000
0020
0000
0000
0000
0000
0000
1030
0000
0000
0100
0000
0000
,  // measure 40
1000
0000
0001
1000
0000
1000
0000
0001
0000
0000
1000
0100
0000
1000
0000
1000
,  // measure 41
0010
0000
1000
0000
0001
0000
0100
0000
0001
0000
0000
1000
0000
0000
0001
0000
,  // measure 42
1000
0000
0100
1000
0100
0000
1000
0000
0001
1000
0001
0000
1000
0000
0001
0000
,  // measure 43
0010
0000
0100
0000
1000
0000
0001
0010
0000
0001
0000
0100
0000
0010
1000
0000
,  // measure 44
0001
0000
0001
1000
0000
0001
0000
0001
0000
0000
1000
0001
0000
0001
0000
1000
,  // measure 45
0010
0000
0100
0000
0001
0000
0010
0000
0100
0000
0000
0010
0000
0000
0001
0000
,  // measure 46
1000
0000
0010
1000
0010
0000
1000
0000
0001
1000
0001
0000
1000
0010
1000
0000
,  // measure 47
0001
0000
0000
1001
0000
0000
1010
0000
0200
0000
0000
0000
0000
0000
0000
0000
,  // measure 48
0320
0000
0000
0000
,  // measure 49
0230
0000
0000
0000
,  // measure 50
0302
0000
2003
0000
,  // measure 51
3002
0000
0000
0000
,  // measure 52
2003
0100
0010
3001
,  // measure 53
0002
0100
0010
1003
,  // measure 54
0200
0001
0010
1300
,  // measure 55
0020
1000
0100
0031
,  // measure 56
0110
0000
0000
0000
1001
0000
0001
0010
0000
0001
0000
1000
0010
0000
0000
0000
,  // measure 57
1000
0000
0000
0000
1010
0000
1000
0100
0000
1000
0000
0001
0010
0000
0000
0000
,  // measure 58
0001
0000
0000
0000
0101
0000
0001
0100
0000
0001
0000
0010
0001
0000
0000
0000
,  // measure 59
1000
0000
0100
0000
0100
0000
1000
0001
1000
0000
0000
0010
0000
0000
0100
0000
,  // measure 60
0110
0000
0000
0000
0101
0000
0100
0001
0000
0010
0000
0001
1000
0000
0000
0000
,  // measure 61
0110
0000
0000
0000
1100
0000
0100
0010
0000
0100
0000
1000
0001
0000
0000
0000
,  // measure 62
1000
0000
0010
0000
0001
0000
0010
1000
0000
0001
0000
1000
0100
0000
0000
0000
,  // measure 63
1000
0000
0100
0000
0001
0000
0100
1000
0000
0000
0010
0000
0000
0000
0100
0000
,  // measure 64
0010
0000
0100
0000
0100
0000
0001
0000
0010
0000
0001
1000
0000
0001
0100
0000
,  // measure 65
0010
0000
0100
0000
0100
0000
0001
0000
1000
0000
0100
1000
0000
0001
1000
0000
,  // measure 66
0100
0000
0010
0000
0010
0000
0100
0000
1000
0000
0001
0010
0000
0100
1000
0000
,  // measure 67
0010
0000
0100
0000
0100
0000
0001
0000
1000
0000
0100
0010
0000
0001
1000
0000
,  // measure 68
0001
0000
0101
0000
0010
0100
0001
0010
,  // measure 69
0100
0000
0110
0000
1000
0100
0010
0100
,  // measure 70
1000
1000
0001
0001
0100
0100
0010
0010
,  // measure 71
1000
0100
1000
0100
1000
0000
0001
1000
0002
0000
0000
0000
1003
0000
0000
0000
,  // measure 72
0010
0000
0100
0001
0000
0100
0010
0000
0000
0000
1000
0000
0001
0000
1000
0000
,  // measure 73
0010
0000
0100
0010
0000
1000
0100
0000
0000
0000
1000
0000
0010
0000
0100
0000
,  // measure 74
0001
0000
0010
0000
0100
0010
0000
0100
1000
0000
0100
0010
0000
0100
1000
0000
,  // measure 75
0010
0000
0100
0000
0001
0000
1000
0000
0000
0000
0001
0100
0001
0000
1000
0000
,  // measure 76
0001
0000
0000
0000
0010
0000
0000
0000
0001
0000
0000
0000
1000
0000
0000
0000
0000
0000
0010
0000
0000
0000
0000
0000
0100
0000
0000
0000
0000
0000
0010
0000
0000
1000
0000
0000
0000
0000
0000
0001
0000
0000
1000
0000
0000
0000
0000
0000
,  // measure 77
0100
0000
1000
0000
0001
0100
0001
0000
1000
0000
0100
1000
0100
0000
1000
0000
,  // measure 78
0001
0000
0001
0000
0100
0000
0100
0000
0010
0000
0000
0110
0000
0000
1001
0000
,  // measure 79
1000
0000
0100
0000
0001
0100
0000
1000
0001
1000
0000
0010
0000
0000
0100
0000
,  // measure 80
1001
1010
0001
0100
0001
0011
1001
1000
,  // measure 81
0100
0010
0110
1001
0100
0010
0100
0001
,  // measure 82
1000
0001
0100
0010
0100
0000
0220
0000
0000
0000
0000
0000
0000
0000
0000
0000
,  // measure 83
0000
0000
0000
0000
,  // measure 84
0000
0000
0000
0330
0000
0000
0000
0000
;

//---------------dance-single - ----------------
#NOTES:
     dance-single:
     :
     Challenge:
     10:
     0.877660,0.900391,0.335384,0.190559,1.002340,806.000000,762.000000,44.000000,25.000000,0.000000,0.000000,0.877660,0.900391,0.335384,0.190559,1.002340,806.000000,762.000000,44.000000,25.000000,0.000000,0.000000:
// measure 0
0000
0000
0000
0000
,  // measure 1
0000
0000
0000
0000
,  // measure 2
0000
0000
0000
0000
,  // measure 3
0000
0000
0000
0000
,  // measure 4
0010
0000
1000
0000
0100
0000
0010
0100
0000
1000
0100
0000
0010
0000
0001
0100
,  // measure 5
0010
0000
0100
0000
0001
0000
0100
0010
0000
0100
0001
0000
1000
0000
0001
1000
,  // measure 6
0010
0000
1000
0000
0100
0000
0010
0100
0000
1000
0100
0000
0010
0000
0001
1000
,  // measure 7
0100
0000
0100
0000
0010
0000
0010
0000
0001
1000
0100
1000
0001
0000
0000
0000
,  // measure 8
1000
0000
0010
0000
0010
0000
1000
0000
0100
0000
1000
0010
0000
1000
0001
0100
,  // measure 9
0001
0000
0010
0000
0010
0000
0001
0000
0100
0000
0001
0010
0000
0001
1000
0100
,  // measure 10
1000
0000
0010
0000
0010
0000
0100
0000
0010
0000
1000
0010
0000
0100
0010
1000
,  // measure 11
0100
0000
0010
0000
0010
0000
0001
0000
0100
0010
0000
0100
0010
0000
1000
0001
,  // measure 12
0100
0000
0001
0000
0011
0000
0100
0000
1000
0000
0010
1000
0000
0001
1000
0100
,  // measure 13
1000
0000
0010
0000
0110
0000
0010
0000
1000
0000
0100
1000
0000
0001
0010
0001
,  // measure 14
1000
0000
0100
0000
0110
0000
0010
0000
0001
0000
0100
0001
0000
0010
0001
1000
,  // measure 15
0010
0000
0100
0000
0100
0010
0000
0010
1000
0001
1000
0001
0200
0000
0000
0000
,  // measure 16
0310
0000
1000
0000
1000
0000
0001
0000
0010
0000
0001
0010
0000
0001
1000
0100
,  // measure 17
1000
0000
0010
0000
0010
0000
0100
0000
0001
0000
0010
0001
0000
1000
0100
1000
,  // measure 18
0010
0000
0100
0000
0100
0000
0001
0000
0010
0000
0100
0010
0000
0001
1000
0001
,  // measure 19
0100
0010
0100
0000
0110
0000
0100
0000
0001
1000
0000
0100
0010
0000
0100
1000
,  // measure 20
0001
0000
0100
0000
0101
0000
0001
0000
1000
0100
0000
1000
0001
0000
1000
0010
,  // measure 21
1000
0000
0010
0000
1010
0000
1000
0000
0001
0010
0000
0001
1000
0000
0001
0100
,  // measure 22
0001
0000
0010
0000
0200
0000
0000
0000
0010
0000
0000
0001
0000
0000
1300
0000
,  // measure 23
0001
0000
0011
0000
0001
0000
1001
0000
0010
0100
0000
0001
1000
0000
0010
0100
,  // measure 24
0010
1000
0010
0000
1000
0000
0100
0010
0000
0100
0000
1000
0001
1000
0001
1000
,  // measure 25
0001
0100
0001
0000
1000
0000
0001
0010
0000
0100
0000
0010
0001
0000
0100
0000
,  // measure 26
0010
0000
1000
0000
0010
0000
0100
0000
0110
0000
0000
0010
1000
0000
0001
0000
,  // measure 27
0010
0001
0010
0000
0001
0000
1000
0100
0000
0100
1000
0000
0001
0100
0001
0000
,  // measure 28
1000
0010
1000
0000
0001
0000
0100
0001
0000
1000
0000
0001
0010
0001
0100
0001
,  // measure 29
1000
0010
1000
0000
0001
0000
0100
0001
0000
1000
0000
0100
1000
0000
0010
0000
,  // measure 30
1000
0100
1000
0000
1001
0000
0100
0010
0000
1000
0000
0001
1000
0100
1000
0001
,  // measure 31
1000
0010
1000
0000
0110
0000
0100
0001
1000
0000
0000
0001
0000
0000
1000
0000
,  // measure 32
1001
0010
0100
0001
0010
1000
0020
0000
,  // measure 33
0031
0100
1000
0100
0001
0010
0200
0000
,  // measure 34
0310
0000
0000
0100
1000
0000
0100
0000
0011
0000
0000
0100
0001
0000
0100
0000
,  // measure 35
0010
0000
0000
0000
0000
0000
0010
0000
0000
0000
0000
0000
1000
0000
0000
0001
0000
0000
1000
0000
0000
0000
0000
0000
0001
0000
0000
0000
1000
0000
0000
0000
0001
0000
0000
0000
0020
0000
0000
0000
0000
0000
0000
0000
0000
0000
0000
0000
,  // measure 36
0031
0000
0000
0100
0001
0100
0020
0000
2030
0000
3002
0000
,  // measure 37
1003
0000
0000
0100
0000
0000
0010
0000
0100
0000
1000
0000
0002
0000
0000
0000
1003
0000
0010
0000
0000
0100
0000
0000
,  // measure 38
0001
1000
0100
0000
1000
0001
0010
0000
0001
0000
0000
0110
0000
0000
0101
0000
,  // measure 39
1000
0000
0000
0000
0000
0000
0010
0000
0000
0000
0000
0000
0100
0000
0000
0000
0001
0000
0000
0000
1000
0000
0000
0000
0020
0000
0000
0000
0000
0000
0000
0000
0000
0000
0000
0000
1030
0000
0000
0100
0000
0000
0010
0000
0000
0100
0000
0000
,  // measure 40
1000
0000
0010
0100
0000
0001
0000
1000
0000
0000
0001
0010
0000
0001
0000
1000
,  // measure 41
0010
0100
0010
0100
0001
0100
0001
0100
0010
0000
0000
1000
0000
0000
0100
0000
,  // measure 42
1000
0000
0001
0100
0001
0000
1000
0000
0010
1000
0010
0000
1000
0100
1000
0000
,  // measure 43
0001
0000
0100
0000
0010
0000
0100
0001
0000
1000
0000
0010
0000
1000
0100
1000
,  // measure 44
0001
0000
0100
0010
0000
1000
0000
0001
0000
0000
1000
0010
0000
1000
0000
0001
,  // measure 45
0010
0001
0010
0001
1000
0010
1000
0010
0100
0000
0000
0010
0000
0000
1000
0000
,  // measure 46
1001
0000
0010
0100
0010
0000
1001
0000
0100
0010
0100
0000
0001
0010
0100
1000
,  // measure 47
0001
0000
0000
0011
0000
0000
1100
0000
0202
0000
0000
0000
0303
0000
0000
0000
,  // measure 48
2000
0000
0010
0000
0010
0000
0000
0001
0000
0000
0100
0000
0000
0000
3010
0000
,  // measure 49
0002
0000
0100
0000
0100
0000
0000
0010
0000
0000
1000
0000
0000
0000
0103
0000
,  // measure 50
0020
0000
0100
0000
0100
0000
0000
1000
0000
0000
0001
0000
0000
0000
1030
0000
,  // measure 51
0200
0000
0010
0000
0010
0000
0000
1000
0000
0000
0001
0000
0000
0000
1300
0000
,  // measure 52
0100
0000
0010
0000
2000
0000
0000
0001
0000
0000
0010
0000
0000
0000
3001
0000
,  // measure 53
0010
0000
0001
0000
0200
0000
0000
0010
0000
0000
1000
0000
0000
0000
0301
0000
,  // measure 54
1000
0000
0100
0000
0010
0000
0100
1000
0000
0001
1000
0000
0001
0010
0000
0001
,  // measure 55
1000
0000
0100
0000
0010
0000
0100
1000
0001
0000
1000
0000
2010
0000
0000
0000
,  // measure 56
3010
0100
0010
0000
0100
0000
0010
1000
0000
0001
0000
0010
0001
0000
1000
0100
,  // measure 57
1000
0010
1000
0000
0001
0000
0100
0001
0000
0010
0000
0001
1000
0000
0100
0010
,  // measure 58
0100
1000
0010
0000
0100
0000
0010
1000
0000
0001
0000
0010
0001
1000
0001
1000
,  // measure 59
0100
1000
0100
0000
0010
0000
0100
1000
0001
0000
0100
0001
1000
0000
0010
0000
,  // measure 60
1000
0100
0010
0000
1001
0000
0100
0010
0000
0100
0000
0001
1000
0000
0001
0010
,  // measure 61
0100
0010
0001
0000
0101
0000
0010
1000
0000
0100
0000
0010
0001
0000
1000
0010
,  // measure 62
0100
0010
1000
0000
1010
0000
0100
0010
0000
1000
0000
0001
1000
0000
0001
0010
,  // measure 63
0100
0000
0010
0100
0020
0000
0031
2000
0000
0000
3010
0200
0000
0000
0301
1000
,  // measure 64
0001
0000
0010
0000
0011
0000
0001
0100
0001
0000
1000
0100
0000
0100
1000
0000
,  // measure 65
0010
0000
1000
0000
1010
0000
1000
0010
1000
0000
0010
0100
0000
0100
0001
0000
,  // measure 66
1000
0001
0100
0000
0101
0000
0001
1000
0010
0000
1000
0100
0000
0100
1000
0000
,  // measure 67
0001
1000
0010
0000
1010
0000
1000
0010
0100
0000
0010
1000
0000
1000
0001
0000
,  // measure 68
1000
0000
0100
0000
1100
0000
0001
0000
0100
0000
1000
0001
0000
0001
1000
0000
,  // measure 69
0001
0000
0100
0000
0101
0000
1000
0000
0100
0000
1000
0010
0000
0010
1000
0000
,  // measure 70
0110
0000
0001
0000
1000
0000
0001
0010
0100
0000
1000
0000
0010
0000
1000
0100
,  // measure 71
0010
0100
1000
0100
0010
0001
0100
0001
2000
0000
0000
0000
3001
0010
0001
0100
,  // measure 72
0001
0000
0010
0100
0000
0100
1000
0000
0001
0000
0100
0001
1000
0010
0100
0010
,  // measure 73
1000
0000
0100
0010
0000
0010
0001
0000
0100
0000
0001
0100
0001
1000
0001
0010
,  // measure 74
0001
0000
1000
0000
0100
0001
0000
0100
1000
0000
0100
0001
0000
0100
1000
0000
,  // measure 75
0010
0000
1000
0010
0100
0000
0010
0000
1000
0001
1000
0001
0100
0010
0100
0010
,  // measure 76
1000
0000
0000
0000
0100
0000
0000
0000
1000
0000
0000
0000
1100
0000
0000
0000
0000
0000
0001
0000
0000
0100
0000
0000
0001
0000
0000
0000
0000
0000
0010
0000
0000
0001
0000
0000
0000
0000
0000
0001
0000
0000
1000
0000
0000
0001
0000
0000
,  // measure 77
0100
0000
0010
0100
0010
1000
0001
0000
0010
0001
0010
0001
1000
0010
1000
0010
,  // measure 78
0100
0000
0010
0100
0010
0000
0100
0000
0010
0000
0000
0110
0000
0000
1001
0000
,  // measure 79
1000
0000
0100
0000
0001
0100
0000
1000
0001
1000
0000
0010
0000
0000
0100
0000
,  // measure 80
0110
0001
0000
0000
0000
0000
0000
0000
0101
0000
0000
0000
0000
0000
0000
0000
1000
0000
0000
0000
0000
0000
0000
0000
0100
0000
0000
0000
0000
0000
0000
0000
0010
0000
0000
0000
0000
0000
0000
0000
0110
0000
0000
0000
0000
0000
0000
0000
1010
0000
0000
0000
0000
0000
0000
0000
1000
0000
0000
0000
0000
0000
0000
0000
,  // measure 81
0010
0000
0000
0000
0000
0000
0000
0000
0100
0000
0000
0000
0000
0000
0000
0000
1001
0010
0000
0000
0000
0000
0000
0000
1100
0000
0000
0000
0000
0000
0000
0000
1000
0000
0000
0000
0000
0000
0000
0000
0001
0000
0000
0000
0000
0000
0000
0000
0100
0000
0000
0000
0000
0000
0000
0000
0110
0000
0000
0000
0000
0000
0000
0000
,  // measure 82
0001
1000
0100
1100
0101
0000
2002
0000
0000
0000
0000
0000
0000
0000
0000
0000
,  // measure 83
0000
0000
0000
0000
,  // measure 84
0000
0000
0000
3003
0000
0000
0000
0000
;
