#TITLE:LUVORATORRRRRY!;
#SUBTITLE:;
#ARTIST:REOL;
#TITLETRANSLIT:;
#SUBTITLETRANSLIT:;
#ARTISTTRANSLIT:;
#GENRE:J-Pop;
#CREDIT:;
#BANNER:[Round D] - LUVORATORRRRRY!.png;
#BACKGROUND:[Round D] - LUVORATORRRRRY!-bg.png;
#LYRICSPATH:;
#CDTITLE:cdtitle.png;
#MUSIC:[Round D] - LUVORATORRRRRY!.ogg;
#OFFSET:1.871259;
#SAMPLESTART:91.881737;
#SAMPLELENGTH:15.000000;
#LASTBEATHINT:1.843749;
#SELECTABLE:YES;
#BPMS:0.000000=128.000000
,164.000000=64.000000
,182.000000=128.000000
;
#STOPS:
;
#BGCHANGES:3.188=[Round D] - LUVORATORRRRRY!.avi=1.000=1=0=0=StretchNoLoop==CrossFade==,
99999=-nosongbg-=1.000=0=0=0 // don't automatically add -songbackground-
;
#KEYSOUNDS:;
#ATTACKS:;

//---------------dance-single - ----------------
#NOTES:
     dance-single:
     09-14:
     Challenge:
     9:
     0.656382,1.140631,0.423400,0.180337,0.725268,586.000000,532.000000,54.000000,23.000000,22.000000,2.000000,0.656382,1.140631,0.423400,0.180337,0.725268,586.000000,532.000000,54.000000,23.000000,22.000000,2.000000:
0000
0000
0000
0000
,
0000
0000
0000
0000
,
0000
0000
0000
0000
,
0000
0000
0000
0000
,
0000
0000
0000
0000
0000
0000
1001
0010
,
1000
0000
0100
0000
0010
0000
0100
0001
0000
0001
0100
0000
1000
0000
0010
M00M
,
0010
0000
0001
0000
1000
0000
0001
0100
M00M
0100
1000
0000
0100
0000
1000
0000
,
0001
0000
0100
0000
0010
0000
0100
1000
0000
1000
0100
0000
0001
0000
0010
M00M
,
0010
0000
1000
0100
1000
0100
1000
0010
M00M
0010
0001
0100
0001
0000
1000
0100
,
0010
0001
0010
0000
0010
0000
0001
0100
0010
1000
0010
0000
0010
0000
1000
0000
,
0001
0010
0000
0010
0100
0000
1000
0010
0100
0001
0100
0000
0100
0000
0001
1000
,
0100
0010
0100
0010
0001
0100
1000
0100
,
0001
0100
0001
0000
0010
0000
0100
0000
1000
0000
1000
0000
0010
0000
0100
0010
,
1000
0001
0000
0001
1000
0000
0100
0010
0100
1000
0000
1000
0001
0000
0100
0001
,
1000
0010
1000
0010
1000
0000
0100
1000
0001
0000
0010
0000
0001
0000
0010
0001
,
0100
0001
0100
0000
1000
0000
0001
0010
0000
1000
0000
0100
0010
0000
1000
0000
,
0010
0000
0001
0000
0001
0000
0010
0001
0100
0010
1000
0010
1000
0000
0100
0000
,
0010
0000
0011
0000
0000
0101
0000
0000
1001
0000
0000
0101
0000
0000
0011
0000
,
1000
0000
1010
0000
0000
1100
0000
0000
1001
0000
0000
1100
0000
0000
1010
0000
,
0001
0000
0011
0000
0000
1001
0000
0000
1010
0000
0000
1001
0000
0000
0011
0000
,
0100
0000
1000
0000
0001
0000
1000
0010
0000
0010
0001
0000
1000
0000
0100
0000
,
0001
0000
0011
0000
0000
1010
0000
0000
1100
0000
0000
1010
0000
0000
0011
0000
,
1000
0000
1010
0000
0000
0011
0000
0000
0101
0000
0000
0011
0000
0000
1010
0000
,
1001
0000
0000
0000
1000
0000
0100
0000
0001
0000
0100
0010
0000
0010
0100
0000
,
1000
0000
0001
0100
0001
0100
0001
0100
0010
1000
0001
0010
0100
1000
0010
2000
,
0002
0000
0000
0000
,
0000
0000
0000
0000
,
0020
0030
0040
0000
,
0000
0000
0000
3033
,
0010
0000
1001
0000
0010
0000
1000
0010
M00M
0010
0001
0000
0011
0000
1001
0000
,
0100
0000
1001
0000
0100
0000
0001
0100
M00M
0100
1000
0000
1100
0000
1001
0000
,
0010
0000
1001
0000
0100
0000
1000
0010
M00M
0010
0001
0000
1001
0000
0010
0000
,
1001
0000
0010
0000
1000
0010
0100
0001
0010
0100
0010
0100
0010
0000
0000
0000
,
0001
0000
0010
0000
0001
0000
0010
0001
0100
0000
0010
0000
0100
0000
0001
0100
,
0001
0000
0010
0000
0001
0000
0010
0001
0100
0000
0010
0000
0100
0000
1000
0000
,
0100
0000
0010
0000
1000
0000
0010
0000
1000
0000
0100
1000
0100
0000
0010
0100
,
1000
0000
0010
0000
1000
0000
0010
1000
0100
0010
0001
0010
0001
0000
1000
0000
,
0001
0000
0100
0000
0001
0000
0010
0000
0001
0000
0100
0001
0010
0000
0001
0000
,
1000
0000
0010
0000
1000
0000
0100
0000
1000
0000
0010
1000
0100
0000
1000
0000
,
0001
0000
0100
0000
1000
0000
0100
0000
0001
0000
1000
0100
0010
0000
0001
0000
,
1000
0000
0010
0100
0010
0100
0001
1000
0100
0000
0010
0001
0100
0010
1000
0000
,
0001
0010
0001
0010
0000
0001
0000
0010
0001
0000
1000
0001
0100
0001
0100
0001
1000
0010
1000
0010
0000
0000
1000
0000
0001
0000
0020
0000
0000
0130
0010
0001
,
1000
0100
1000
0100
1000
0000
0010
0000
0100
0001
0100
0002
0000
0000
1003
0000
0001
0010
0002
0000
0000
1003
0001
0100
0001
0100
0001
2000
0000
0000
3001
0000
,
0010
0000
0010
0100
0000
0010
0100
0010
0001
0000
0001
0100
0000
0100
0000
0010
1000
0001
0010
0000
0001
1000
0010
0000
1000
0000
0002
0000
0000
0000
1003
0000
,
1000
0000
0001
0010
0100
0000
1000
0010
0100
0001
0000
0001
0010
0000
1000
0000
0010
0000
0001
0010
0001
0010
0100
1000
0001
0100
0001
0100
0010
0000
1000
0100
,
0000
0000
0000
0000
0000
0000
0000
0000
0000
0000
0000
0000
0200
0000
0300
0000
0000
0000
0000
0000
0000
0000
0000
0000
0002
0000
0000
0000
0003
0000
0000
0000
0000
0000
0000
0000
2000
0000
0000
0000
0000
0000
3000
0000
0000
0000
0000
0000
0020
0000
0000
0000
0000
0000
0000
0000
0030
0000
0000
0000
0002
0000
0000
0000
0000
0000
0000
0000
0000
0000
0003
0000
0100
0000
0000
0000
0000
0000
0000
0000
0000
0000
0000
0000
0000
0000
0000
0000
0000
0000
0000
0000
0000
0000
0000
0000
1010
0000
0000
0000
0000
0000
0000
0000
0000
0000
0000
0000
0000
0000
0000
0000
0000
0000
0000
0000
0000
0000
0000
0000
0000
0000
0000
0000
0000
0000
0000
0000
0000
0000
0000
0000
0000
0000
0000
0000
0000
0000
0000
0000
0000
0000
0000
0000
1001
0000
0000
0000
0000
0000
0000
0000
0000
0000
0000
0000
0000
0000
0000
0000
0000
0000
0000
0000
0000
0000
0000
0000
0000
0000
0000
0000
0000
0000
0000
0000
0000
0000
0000
0000
1000
0000
0000
0000
0000
0000
0000
0000
0000
0000
0000
0000
,
0100
0000
0001
0000
0100
0000
1000
0000
0001
0000
0011
0000
0000
1010
0000
0010
,
1000
0000
0100
0000
0001
0000
0100
0000
1100
0000
0000
0000
1010
0000
0100
0001
,
0000
0001
0100
0000
1000
0000
0100
0000
0001
0000
1000
0000
1000
0000
0100
0001
,
0000
1000
0000
0010
0001
0000
0100
0000
0010
0000
1010
0000
0000
1100
0000
0010
,
0001
0000
0010
0000
1000
0000
0010
0000
0001
0000
0101
0000
0210
0000
0000
0310
,
1000
0000
0010
0000
0001
0000
0010
0000
1000
0000
1100
0000
0000
0011
0000
0001
,
0010
0000
0001
0000
0100
0000
1000
0000
0001
0000
1000
0000
0100
0000
0001
0010
,
0000
0010
0100
0000
1000
0000
0001
0000
0011
0000
0000
0000
1010
0000
0000
1000
,
0100
0000
0001
0000
0100
0000
1000
0000
0010
0000
1010
0000
0000
0011
0000
0001
,
0100
0000
1000
0000
0100
0000
0001
0000
1010
0000
0000
0000
0011
0000
0100
1000
,
0000
1000
0100
0000
0001
0000
0100
0000
1000
0000
1000
0000
0001
0100
0010
1000
,
0100
0010
0100
0010
0001
0000
0100
0000
0010
0000
2000
0000
3000
0010
0000
2000
,
0000
3001
1000
0200
0300
0010
0002
0000
,
1003
0000
0001
0000
0100
0000
0002
0000
0003
0000
2000
0000
0000
3200
0000
0000
,
0301
0000
1000
0000
0010
0000
0002
0000
0000
0003
0100
0000
1000
0000
0001
0000
,
0010
0000
0000
0000
1000
0000
0000
0000
0200
0000
0000
0000
0000
0000
0000
0300
0M00
0000
0000
0000
0000
0000
0000
0000
0M00
0000
0000
0000
0000
0000
0000
0000
,
0M00
0M00
0M00
0M00
,
0M00
0M00
0000
0000
;

//---------------dance-single - ----------------
#NOTES:
     dance-single:
     08-11:
     Hard:
     8:
     0.488366,0.747418,0.290107,0.376355,0.364594,436.000000,399.000000,37.000000,48.000000,0.000000,2.000000,0.488366,0.747418,0.290107,0.376355,0.364594,436.000000,399.000000,37.000000,48.000000,0.000000,2.000000:
0000
0000
0000
0000
,
0000
0000
0000
0000
,
0000
0000
0000
0000
,
0000
0000
0000
0000
,
0000
0000
0000
0000
0000
0000
1000
0010
,
1010
0000
0000
0000
0011
0000
0000
1010
0000
0000
1000
0000
0100
0000
0010
0000
,
0011
0000
0000
0000
0001
0000
1000
0010
0000
1000
0010
0000
0100
0000
0001
0000
,
0011
0000
0000
0000
1010
0000
0000
0011
0000
0000
0001
0000
0100
0000
0010
0000
,
1010
0000
0000
0000
1000
0000
0100
0010
0000
0010
0001
0000
1000
0000
0001
0000
,
0100
0010
0010
1000
0100
0010
0010
0001
,
1000
0010
0000
1000
0010
0000
0100
0000
0001
0000
1000
0000
1000
0000
0001
0000
,
0010
1000
0010
0001
1000
0010
0001
0010
,
1000
1000
0100
0010
0001
0001
0100
0010
,
1000
0100
0000
1000
0100
0000
0010
0000
0001
0100
0000
0001
0100
0000
0010
0000
,
1000
0100
0001
0100
1000
1000
0010
0100
,
0001
0000
0010
0000
1000
0000
0010
0001
0000
0001
0000
0001
0100
0000
1000
0000
,
0100
0001
0001
1000
0010
0100
0001
0010
,
0100
0000
2000
0000
0000
3020
0000
0000
0230
0000
0000
0302
0000
0000
0023
0000
,
0130
0000
0020
0000
0000
0032
0000
0000
0203
0000
0000
0320
0000
0000
2030
0000
,
3100
0000
2000
0000
0000
3002
0000
0000
0203
0000
0000
0320
0000
0000
1030
0000
,
0100
0100
0010
0010
0001
0100
0010
0010
,
1000
0000
0002
0000
0000
0023
0000
0000
2030
0000
0000
3020
0000
0000
0032
0000
,
1003
0000
0020
0000
0000
0032
0000
0000
0023
0000
0000
2030
0000
0000
3100
0000
,
0010
0000
0000
0000
0010
0000
0100
0000
2000
0000
0000
3001
0000
0000
1000
0000
,
0010
0100
0001
1000
0010
0001
0010
1000
,
2002
0000
0000
0000
,
0000
0000
0000
0000
,
0020
0030
0040
0000
,
0000
0000
0000
3033
,
1000
0000
0000
0000
0010
0000
0000
0001
0000
0000
0010
0000
0010
0000
1000
0000
,
0100
0000
0000
0000
1000
0000
0000
0001
0000
0000
0010
0000
0001
0000
0100
0000
,
0001
0000
0000
0000
0010
0000
0000
1000
0000
0000
0010
0000
0010
0000
0001
0000
,
0100
0001
1000
0010
1000
1000
0100
0000
,
0000
0000
0011
0000
0000
0000
0001
0100
0000
0000
1010
0000
0000
0000
1000
0001
,
0000
0000
1010
0000
0000
0000
1000
0100
0000
0000
0011
0000
0000
0000
1100
0000
,
0000
0000
1001
0000
0000
0000
0110
0000
0000
0000
0001
0100
0000
0000
1000
0100
,
0000
0000
0101
0000
0000
0000
1100
0000
0000
0001
0010
0001
0010
0000
0001
0000
,
1001
0000
0000
0000
1001
0000
0000
0000
1001
0000
0000
0001
0100
0000
0010
0000
,
1010
0000
0000
0000
1010
0000
0000
0000
1010
0000
0000
1000
0100
0000
0010
0000
,
0011
0000
0000
0000
0011
0000
0000
0000
0011
0000
0000
0001
1000
0000
0010
0000
,
0100
0010
0100
0010
1000
0100
0010
0001
,
1000
0000
0000
0010
0000
0000
1000
0000
0001
0000
1000
0000
0100
0000
0010
0000
0001
0000
0000
0010
0000
0000
0001
0000
0100
0000
2000
0000
0000
0000
3100
0000
,
0001
0000
1000
0000
0010
0000
1000
0000
0001
0000
0000
1000
0000
0000
0100
0000
0010
0000
0200
0000
0000
0000
1300
0000
0100
0000
0000
0010
0000
0000
0001
0000
,
1000
0000
0000
0010
0000
0000
1000
0000
0001
0000
0000
0010
0000
0000
0001
0000
1000
0000
0100
0000
0010
0000
0100
0000
0001
0000
0200
0000
0000
0000
1300
0000
,
0001
0000
0100
0000
0001
0000
0100
0000
0010
0000
1000
0000
0001
0000
0010
0000
1000
0000
0010
0000
0001
0000
0100
0000
1000
0000
0100
0000
0001
0000
0000
1000
,
0000
1000
0100
0010
0001
1000
0100
0000
0011
0000
0000
0000
1001
0000
0000
0001
,
0100
0000
0010
0000
1000
0000
0001
0000
0010
0000
2000
0000
0000
3010
0000
0002
,
0000
0000
0013
0000
0001
0000
1000
0000
1010
0000
0000
0000
0110
0000
0000
0102
,
0000
0000
1003
0000
0010
0000
1000
0000
0100
0000
0001
0000
0001
0000
0100
1000
,
0000
1000
0000
0010
1000
0000
0001
0000
0100
0000
2000
0000
0000
3100
0000
0002
,
0000
0013
0100
0010
0001
0100
2000
0000
,
3100
0000
0001
0000
0100
0000
0001
0000
0010
0000
0200
0000
0000
0302
0000
0000
,
0103
1000
0010
0002
0000
0013
1000
0100
,
0010
0000
0001
0000
1000
0000
0000
0000
1010
0000
0000
0000
0011
0000
0000
1000
,
0100
0000
0010
0000
0001
0000
1000
0000
0010
0000
0002
0000
0000
0013
0000
2000
,
0000
0000
3010
0000
1000
0000
0001
0000
0011
0000
0000
0000
0110
0000
0000
2100
,
0000
0000
3001
0000
0010
0000
0001
0000
0100
0000
1000
0000
0100
0000
0001
0010
,
0000
0001
0010
0000
0100
0000
1000
0000
0001
0000
0100
0000
0000
0100
0000
0020
,
0000
1030
0010
1000
0000
0100
0200
0000
,
0310
0000
0001
0000
0010
0000
0001
0000
0000
0000
2000
0000
0000
3020
0000
0000
,
0130
0001
0010
2000
0000
3010
0001
0100
,
0010
1000
0200
0000
0300
0000
0000
0000
;

//---------------dance-single - ----------------
#NOTES:
     dance-single:
     06-08:
     Medium:
     6:
     0.355073,0.530426,0.211700,0.086248,0.062726,317.000000,290.000000,27.000000,11.000000,0.000000,0.000000,0.355073,0.530426,0.211700,0.086248,0.062726,317.000000,290.000000,27.000000,11.000000,0.000000,0.000000:
0000
0000
0000
0000
,
0000
0000
0000
0000
,
0000
0000
0000
0000
,
0000
0000
0000
0000
,
0000
0000
0000
0100
,
0011
0000
1010
0000
0011
0000
0001
0100
,
0010
0000
1000
0100
0010
0001
1000
0000
,
1010
0000
0011
0000
1010
0000
1000
0001
,
0010
0000
0000
0000
0100
0000
0000
0010
0000
0000
0010
0000
0010
0000
0000
0000
,
0001
0010
0001
0000
1000
0010
1000
0000
,
0001
0000
0001
0000
0100
0010
1000
0000
,
0001
0000
0001
0000
1000
0100
0001
0000
,
0100
0000
0100
0000
0001
0100
1000
0000
,
0010
0100
0001
0000
0010
0100
1000
0000
,
0010
0000
0010
0000
1000
0010
0100
0000
,
0001
0010
1000
0000
1000
0010
0001
0000
,
1000
0000
1000
0000
0010
0100
0001
1000
,
0200
0001
0010
1300
,
2000
0100
0001
3010
,
0020
0001
0100
1030
,
0010
0100
0001
1000
0100
0000
0110
0000
,
0002
0100
1000
0010
,
2003
0100
0001
0010
,
3001
0000
1000
0001
1000
0000
1001
0000
,
0001
0010
0100
1000
0010
0100
0001
0000
,
2001
0000
0000
0000
,
0000
0000
0000
0000
,
0002
0000
0000
0000
,
0000
0000
0000
3003
,
1000
0000
0010
0000
0001
0000
1000
0100
,
0001
0000
0010
0000
1000
0000
0001
0100
,
1000
0000
0010
0000
0001
0000
1000
0100
,
0001
0000
0001
0010
0100
1000
0001
0000
,
1000
1000
0010
0010
,
0001
0001
0100
0100
,
1000
1000
0010
0010
,
0001
0001
0100
1000
,
0010
0000
0010
0000
1000
0010
1000
0001
,
0010
0000
0010
0000
0001
0010
0001
1000
,
0010
0000
0010
0000
1000
0010
0100
0001
,
1000
0000
0001
0010
0100
1000
0001
0000
,
1000
0000
1000
0000
0010
1000
0010
0100
0001
0000
0001
0000
0010
0002
0000
0003
,
1000
0001
0100
0000
0001
1000
0100
0000
0010
0000
0010
0000
0100
0010
0100
0000
,
1000
0000
1000
0000
0001
0100
0010
0100
0001
0000
0001
0000
1000
0200
0000
0300
,
0010
0000
0010
0000
0100
0010
0100
0000
1000
0000
0001
0000
0100
0010
0100
0000
,
0200
0000
0000
0300
1001
0000
1001
0000
,
0001
1000
0001
0000
0011
0000
1010
0000
,
1000
0100
1000
0000
1010
0000
0101
0000
,
0001
1000
0100
0000
0010
0010
0010
0000
,
0100
1000
0010
0000
1010
0000
1001
0000
,
0001
1000
0100
0000
0011
0000
1001
0000
,
1000
0001
0100
0000
0110
0000
0110
0000
,
0010
1000
0001
0010
0100
0000
0010
0001
,
1000
0010
0100
0000
0101
0000
1100
0000
,
1000
0010
1000
0000
1100
0000
0101
0000
,
0001
0010
0001
0000
0110
0000
1001
0000
,
0001
0010
1000
0000
0010
0010
0010
0000
,
0001
0000
0010
0000
0100
0000
1000
0000
0001
0000
0000
0000
0001
0000
0000
0001
,
0000
0000
0000
0000
0000
0000
0100
0000
0100
0000
0000
0000
0000
0000
0000
0010
,
0000
0000
0010
0000
0010
0000
0000
0000
1000
0000
0000
0000
1000
0000
0000
1000
,
0000
0000
0000
0000
0000
0000
0100
0000
0100
0000
0000
0000
0000
0000
0000
0010
,
0000
0010
0200
0000
0300
0000
0000
0000
;

//---------------dance-single - ----------------
#NOTES:
     dance-single:
     04-05:
     Easy:
     4:
     0.260985,0.337544,0.164656,0.156815,0.000000,233.000000,212.000000,21.000000,20.000000,0.000000,0.000000,0.260985,0.337544,0.164656,0.156815,0.000000,233.000000,212.000000,21.000000,20.000000,0.000000,0.000000:
0000
0000
0000
0000
,
0000
0000
0000
0000
,
0000
0000
0000
0000
,
0000
0000
0000
0000
,
0000
0000
0000
1001
,
0001
0010
0100
0100
,
0010
0010
0001
1000
,
0001
0100
0010
0010
,
2002
0003
0001
3001
,
1000
0010
1000
0001
,
1000
0100
0010
0001
,
1000
1000
0010
0001
,
0010
1000
0100
0010
,
0001
0100
0001
1000
,
0001
0010
0100
1000
,
0010
0001
1000
0100
,
0001
0001
0010
0100
,
2000
0010
0010
0010
,
3002
0010
0010
0010
,
2003
0100
0100
0100
,
3001
0100
0010
1000
,
0002
0010
0100
0010
,
2003
0010
0100
3010
,
1001
1000
0001
0001
,
1000
0100
0010
0010
,
0120
0000
0000
0000
,
0000
0000
0000
0000
,
0200
0000
0000
0000
,
0000
0000
0000
0330
,
1000
1000
0010
0010
,
0001
0001
0100
0100
,
1000
1000
0010
0010
,
0001
0100
2000
3000
,
0001
0010
1000
0010
,
0001
0010
1000
0010
,
0001
0100
1000
0100
,
0001
0100
1000
0100
,
0001
0001
0010
0100
,
1000
1000
0010
0100
,
0001
0001
0010
0100
,
1000
0010
0100
0001
,
0020
0000
0130
0000
0020
0001
0031
0000
,
2000
0000
3010
0000
2000
0100
3001
1000
,
0020
0000
0130
0000
0020
1000
1030
0000
,
0002
0000
0013
0000
0002
0100
1003
0001
,
0200
0000
0000
0300
0010
0000
0010
0000
,
1001
0100
0011
0011
,
0100
1000
1010
1010
,
0100
0001
1000
1000
,
0100
0010
0011
1100
,
0001
0001
1010
0101
,
1000
1000
1100
0101
,
0001
0010
1000
0010
,
0001
0100
1010
1010
,
0100
0001
0011
0011
,
0100
1000
1001
0110
,
0001
1000
0100
0100
,
0010
0001
1000
0010
,
0001
0000
0010
0000
,
1000
1000
0001
0010
,
1000
0000
0010
0000
,
0001
0200
0300
0000
;

//---------------dance-single - ----------------
#NOTES:
     dance-single:
     01-02:
     Beginner:
     1:
     0.134413,0.168772,0.007841,0.070567,0.000000,120.000000,119.000000,1.000000,9.000000,0.000000,0.000000,0.134413,0.168772,0.007841,0.070567,0.000000,120.000000,119.000000,1.000000,9.000000,0.000000,0.000000:
0000
0000
0000
0000
,
0000
0000
0000
0000
,
0000
0000
0000
0000
,
0000
0000
0000
0000
,
0000
0000
0000
0000
,
0001
0001
0001
0000
,
0010
0000
0100
0000
,
1000
1000
1000
0000
,
0010
0000
0100
0000
,
0001
0000
0001
0000
,
1000
0000
1000
0000
,
0100
0000
0100
0000
,
0010
0000
0010
0000
,
0001
0000
0100
0000
,
0010
0000
1000
0000
,
0001
0000
0010
0000
,
0100
0000
1000
0000
,
0002
0000
0003
0000
,
0200
0000
0300
0000
,
0020
0000
0030
0000
,
0010
0010
0010
0000
,
2000
0000
3000
0000
,
0200
0000
0300
0000
,
0010
0000
0010
0000
,
0100
0100
0100
0000
,
2002
0000
0000
0000
,
0000
0000
0000
0000
,
3003
0000
0000
0000
,
0000
0000
0000
0000
,
1000
0000
1000
0000
,
0001
0000
0001
0000
,
1000
0000
0001
0000
,
1000
1000
1000
0000
,
0001
0000
0010
0000
,
0001
0000
0010
0000
,
0100
0000
1000
0000
,
0100
0000
1000
0000
,
0001
0001
0001
0000
,
1000
1000
1000
0000
,
0001
0001
0001
0000
,
1000
1000
1000
0000
,
0001
0000
0100
0000
,
1000
0000
0100
0000
,
0001
0000
0010
0000
,
1000
0000
0010
0000
,
0002
0000
0000
0003
1000
0000
1000
0000
,
1000
0000
0010
0010
,
0010
0000
1000
1000
,
1000
0000
0100
0000
,
1000
0000
0001
0001
,
0001
0000
0010
0010
,
0010
0000
0001
0001
,
0001
0000
0100
0000
,
0100
0000
0010
0010
,
0010
0000
1000
1000
,
1000
0000
0001
0001
,
0001
0000
0010
0010
,
0010
0000
0100
0000
,
0000
0000
0100
0000
,
0010
0000
0100
0000
,
0000
0000
0100
0000
,
0100
0200
0300
0000
;
