#TITLE:Don't Look Back;
#SUBTITLE:;
#ARTIST:Scooch;
#TITLETRANSLIT:;
#SUBTITLETRANSLIT:;
#ARTISTTRANSLIT:;
#CREDIT:;
#BANNER:;
#BACKGROUND:;
#LYRICSPATH:;
#CDTITLE:;
#MUSIC:[Round D] - Don't Look Back.ogg;
#OFFSET:-0.990;
#SAMPLESTART:48.525;
#SAMPLELENGTH:12.000;
#SELECTABLE:YES;
#BPMS:0.000=121.172;
#STOPS:;
#BGCHANGES:;

//---------------dance-single - ----------------
#NOTES:
     dance-single:
     :
     Hard:
     7:
     0.511,0.518,0.672,0.092,0.088:
0000
0000
0000
0000
,
0000
0000
0000
0000
,
0000
0000
0000
0000
,
0000
0000
0000
0000
,
1000
0100
1000
0000
0100
0000
0020
0000
0000
0030
0010
0000
0001
0000
0100
0000
,
0010
1000
0020
0000
0000
0000
0130
0000
0010
0000
1000
0000
1001
0000
0000
0000
,
0001
0100
0001
0000
0100
0000
0020
0000
0000
0030
0010
0000
1000
0000
0100
0000
,
0010
0001
0020
0000
0000
0000
0130
0000
0010
0000
0001
0000
1001
0000
0000
0000
,
0001
0100
0001
0000
0100
0000
0020
0000
0000
0030
0010
0000
1000
0000
0100
0000
,
0010
0001
0020
0000
0000
0000
0130
0000
1000
0000
0001
0000
1001
0000
0000
0000
,
0001
0100
0001
0000
0100
0000
0020
0000
0000
0000
1030
0000
0001
0000
0000
0000
,
0020
0000
0030
1001
,
1100
0000
1000
0100
0010
0100
1000
0000
,
0101
0000
0001
0000
0100
0100
0010
0000
,
1010
0010
1000
0100
0010
0001
0100
0000
,
1010
0000
0000
0000
1000
0000
1000
0000
0010
0000
0100
0001
0000
0000
0000
0000
,
0011
0000
0001
0100
0010
0100
0001
0000
,
1100
0000
0000
1000
0100
1000
0010
0000
,
0110
0010
0100
0001
0010
0100
1000
0001
,
0101
0000
0001
0100
0010
1000
0001
1000
,
1100
0100
0010
0010
0001
0100
0000
1000
,
0100
0001
1000
0000
0100
0000
0010
0000
0001
0000
1000
0000
1001
0000
0000
0000
,
0001
0000
0100
0000
0001
0000
0010
0100
0000
0000
1000
0000
1000
0000
0100
0000
,
0001
0100
1000
0100
0020
0000
0032
0000
,
0103
0101
1010
0000
,
1001
1000
0100
0010
1000
0010
0001
0000
,
1001
0000
0000
0000
1010
0000
0001
0000
0101
0000
0000
0000
1001
0000
0000
1000
,
0100
0010
0001
0100
0010
0001
0010
0000
,
1010
0000
0101
0000
1001
0000
1000
0100
,
0000
0100
0010
0100
1000
0001
0101
0000
,
1010
0100
0011
0100
,
1001
0000
0110
0010
1001
0000
0110
0000
,
1001
0000
1100
0000
0011
0001
0101
0000
,
0110
0000
0010
1000
0100
0001
0100
0000
,
1100
0000
1100
0000
1001
0001
0101
0000
,
0001
0001
0100
0010
1010
0000
1100
0000
,
0101
0000
0101
0000
1100
1000
1010
0000
,
0110
0000
0010
1000
0100
0010
0001
0000
,
0011
0000
0011
0000
1010
0001
1001
0000
,
0110
0010
1000
0100
0001
0000
0100
0000
,
1000
0100
1000
0000
1100
0000
0000
0000
0001
0100
0001
0000
0101
0000
0000
0000
,
1000
0010
1000
0000
1010
0000
0000
0000
0001
0010
0001
0000
0011
0000
0000
0000
,
0001
1000
0001
0000
1001
0000
0000
0000
1000
0001
1000
0000
1001
0000
0000
0000
,
1000
0100
0001
0100
1000
0010
0001
0000
,
0010
0010
1000
0100
0010
0010
0000
0100
,
1000
0010
0100
0000
0001
0000
0010
0000
0100
0000
1000
0000
0000
0000
0000
0000
,
0001
0000
0100
0000
0010
0000
1000
0001
0000
0000
1000
0000
0010
0000
0100
0000
,
0001
0001
0010
0100
1000
0000
1100
0000
,
0000
0000
0000
0110
,
1001
0011
1100
0000
,
1000
0010
1000
0010
0100
0100
0001
0000
,
1001
0000
0000
0000
1010
0000
0001
0000
0101
0000
0000
0000
1001
0000
0000
0001
,
0010
0000
0100
1000
0000
0000
0010
0000
1000
0000
0100
0000
0010
0000
0000
0000
,
0101
0000
1010
0000
1001
0000
1000
2000
,
0000
3100
0001
0100
0010
0001
0100
0010
,
1010
0100
0011
0100
,
1001
0000
1010
0100
0011
0000
1001
0000
,
1100
0000
1100
0000
0011
0001
0101
0000
,
0100
0000
0010
0010
1000
0001
0001
0000
;

//---------------dance-single - ----------------
#NOTES:
     dance-single:
     :
     Medium:
     5:
     0.411,0.395,0.386,0.101,0.000:
0000
0000
0000
0000
,
0000
0000
0000
0000
,
0000
0000
0000
0000
,
0000
0000
0000
0000
,
1100
1000
0100
0010
0000
0001
0010
0100
,
1000
0001
0000
0001
1000
0000
1001
0000
,
0001
0001
0100
0010
0000
1000
0010
0100
,
0001
1000
0000
1000
0001
0000
1001
0000
,
1000
1000
0010
0100
0000
0100
0001
2000
,
0000
3100
0000
0001
0100
0000
1001
0000
,
0001
0001
0100
0020
0000
1030
0001
0000
,
0020
0000
0001
0000
0100
0030
1000
0000
,
0010
0000
0001
0100
0001
0100
0000
0000
,
0110
0000
1000
0000
0001
1000
0200
0000
,
0300
0010
0001
0010
0001
0100
0010
0000
,
1010
0000
1000
0000
1000
0100
0001
0000
,
0101
0000
0100
0010
0100
0010
0100
0000
,
1001
0000
0000
1000
0010
1000
0001
0000
,
0010
0000
0001
0100
0001
0100
0001
0000
,
1001
0000
1000
0100
1000
0100
1000
0000
,
1000
0100
0001
0100
1000
0100
0000
0010
,
0001
0002
0000
0103
0010
1000
0000
0000
,
1000
0010
1000
0000
1010
0000
0001
0000
,
0010
0010
0100
0100
2000
0000
0001
0000
,
3001
0110
1001
0000
,
0000
0001
0000
0100
0010
0100
0001
0000
,
0101
0000
1001
1000
0100
0000
0010
0000
,
0001
0000
0100
0000
0010
0010
0010
0000
,
1010
0000
0101
0000
1001
0000
0001
0100
,
0000
0100
0010
0000
1000
0001
1000
0000
,
1100
0001
0101
1000
,
1001
0000
1000
0001
1001
0000
0011
0000
,
1100
0000
1100
0000
1000
0001
1000
0000
,
0000
0000
0010
0010
0100
0001
1000
0000
,
0100
0000
1100
0000
0100
0010
0001
0000
,
0001
0100
0001
0100
1000
0000
0100
0000
,
0101
0000
0101
0000
0001
1000
0001
0000
,
0000
0000
0010
0100
1000
0100
0001
0000
,
0100
0000
0110
0000
0001
1000
0001
0000
,
0001
0001
0100
0010
1000
0000
1001
0000
,
0002
0013
2000
3100
,
0002
0013
0200
1300
,
2000
3010
0002
0103
,
0010
0010
0010
0010
,
0001
0010
1000
0010
0001
0010
0000
0100
,
0001
1000
0000
1000
0100
1000
0001
0000
,
0001
0100
0001
0100
0010
0000
0010
0000
,
1000
1000
0100
0100
0010
0000
0001
0000
,
1001
0000
0000
1001
,
1010
0000
0101
0000
1001
0000
0000
1000
,
0000
0010
1000
0001
1000
0010
0100
0000
,
1001
0000
1100
1000
0001
0000
0101
0000
,
0001
0001
0100
0010
1000
1000
0001
0000
,
0011
0000
1100
0000
1001
0000
1000
0001
,
0000
0001
0010
0001
0100
0010
1000
0000
,
1100
0000
0101
0000
,
1001
0000
0110
0100
0001
0000
1000
0000
,
1001
0000
1001
0000
1000
0100
1000
0000
,
0001
0000
0100
0010
1000
0001
1000
0000
;

//---------------dance-single - ----------------
#NOTES:
     dance-single:
     :
     Easy:
     3:
     0.236,0.271,0.092,0.084,0.000: // measure 1
0000
0000
0000
0000
,  // measure 2
0000
0000
0000
0000
,  // measure 3
0000
0000
0000
0000
,  // measure 4
0000
0000
0000
0000
,  // measure 5
1000
0100
0000
0010
,  // measure 6
0001
0100
0001
0000
,  // measure 7
0001
0100
0000
0010
,  // measure 8
1000
0100
1000
0000
,  // measure 9
1000
0010
0000
0100
,  // measure 10
0001
0010
0001
0000
,  // measure 11
1000
0001
0100
0010
,  // measure 12
2000
0000
3000
1001
,  // measure 13
0001
0100
1000
0000
,  // measure 14
0110
0000
0100
0001
,  // measure 15
1001
1000
0100
0000
,  // measure 16
0110
0010
0001
1000
,  // measure 17
0010
1000
0001
0000
,  // measure 18
1001
0000
0001
0010
,  // measure 19
0100
1000
0100
0010
,  // measure 20
0001
1000
0001
0100
,  // measure 21
0001
0000
0010
0000
0200
0300
0000
0000
,  // measure 22
1000
0000
0100
0000
0020
0030
0000
0000
,  // measure 23
0001
1000
0100
1000
,  // measure 24
0001
0100
0001
1000
,  // measure 25
0001
0001
0001
0000
,  // measure 26
0000
0010
0000
0000
0100
0000
1000
0000
,  // measure 27
0010
0010
0100
0000
,  // measure 28
0001
0010
0001
0001
,  // measure 29
1000
0000
1000
0000
0100
0000
0000
0010
,  // measure 30
0000
0001
0100
0001
,  // measure 31
1001
0000
0110
0000
,  // measure 32
1001
0001
1001
1000
,  // measure 33
0100
0100
0010
0000
,  // measure 34
0000
0001
0100
1000
,  // measure 35
0100
0100
0001
0000
,  // measure 36
1000
0001
0010
0010
,  // measure 37
0100
0100
1000
0000
,  // measure 38
0001
0100
0010
0100
,  // measure 39
0001
0001
1000
0000
,  // measure 40
0100
0010
0001
1000
,  // measure 41
0002
0003
0200
0300
,  // measure 42
2000
3000
0200
0300
,  // measure 43
0002
0003
0020
0030
,  // measure 44
1000
0001
1000
0010
,  // measure 45
0001
0100
1000
0000
,  // measure 46
1000
0100
0010
0000
,  // measure 47
1000
0001
1000
0100
,  // measure 48
0001
0100
1000
0001
,  // measure 49
2000
0000
0000
3000
,  // measure 50
1000
0000
1000
0000
1000
0000
0000
0010
,  // measure 51
0000
0100
0001
1000
,  // measure 52
0001
0001
0001
0000
,  // measure 53
0010
0100
1000
1100
,  // measure 54
1000
0000
1000
0000
1000
0000
0000
0010
,  // measure 55
0000
0100
0001
1000
,  // measure 56
0001
0000
0010
0000
,  // measure 57
0100
0100
1000
1000
,  // measure 58
0001
0001
0100
0000
,  // measure 59
0000
0001
1000
1001
;

//---------------dance-single - ----------------
#NOTES:
     dance-single:
     :
     Beginner:
     2:
     0.142,0.271,0.050,0.000,0.000: // measure 1
0000
0000
0000
0000
,  // measure 2
0000
0000
0000
0000
,  // measure 3
0000
0000
0000
0000
,  // measure 4
0000
0000
0000
0000
,  // measure 5
1000
0000
0000
0000
,  // measure 6
0000
0000
0000
0000
,  // measure 7
0001
0000
0000
0000
,  // measure 8
0000
0000
0000
0000
,  // measure 9
0100
0000
0000
0000
,  // measure 10
0000
0000
0000
0000
,  // measure 11
0010
0000
0000
0000
,  // measure 12
1000
0000
0000
0000
,  // measure 13
0001
0000
0000
0000
,  // measure 14
0100
0000
0000
0000
,  // measure 15
0010
0000
0000
0000
,  // measure 16
1000
0000
0000
0000
,  // measure 17
0100
0000
0000
0000
,  // measure 18
0010
0000
0000
0000
,  // measure 19
0001
0000
0001
0000
,  // measure 20
0100
0000
0000
0000
,  // measure 21
0010
0000
0010
0000
,  // measure 22
1000
0000
1000
0000
,  // measure 23
0001
0000
0001
0000
,  // measure 24
1000
0000
1001
0000
,  // measure 25
0001
0001
0001
0000
,  // measure 26
0100
0000
0010
0000
,  // measure 27
1000
1000
1000
0000
,  // measure 28
0100
0000
0010
0000
,  // measure 29
0001
0001
0001
0000
,  // measure 30
0100
0000
0010
0000
,  // measure 31
1001
0000
1001
0000
,  // measure 32
1001
1000
1000
1000
,  // measure 33
1001
0000
1001
0000
,  // measure 34
0000
0000
0001
0001
,  // measure 35
1000
1000
1000
0000
,  // measure 36
0100
0000
0010
0000
,  // measure 37
0001
0001
0001
0000
,  // measure 38
1000
0000
1000
1000
,  // measure 39
1000
0001
0001
0000
,  // measure 40
0100
0000
0010
0000
,  // measure 41
0000
1000
0000
1000
,  // measure 42
0000
1000
0000
1000
,  // measure 43
0000
0001
0000
0001
,  // measure 44
0001
0001
0001
0001
,  // measure 45
0001
0000
0001
0000
,  // measure 46
0100
0000
0100
0000
,  // measure 47
1000
0000
1000
0000
,  // measure 48
0100
0000
0100
0100
,  // measure 49
0000
0000
0000
0000
,  // measure 50
0010
0010
0010
0000
,  // measure 51
1000
0000
0001
0001
,  // measure 52
0100
0100
0100
0000
,  // measure 53
0010
0010
0010
0010
,  // measure 54
1000
1000
1000
0000
,  // measure 55
0001
0000
0100
0100
,  // measure 56
0001
0000
0001
0000
,  // measure 57
1000
0000
1000
1000
,  // measure 58
1000
1000
0001
0000
,  // measure 59
0000
0001
0001
0001
;
