#TITLE:As We Fall;
#SUBTITLE:;
#ARTIST:League of Legends;
#TITLETRANSLIT:;
#SUBTITLETRANSLIT:;
#ARTISTTRANSLIT:;
#GENRE:;
#CREDIT:;
#BANNER:;
#BACKGROUND:;
#LYRICSPATH:;
#CDTITLE:;
#MUSIC:As We Fall.ogg;
#OFFSET:0.036000;
#SAMPLESTART:58.786114;
#SAMPLELENGTH:12.000000;
#SELECTABLE:YES;
#BPMS:0.000000=102.051003
;
#STOPS:
;
#BGCHANGES:;
#KEYSOUNDS:;
#ATTACKS:;

//---------------dance-single - ----------------
#NOTES:
     dance-single:
     :
     Hard:
     8:
     0.458104,0.539511,0.333340,0.480010,0.230005,481.000000,431.000000,50.000000,72.000000,0.000000,0.000000,0.458104,0.539511,0.333340,0.480010,0.230005,481.000000,431.000000,50.000000,72.000000,0.000000,0.000000:
// measure 0
0000
0000
0000
0000
,  // measure 1
0000
0000
0000
0000
,  // measure 2
0000
0000
0001
1000
0010
0100
1000
0200
,  // measure 3
0000
0000
0301
1000
0100
0001
0100
0020
,  // measure 4
0000
0000
0000
0002
0000
0000
0000
0000
,  // measure 5
0000
0000
0000
0033
,  // measure 6
0000
1000
0010
1000
0100
0010
0100
0002
,  // measure 7
0000
0000
0103
0010
0001
0100
0010
2000
,  // measure 8
0000
0000
0000
0002
3000
0000
0200
0000
,  // measure 9
0303
0000
0000
0000
0000
0000
0010
0000
1000
0000
0000
1000
0000
0000
1000
0000
,  // measure 10
0001
0000
0001
0000
0000
0010
0100
0000
0010
0000
0000
0000
0011
0000
0000
0000
,  // measure 11
1000
0000
1000
0000
0000
0001
0100
0000
0010
0000
0000
0000
1010
0000
0000
0000
,  // measure 12
0100
0000
0100
0000
0000
0010
0001
0000
0010
0000
0000
0000
0110
0000
0000
0000
,  // measure 13
0001
0000
0001
0000
0000
0010
0100
0000
1000
0000
0000
0000
1001
0000
0000
0000
,  // measure 14
0102
0000
0100
0000
0000
1000
1003
0000
0010
0000
0000
0000
0110
0000
0000
0000
,  // measure 15
2010
0000
0010
0000
0000
0001
3001
0000
0010
0000
0000
0000
0110
0000
0000
0000
,  // measure 16
0100
0000
1000
0010
0000
0100
0010
0000
1000
0001
0000
0010
0100
0000
1000
0000
,  // measure 17
0010
1000
0100
0010
0001
1000
0001
0100
0010
0000
0000
1100
0000
0000
0011
0000
,  // measure 18
1000
0000
1100
0000
0001
0010
0100
0000
0010
0000
0001
0000
0011
0000
0000
0000
,  // measure 19
1001
0000
1000
0000
0010
1000
0001
0000
0010
0000
0100
0000
0110
0000
0000
0000
,  // measure 20
1000
0000
1010
0000
0010
0100
0001
0000
0010
0100
0010
0000
1000
0010
0100
0000
,  // measure 21
0010
0000
0001
0000
1000
0001
1000
0100
0010
0001
1000
0001
0200
0000
0000
0000
,  // measure 22
0301
0000
0101
0000
1000
0010
0100
0000
0010
0000
1000
0000
1010
0000
0000
0000
,  // measure 23
1001
0000
0001
0000
0010
0001
1000
0000
0010
0000
0100
0000
0110
0000
0000
0000
,  // measure 24
0001
0000
0011
0000
0010
0100
1000
0000
0010
0100
0010
0000
0001
0010
0100
0000
,  // measure 25
0010
0000
1000
0000
0001
1000
0001
0100
0010
1000
0001
1000
0200
0000
0000
0000
,  // measure 26
0310
0100
0001
0100
1000
0010
1010
1010
,  // measure 27
1000
0001
0010
0100
0110
0110
0011
0011
,  // measure 28
1000
0001
0100
1000
1100
1100
0110
0110
,  // measure 29
0001
0001
1000
0001
0011
0011
0110
0110
,  // measure 30
0001
0000
1000
0100
0000
1000
0010
0000
0100
0001
0100
0000
0101
0000
1000
0000
,  // measure 31
0001
0000
0100
0001
0000
0010
0001
0000
1000
0010
0100
0000
0110
0000
0010
1000
,  // measure 32
0100
0000
0010
0100
0000
0001
0100
0000
0010
0100
1000
0000
1100
0000
1000
0000
,  // measure 33
0001
0000
1000
0010
0000
0100
0010
0000
0001
0010
0100
0000
0101
0000
0000
0000
,  // measure 34
2000
0000
0010
0010
0000
0100
0100
0000
0001
3001
0000
0000
0012
0000
0000
0000
,  // measure 35
0203
0000
0010
0010
0000
1000
1000
0000
0010
0310
0000
0000
2010
0000
0000
0000
,  // measure 36
3002
0000
0010
0010
0000
0100
0100
0000
0010
0013
0000
0000
0210
0000
0000
0000
,  // measure 37
2300
0000
0010
0010
0000
0001
0001
0000
0100
3100
0000
0000
0220
0000
0330
0000
,  // measure 38
0001
0000
0100
0001
0100
0010
1000
0002
,  // measure 39
0000
0000
1003
0100
0010
0001
1000
0200
,  // measure 40
0000
0000
0310
0001
0100
0010
1000
0200
,  // measure 41
0000
0000
1300
0010
0100
0001
0010
0200
,  // measure 42
0000
2300
3020
0032
0013
0100
0001
2000
,  // measure 43
0000
0000
3100
0010
0001
0100
1000
0200
,  // measure 44
0000
0310
1010
0101
,  // measure 45
1100
0000
0000
0000
0011
0000
0000
0000
0110
0000
0000
1100
0000
0000
0101
0000
,  // measure 46
1000
0000
0002
0010
0203
0010
2300
0001
,  // measure 47
3200
0010
0302
0010
2003
0100
3002
0000
,  // measure 48
1003
1000
0020
0100
2030
0100
3020
0001
,  // measure 49
0230
0001
0302
0023
0032
2003
3200
0000
,  // measure 50
1300
0000
0010
0000
0000
0100
0010
0000
0200
0000
0010
0000
0302
0000
0010
0000
,  // measure 51
0203
1000
0320
0100
0230
0010
0302
0000
,  // measure 52
1003
0010
2000
0100
3200
0010
0320
0001
,  // measure 53
0032
0010
2003
3002
0203
2300
3200
0000
,  // measure 54
0310
0000
0010
0000
0000
1000
0001
0000
0020
0000
0000
0000
0230
0000
0000
0000
,  // measure 55
1300
0000
1000
0000
0000
0100
0010
0000
0001
0000
0100
0000
1000
0000
0100
0000
,  // measure 56
0001
0000
0001
0000
0000
0010
0100
0000
0020
0000
0000
0000
0032
0000
0000
0000
,  // measure 57
0103
0000
0100
0000
0010
1000
0100
0000
0010
0000
1000
0000
0020
0000
0000
0000
,  // measure 58
0031
0000
0001
0000
0000
0100
1000
0000
0200
0000
0000
0000
0320
0000
0000
0000
,  // measure 59
1030
0000
1000
0000
0000
0010
0001
0000
0010
0000
1000
0000
0100
0000
0010
0000
,  // measure 60
0100
0000
0100
0000
0000
0001
0100
0000
2000
0000
0000
0000
3020
0000
0000
0000
,  // measure 61
0130
0000
0100
0000
0010
0100
0001
0000
0010
0000
0100
0000
2000
0000
3000
0000
,  // measure 62
0220
0330
0000
0000
;
