#TITLE:シークレット カクレンジャー;
#SUBTITLE:;
#ARTIST:トゥー・チー・チェン;
#TITLETRANSLIT:Secret Kakuranger;
#SUBTITLETRANSLIT:;
#ARTISTTRANSLIT:Tu Chee Chen;
#CREDIT:;
#BANNER:;
#BACKGROUND:;
#LYRICSPATH:;
#CDTITLE:;
#MUSIC:kakuranger.ogg;
#OFFSET:-0.865;
#SAMPLESTART:53.438;
#SAMPLELENGTH:12.000;
#SELECTABLE:YES;
#DISPLAYBPM:114.130;
#BPMS:0.000=114.126;
#STOPS:;
#BGCHANGES:;

//---------------dance-single - ----------------
#NOTES:
     dance-single:
     :
     Hard:
     8:
     0.498,0.509,0.252,0.159,0.352:
0000
0000
0000
0000
,
0000
0000
0000
0000
,
1000
0000
0100
0000
1000
0000
0001
0010
0000
0010
0001
0000
1000
0000
0010
0000
,
0100
0000
1000
0000
0100
0000
0001
0010
0000
0010
0001
0000
1000
0000
0100
0000
,
0010
0000
0001
0000
0010
0000
0100
1000
0000
1000
0100
0000
0010
0000
0001
0000
,
1000
0000
0010
0000
1000
0000
0001
2000
0000
0000
0000
0000
0000
0000
0000
0000
,
0000
0000
0000
3000
0000
0001
0100
0010
,
1000
0000
1000
0000
0100
0000
0010
0000
0001
0000
0001
0000
1000
0000
0100
0020
,
0000
0000
0030
0000
0000
0001
0100
0010
,
1000
1000
0010
0100
0001
0010
0100
1000
,
1100
0000
0000
0001
0000
0000
0000
0000
0000
0000
0001
0000
1000
0000
0001
0000
,
0010
0010
0100
1000
0010
0000
0100
0002
,
0000
0000
0003
0000
0000
0000
0100
0001
2000
0000
0000
0000
3000
0000
1000
0000
,
0001
0010
0100
1000
0001
0001
1000
0100
,
1000
0000
0000
0020
0000
0000
0000
0000
0030
0100
0010
0000
0100
0010
0000
0000
,
1010
0000
1000
0100
0010
0000
0000
0000
0010
0001
0000
0001
0100
0000
0010
0000
,
1000
0000
1000
0000
0001
0000
0010
0000
0001
0000
0000
0202
0000
0000
0303
0000
,
0001
0100
0010
1000
0001
0000
0000
0000
0010
0100
0000
0100
1000
0000
0010
0000
,
0100
0000
1000
0000
1000
0000
0100
0020
0000
1000
0000
0030
1000
0000
0000
1001
,
0000
0000
1000
0001
0010
0000
0000
0000
0000
0000
0010
0100
0010
0000
0001
0000
,
0100
0000
1000
0000
0100
0000
0010
0000
1000
0100
0010
0002
0000
0000
0003
0000
,
1000
0010
0001
0010
1000
0100
1000
0000
,
0010
0100
0001
0010
1000
0010
0001
1000
,
1001
1100
1001
0011
,
0010
0001
1000
0001
0010
0100
1000
0100
0010
0000
0001
0000
1000
0001
1000
0000
,
1001
0000
0000
0000
1010
0000
0000
0000
0101
0000
0000
0001
0000
0000
0001
0000
,
0010
0000
0100
0000
1000
0000
0100
0010
0000
0001
0000
0100
0000
0001
0000
1000
,
0001
0000
0000
0000
0101
0000
0000
0000
1010
0000
0000
1000
0000
0000
1000
0000
,
0100
0110
0000
0001
0100
0020
0000
0030
,
0000
0000
0000
0000
1100
0000
1000
0000
0001
0000
0000
0100
0000
0000
0100
0000
,
0010
0000
1000
0000
0100
0000
0010
0001
0000
1000
0000
0010
0000
0100
0000
0001
,
1000
0000
0000
0100
0000
0000
0000
0000
0001
0000
0100
0000
1000
0000
0001
0000
,
1001
0000
0001
0100
0001
0001
1000
0100
,
0010
0000
0001
0000
0010
0000
0100
1000
0000
1000
0100
0000
0010
0000
0001
0000
,
0000
1000
0001
1000
0001
0000
0000
1001
0000
1001
0000
0000
2002
0000
3003
0000
;

//---------------dance-single - ----------------
#NOTES:
     dance-single:
     :
     Medium:
     6:
     0.407,0.392,0.265,0.106,0.106:
0000
0000
0000
0000
,
0000
0000
0000
0000
,
1000
0100
1000
0001
0100
0100
0001
1000
,
0001
0010
0001
1000
0010
0010
1000
0001
,
1000
0100
1000
0001
0010
0010
0001
1000
,
0010
0000
1000
0000
0001
0000
0000
2002
0000
0000
0000
0000
0000
0000
0000
0000
,
0000
0000
0000
3003
1000
0000
0100
0000
,
0001
0100
1000
0100
0001
0000
0100
0000
,
0010
0000
0001
0100
,
1000
0100
0001
0010
1000
0000
0010
0000
,
0001
0000
0000
0001
0000
0000
0000
0000
1000
0000
0000
0000
0010
0000
0000
0000
,
0100
0001
0010
0001
0100
0000
0010
2000
,
0000
3000
0000
0000
0002
0000
0003
0001
,
1000
1000
0010
0010
0100
0001
1000
0001
,
1000
0000
0000
2000
0000
0000
0000
0000
3000
0000
0000
0000
0000
0000
0000
0000
,
1000
0000
0000
0001
0000
0000
0011
0000
0000
0000
0000
0000
0010
0000
0000
0000
0001
0000
0100
0000
0000
0010
0000
0000
,
1000
0000
0010
0000
0100
0000
0001
0000
0010
0000
0000
1000
0000
0000
0000
0000
,
0010
0001
0101
0000
0100
0010
1000
0010
,
0100
0000
0001
0000
0010
0000
0000
0100
0000
1000
0000
0000
1000
0000
0000
0000
,
1000
0010
0110
0000
0100
0001
0010
0001
,
0100
0010
1000
0001
1000
0100
0010
0000
,
0010
0001
0100
0001
0010
0100
1000
0010
,
0000
0010
1000
0100
0010
0001
0100
0001
,
1001
0110
1001
0110
,
2002
0000
3003
0000
,
0100
0000
0000
0000
0110
0000
0000
0000
1001
0000
0000
0101
0000
0000
0000
0000
,
0001
1000
0100
1000
0001
0100
1000
0100
,
0001
0000
0000
0000
0011
0000
0000
0000
0110
0000
0000
1100
0000
0000
1000
0000
,
0010
1000
0000
0001
0010
0002
0000
0003
,
0000
0000
0000
0000
0101
0000
0001
0000
1000
0000
0000
1000
0000
0000
0100
0000
,
0010
0001
0100
0001
0010
0000
0110
0000
,
0100
0000
0000
0100
0000
0000
1000
0000
0010
0000
0100
0000
0010
0000
0100
0000
,
0101
0000
0000
0000
0000
0000
0000
0000
0001
1000
0000
0000
1001
0000
0000
0000
,
1000
0001
1000
0100
0001
0100
1000
0001
,
0000
1000
0001
1000
0001
0000
0000
1000
0000
1000
0000
0000
1001
0000
0000
0000
;

//---------------dance-single - ----------------
#NOTES:
     dance-single:
     :
     Easy:
     4:
     0.243,0.231,0.159,0.133,0.033: // measure 1
0000
0000
0000
0000
,  // measure 2
0000
0000
0000
0000
,  // measure 3
1000
0100
1000
1000
,  // measure 4
0001
0010
0001
0001
,  // measure 5
0100
0010
1000
1000
,  // measure 6
0100
0000
0000
0000
0010
0000
0000
0002
0000
0000
0000
0000
0000
0000
0000
0000
,  // measure 7
0000
0000
0000
0003
0000
0000
0001
0000
,  // measure 8
0100
0010
1000
0001
,  // measure 9
1000
0000
0000
1000
,  // measure 10
0100
0010
0001
1000
,  // measure 11
2002
0000
0000
3003
0000
0000
0000
0000
0000
0000
0000
0000
0001
0000
0000
0000
,  // measure 12
0010
0000
0001
0000
0100
0000
0000
0100
,  // measure 13
0000
0000
0010
1000
,  // measure 14
0001
0010
0001
0100
,  // measure 15
0010
0000
0000
0020
0000
0000
0000
0000
0030
0000
0000
0000
0000
0000
0000
0000
,  // measure 16
1000
1000
0100
1000
,  // measure 17
0010
0100
0001
1001
,  // measure 18
0001
0001
0100
0010
,  // measure 19
1000
0001
1000
1001
,  // measure 20
1000
0010
0100
0100
,  // measure 21
0001
0010
0100
0110
,  // measure 22
0010
0001
0100
1000
,  // measure 23
0100
0001
0010
1000
,  // measure 24
0020
0000
0000
0000
,  // measure 25
0030
0000
0000
0000
,  // measure 26
1001
0100
0010
0100
,  // measure 27
1001
0001
2000
3000
,  // measure 28
0000
0110
0001
1000
,  // measure 29
0002
0003
0000
0000
2000
3000
0000
0000
,  // measure 30
1001
0001
0100
0010
,  // measure 31
1000
0001
0002
0003
,  // measure 32
1100
0000
0100
0010
,  // measure 33
1001
0000
1000
1000
,  // measure 34
1001
0001
0100
0010
,  // measure 35
0000
2000
0000
0000
3000
0000
0000
0001
0000
0001
0000
0000
1001
0000
0000
0000
;

//---------------dance-single - ----------------
#NOTES:
     dance-single:
     :
     Beginner:
     1:
     0.135,0.184,0.040,0.000,0.000: // measure 1
0000
0000
0000
0000
,  // measure 2
0000
0000
0000
0000
,  // measure 3
1000
0000
1000
0000
,  // measure 4
0001
0000
0010
0000
,  // measure 5
0001
0000
0001
0000
,  // measure 6
1000
0000
0010
0000
,  // measure 7
0000
0000
0000
1000
,  // measure 8
0000
0100
0000
0010
,  // measure 9
0000
0001
0000
0001
,  // measure 10
0000
0100
0000
0010
,  // measure 11
0000
1000
0000
0100
,  // measure 12
0000
0010
0000
0100
,  // measure 13
0000
0010
0000
0001
,  // measure 14
0000
1000
0000
0001
,  // measure 15
0000
1000
0000
0000
,  // measure 16
1000
1000
0000
0000
,  // measure 17
0001
0000
0001
0000
,  // measure 18
0001
0001
0000
0000
,  // measure 19
1000
0000
1000
0000
,  // measure 20
0010
0010
0000
0000
,  // measure 21
0100
0000
0100
0000
,  // measure 22
0100
0000
0100
0000
,  // measure 23
0010
0000
0010
0000
,  // measure 24
1001
0001
0001
0001
,  // measure 25
1000
0000
0000
0000
,  // measure 26
0000
1000
1000
1000
,  // measure 27
1000
0000
1000
0000
,  // measure 28
0000
0001
0001
0001
,  // measure 29
0001
0000
0001
0000
,  // measure 30
0000
0100
0100
0100
,  // measure 31
0100
0000
0100
0000
,  // measure 32
0010
0000
0010
0000
,  // measure 33
0010
0000
0010
0010
,  // measure 34
1001
0000
0001
0000
,  // measure 35
0000
0000
0000
1001
;
