#TITLE:Run Run Run;
#SUBTITLE:;
#ARTIST:Receptor;
#TITLETRANSLIT:;
#SUBTITLETRANSLIT:;
#ARTISTTRANSLIT:;
#GENRE:Glitch;
#CREDIT:TiKAL+;
#MUSIC:[Round C] - Run Run Run.ogg;
#BANNER:[Round C] - Run Run Run.png;
#BACKGROUND:[Round C] - Run Run Run-bg.png;
#CDTITLE:;
#SAMPLESTART:54.649;
#SAMPLELENGTH:21.818;
#SELECTABLE:YES;
#OFFSET:-0.105;
#BPMS:0.000=176.000
,43.250=88.000
,43.438=176.000
,43.625=352.000
,44.000=176.000
,46.500=352.000
,47.250=176.000
,47.625=88.000
,48.000=176.000
,59.000=88.000
,59.250=176.000
,59.500=352.000
,60.000=176.000
,62.500=352.000
,63.250=176.000
,63.625=88.000
,64.000=176.000
,75.000=88.000
,75.250=176.000
,75.500=352.000
,76.000=176.000
,78.500=352.000
,79.250=176.000
,79.625=88.000
,80.000=176.000
,107.000=88.000
,107.250=176.000
,107.500=352.000
,108.000=176.000
,110.500=352.000
,111.250=176.000
,111.625=88.000
,112.000=176.000
,155.000=88.000
,155.250=176.000
,155.500=352.000
,156.000=176.000
,158.500=352.000
,159.250=176.000
,159.625=88.000
,160.000=176.000
,171.000=88.000
,171.250=176.000
,171.500=352.000
,172.000=176.000
,174.500=352.000
,175.250=176.000
,175.625=88.000
,176.000=176.000
,187.000=88.000
,187.250=176.000
,187.500=352.000
,188.000=176.000
,190.500=352.000
,191.250=176.000
,191.625=88.000
,192.000=176.000
;
#STOPS:;
#DISPLAYBPM:176.000;
#BGCHANGES:;
#FGCHANGES:;

//--------------- dance-single - TiKAL ----------------
#NOTES:
     dance-single:
     TiKAL:
     Medium:
     7:
     0,0,0,0,0:
0000
0000
0000
0000
,
0000
0000
0000
0000
,
0000
0000
0000
0000
,
0000
0000
0000
0000
,
0000
0000
0000
0000
,
0000
0000
0000
0000
,
0000
0000
0000
0000
,
0000
0000
0000
0000
,
1000
0100
1000
0100
,
0010
0001
0010
0001
,
1000
0010
1000
0010
,
0100
0000
0001
0000
1000
0200
0000
0000
,
1300
0001
1000
0000
0001
0000
1000
0000
,
0010
0100
0010
0100
,
0001
1000
0100
1000
,
0001
0000
0100
0000
0010
2000
0000
0000
,
3001
0100
0001
0100
,
0010
1000
0010
1000
,
0001
0010
0001
0010
,
0100
0000
1000
0000
0001
0200
0000
0000
,
0301
1000
0001
0000
1000
0000
0001
0000
,
0010
0100
0010
0100
,
1000
0001
0100
0001
,
1000
0000
0100
0000
0010
0001
1000
0001
,
1000
0010
0100
0001
,
1000
0000
0010
0000
0100
0001
1000
0001
,
1000
0100
0010
0001
,
1000
0000
0100
0000
0010
0002
0000
0000
,
1003
0001
0100
0010
,
1000
0000
0001
0100
0000
0010
0100
0010
,
1000
0001
0010
0100
,
1000
0000
0001
0000
0010
0100
0010
0100
,
1000
0001
0100
0001
,
1000
0100
1000
0001
,
1000
0001
0010
0001
,
1000
0010
1000
0001
,
1000
0100
0010
0100
,
0001
0000
0100
0010
0000
0001
1000
0001
,
1000
0010
0100
0010
,
0001
0000
0010
0000
0100
0020
0000
0000
,
1030
0000
0001
0100
0000
1000
0100
0000
,
0001
0100
0000
1000
0100
0000
0010
0000
,
1000
0000
0100
0001
0000
0100
1000
0000
,
0001
0000
0100
1000
0100
0002
0000
0000
,
1003
0000
0001
0010
0000
1000
0010
0000
,
0001
0010
0000
1000
0010
0000
0100
0000
,
1000
0000
0010
0001
0000
0010
1000
0000
,
0001
0000
0010
1000
0010
0002
0000
0000
,
1003
0000
0001
0100
0010
0100
0001
0000
,
1000
0100
0010
0100
1000
0000
0001
0000
,
1000
0000
0001
0010
0100
0010
0001
0000
,
1000
0010
0100
0010
1000
0000
0001
0000
,
0100
0000
0010
1000
0100
1000
0010
0000
,
0100
0001
0010
0001
0100
0000
0001
0000
,
0010
0000
0100
1000
0010
1000
0100
0000
,
0010
0001
0100
0001
0010
0000
0100
0000
,
1000
0000
0001
1000
0100
1000
0001
0000
,
1000
0001
0100
0001
1000
0000
0100
0000
,
0011
0000
0000
1001
0000
0000
1000
0010
,
1000
0001
1000
0100
0010
0000
0001
0000
,
1000
0000
0001
1000
0010
1000
0001
0000
,
1000
0001
0010
0001
1000
0000
0010
0000
,
0101
0000
0000
1001
0000
0000
1000
0100
,
1000
0001
1000
0010
0100
0001
1000
0001
,
1000
0000
0001
0100
0001
1000
0001
0010
,
0000
0100
1000
0001
0000
0100
0001
0000
,
1000
0000
0100
0010
0100
1000
0001
0100
,
0010
0100
0001
1000
0100
0010
0001
0000
,
1000
0000
0001
0100
0001
0000
1000
0100
,
0000
1000
0001
0100
0010
0100
0001
1000
,
0100
0000
0010
0001
1000
0001
0100
0010
,
1000
0001
1000
0001
0010
0100
1000
0001
,
0100
0000
0100
0000
,
0100
0000
0100
0000
,
0010
0000
0010
0000
,
0010
0000
0010
0000
,
1000
0000
1000
0000
,
1000
0000
1000
0000
,
0001
0000
0001
0000
,
0001
0000
0001
0000
;

//--------------- dance-single - TiKAL ----------------
#NOTES:
     dance-single:
     TiKAL:
     Challenge:
     13:
     0,0,0,0,0:
0000
0000
0000
0000
,
0000
0000
0000
0000
,
0000
0000
0000
0000
,
0000
0000
0000
0000
,
0000
0000
0000
0000
,
0000
0000
0000
0000
,
0000
0000
0000
0000
,
0000
0000
0000
0000
0000
0000
0000
0000
0000
0000
0000
0000
0000
0000
0000
0000
0000
0000
0000
0000
0000
0000
0000
0000
0000
0000
0000
0000
0000
0000
0000
0000
0000
0000
0000
0000
0000
0000
0000
0000
0000
0000
0000
0000
0000
0000
0000
0000
0000
0000
0000
0000
0000
0000
0000
0000
0000
0000
0000
0000
0000
0000
0000
0000
0000
0000
0000
0000
0000
0000
0000
0000
0000
0000
0000
0000
0000
0000
0000
0000
0000
0000
0000
0000
0000
0000
0000
0000
0000
0000
0000
0000
0000
0000
0000
0000
0000
0000
0000
0000
0000
0000
0000
0000
0000
0000
0000
0000
0000
0000
0000
0000
0000
0000
0000
0000
0000
0000
0000
0000
0000
0000
0000
0000
0000
0000
0000
0000
0000
0000
0000
0000
0000
0000
0000
0000
0000
0000
0000
0000
0000
0000
0000
M000
0000
0M00
0000
0000
00M0
0000
0000
000M
0000
0000
000M
0000
0000
000M
0000
0000
0000
000M
0000
0000
000M
0000
0000
000M
0000
0000
0000
000M
0000
0000
000M
0000
0000
0000
000M
0000
0000
000M
0000
0000
0000
00M0
0000
0000
0M00
0000
0000
0000
,
1000
0000
1000
0000
0001
0000
1000
0010
0100
0001
0100
0001
1000
0100
1000
0000
,
0001
0000
0000
0000
0000
0000
0000
0000
0000
0000
0000
0000
0010
0000
0000
0001
0000
0000
0010
0000
0000
0001
0000
0000
1000
0000
0000
0000
0000
0000
0000
0000
0000
0000
0000
0000
0001
0000
0000
0000
0000
0000
1000
0000
0000
0000
0000
0000
0001
0000
0000
0000
0000
0000
1000
0000
0000
0000
0000
0000
0010
0000
0000
0000
0000
0000
0000
0000
M00M
0000
0000
0000
0010
0000
0000
0000
0000
0000
0001
0000
0000
0000
0000
0000
1000
0000
0000
0000
0000
0000
0001
0000
0000
0000
0000
0000
,
1000
0000
1000
0000
0010
0000
0100
0001
1000
0100
0010
0004
1003
0020
0000
0000
,
0130
0000
0001
0010
0100
0000
1000
0001
1000
0001
0200
0000
0000
0000
0000
0000
,
0301
0000
0000
0000
1000
0000
0001
0010
0100
1000
0100
1000
0001
0100
0010
0100
,
0001
0010
0100
4000
3001
0000
0400
0000
0310
0100
0002
0000
0000
1003
0100
1000
,
0001
0000
0001
0000
1000
0000
0010
0400
0000
0301
0100
0001
2000
0000
0000
0000
,
3001
0000
0010
0100
1000
0000
0001
0400
0000
0310
0200
0000
0000
0000
0000
0000
,
0301
1000
0001
1000
0100
0000
1000
0100
0010
0001
0010
0001
1000
0010
1000
0000
,
0001
0000
0000
0000
0000
0000
0000
0000
0000
0000
0000
0000
0100
0000
0000
0001
0000
0000
0100
0000
0000
0001
0000
0000
1000
0000
0000
0000
0000
0000
0000
0000
0000
0000
0000
0000
0001
0000
0000
0000
0000
0000
1000
0000
0000
0000
0000
0000
0001
0000
0000
0000
0000
0000
1000
0000
0000
0000
0000
0000
0100
0000
0000
0000
0000
0000
0000
0000
M00M
0000
0000
0000
0100
0000
0000
0000
0000
0000
0001
0000
0000
0000
0000
0000
1000
0000
0000
0000
0000
0000
0001
0000
0000
0000
0000
0000
,
1000
0000
1000
0000
0100
0000
0010
0001
1000
0010
0100
0010
2000
0000
0000
0000
,
3010
0000
1000
0010
0100
0000
0001
1000
0001
1000
0200
0000
0000
0000
0000
0000
,
1300
0000
0000
0000
0004
0000
0000
0000
1003
0000
0010
0000
0100
0000
0001
0000
1000
0000
0100
0000
0010
0000
0100
1000
0001
0000
0100
0000
0020
0000
0000
0000
,
1030
0000
0000
0000
0000
0000
0000
0000
0000
0000
0000
0000
0001
0000
0000
0000
0000
0000
0000
0000
0000
0000
0000
0000
0040
0000
0000
0000
0000
0000
0000
0000
0000
0000
0000
0000
0000
0000
0000
0000
0000
0000
0000
0000
0000
0000
0000
0000
0130
0000
0000
0000
0000
0000
0000
0000
0000
0000
0000
0000
1000
0000
0000
0000
0000
0000
0000
0000
0000
0000
0000
0000
0002
0000
0000
0000
0000
0000
0000
0000
0000
0000
0000
0000
0000
0000
0000
0000
0000
0000
0000
0000
0000
0000
0000
0000
0000
0000
0000
0000
0000
0000
0000
0000
0000
0000
0000
0000
0000
0000
0000
0000
0000
0003
0000
0000
0000
0000
0000
0000
1000
0000
0000
0000
0000
0000
0000
0000
0000
0000
0000
0000
0010
0000
0000
0000
0000
0000
0000
0000
0000
0000
0000
0000
1000
0000
0000
0000
0000
0000
0000
0000
0000
0000
0000
0000
0010
0000
0000
0000
0000
0000
0000
0000
0000
0000
0000
0000
0100
0000
0000
0000
0000
0000
0000
0000
0000
0000
0000
0000
0000
0000
0000
0000
0000
0000
0000
0000
0000
0000
0000
0000
,
0002
0000
0000
0000
1003
0000
0100
0010
0100
1000
0002
0000
1003
0100
0040
0000
,
0000
0000
0034
0000
1003
0001
1000
0001
0100
0010
1000
0010
0100
0001
2000
0000
,
3001
0000
0001
0000
0010
0000
0100
1000
0100
1000
0001
0100
0020
0000
1030
0001
,
0020
0000
0000
0000
0000
0000
0000
0000
0000
0000
0000
0000
0031
0000
0000
1000
0000
0000
0001
0000
0000
1000
0000
0000
0200
0000
0000
0000
0000
0000
0000
0000
0000
0000
0000
0000
1300
0000
0000
0000
0000
0000
0001
0000
0000
0000
0000
0000
1000
0000
0000
0000
0000
0000
0001
0000
0000
0000
0000
0000
0100
0000
0000
0000
0000
0000
0000
0000
M00M
0000
0000
0000
0100
0000
0000
0000
0000
0000
1000
0000
0000
0000
0000
0000
0001
0000
0000
0000
0000
0000
1000
0000
0000
0000
0000
0000
,
0001
0000
0001
0000
0100
0000
0010
1000
0001
0010
0100
0010
0002
0000
0000
0000
,
0013
0000
0001
0100
0010
0000
1000
0001
1000
0001
0020
0000
0000
0000
0000
0000
,
0031
0000
0000
0000
1000
0000
0040
0000
0130
0001
1000
0100
0010
0000
0004
0000
,
1003
0010
0100
0001
1000
0000
0100
1000
0100
1000
0001
0000
0100
0001
0100
0001
,
1000
0000
1000
0000
0001
0000
0010
0100
2000
0000
3001
1000
0010
0100
0010
1000
,
0001
0000
0010
0000
0001
0000
1000
0000
0020
0000
0000
0030
0020
0000
0000
0000
0130
0000
0000
0000
0001
0000
0000
0000
1000
0000
0000
0000
0100
0000
0000
0000
,
1000
0000
1000
0000
0001
0000
1000
0010
1000
0001
0100
0010
1000
0000
0001
0000
,
0010
0000
0000
0000
0000
0000
0000
0000
0000
0000
0000
0000
0100
0000
0000
1000
0000
0000
0100
0000
0000
1000
0000
0000
0001
0000
0000
0000
0000
0000
0000
0000
0000
0000
0000
0000
1000
0000
0000
0000
0000
0000
0001
0000
0000
0000
0000
0000
1000
0000
0000
0000
0000
0000
0001
0000
0000
0000
0000
0000
0010
0000
0000
0000
0000
0000
0000
0000
M00M
0000
0000
0000
0010
0000
0000
0000
0000
0000
1000
0000
0000
0000
0000
0000
0001
0000
0000
0000
0000
0000
1000
0000
0000
0000
0000
0000
,
0001
0000
4000
0000
3100
0000
0010
0100
1000
0001
0100
0010
0100
0001
1000
0100
,
0010
0001
1000
0010
0100
0010
1000
0001
1000
0100
0010
0001
2000
0000
0000
0000
,
3001
0000
0000
0000
1000
0000
0040
0000
0130
0001
1000
0001
0010
0000
0400
0000
,
1300
0001
1000
0001
0010
0100
0010
0001
1000
0400
0310
0000
0001
1000
0001
1000
,
0010
0000
0010
0000
0100
0000
0004
0000
1003
0100
1000
0001
0200
0000
0000
0000
,
0310
0000
1000
0001
0010
0000
0100
1000
0100
1000
0002
0000
0000
0000
0000
0000
,
1003
0000
1000
0000
0001
0000
1000
0100
0010
0001
0010
0001
1000
0010
1000
0000
,
0001
0000
0000
0000
0000
0000
0000
0000
0000
0000
0000
0000
0100
0000
0000
0001
0000
0000
0100
0000
0000
0001
0000
0000
1000
0000
0000
0000
0000
0000
0000
0000
0000
0000
0000
0000
0001
0000
0000
0000
0000
0000
1000
0000
0000
0000
0000
0000
0001
0000
0000
0000
0000
0000
1000
0000
0000
0000
0000
0000
0100
0000
0000
0000
0000
0000
0000
0000
M00M
0000
0000
0000
0100
0000
0000
0000
0000
0000
0001
0000
0000
0000
0000
0000
1000
0000
0000
0000
0000
0000
0001
0000
0000
0000
0000
0000
,
1000
0000
1000
0000
0100
0000
0010
0001
1000
0010
0100
0001
2000
0000
0000
0000
,
3001
0000
0100
0010
1000
0000
0001
0010
0001
0010
0200
0000
0000
0000
0000
0000
,
1300
0000
0000
0000
0000
0000
0000
0000
0001
0000
0000
0000
0200
0000
0000
0300
M20M
0000
0000
0000
1300
0000
0001
0000
1000
0000
0000
0000
0001
0000
0100
0000
,
0010
0100
0001
1000
0200
0000
0000
0000
0310
0001
1000
0000
0010
1000
0001
1000
,
0100
0000
0100
0000
0010
0000
0001
1000
0010
0400
0301
4000
3200
0000
0000
0000
,
0310
0000
0001
1000
0010
0000
0100
0010
1000
0001
0020
0000
0000
0000
0000
0000
,
0031
0000
0001
0000
1000
0000
0001
0100
0010
1000
0010
1000
0001
0010
0001
0000
,
1000
0000
0000
0000
0000
0000
0000
0000
0000
0000
0000
0000
0100
0000
0000
1000
0000
0000
0100
0000
0000
1000
0000
0000
0001
0000
0000
0000
0000
0000
0000
0000
0000
0000
0000
0000
1000
0000
0000
0000
0000
0000
0001
0000
0000
0000
0000
0000
1000
0000
0000
0000
0000
0000
0001
0000
0000
0000
0000
0000
0100
0000
0000
0000
0000
0000
0000
0000
M00M
0000
0000
0000
0100
0000
0000
0000
0000
0000
1000
0000
0000
0000
0000
0000
0001
0000
0000
0000
0000
0000
0000
0000
0000
0000
0000
0000
,
1000
1000
0100
0100
0010
0010
0001
1000
,
0001
0100
1000
0001
0010
1000
0001
4000
,
3001
0000
0000
0000
1000
0000
0100
1000
0100
1000
0001
0100
0010
0100
0001
0100
,
0010
0000
0000
1000
0000
0000
0001
0000
0000
1000
0000
0000
0100
0000
0000
0000
0000
0000
1000
0000
0000
0001
0000
0000
1000
0000
0000
0001
0000
0000
0100
0000
0000
0000
M00M
0000
0100
0000
0000
1000
0000
0000
0004
0000
0000
0000
0000
0000
,
0103
0000
0100
0000
0010
0000
4000
0000
3001
0010
0001
0010
0100
1000
0100
1000
,
0001
0100
0010
0000
0010
0000
1000
0001
1000
0100
1000
0000
0001
0100
0001
0000
,
1000
0000
1000
0000
0001
0000
1000
0010
0100
0001
0100
0001
1000
0100
1000
0000
,
0001
0000
0000
0000
0000
0000
0000
0000
0000
0000
0000
0000
0010
0000
0000
0001
0000
0000
0010
0000
0000
0001
0000
0000
1000
0000
0000
0000
0000
0000
0000
0000
0000
0000
0000
0000
0001
0000
0000
0000
0000
0000
1000
0000
0000
0000
0000
0000
0001
0000
0000
0000
0000
0000
1000
0000
0000
0000
0000
0000
0010
0000
0000
0000
0000
0000
0000
0000
M00M
0000
0000
0000
0010
0000
0000
0000
0000
0000
0001
0000
0000
0000
0000
0000
1000
0000
0000
0000
0000
0000
0001
0000
0000
0000
0000
0000
,
1000
0000
0000
0000
0010
0000
0100
0001
0100
0001
1000
0100
0010
0100
2000
0000
,
3001
0100
0001
0100
0010
1000
0002
0000
4003
0000
0000
0000
3001
0020
0000
0000
,
0130
0000
0000
0000
1000
0000
0001
0100
0001
0100
0001
1000
0100
0010
0100
4000
,
3001
0000
0000
0100
0000
0000
0010
0000
0000
0100
0000
0000
0001
0000
0000
0000
0000
0000
1000
0000
0000
0001
0000
0000
1000
0000
0000
0001
0000
0000
0100
0000
0000
0000
M00M
0000
0100
0000
0000
1000
0000
0000
0001
0000
0000
1000
0000
0000
,
0001
0000
2000
0000
3200
0000
0310
0100
1000
0001
0100
0010
0100
0001
1000
0001
,
0010
0100
0010
0001
1000
0010
0100
0001
1000
0100
1000
0001
0100
0010
0200
0000
,
0301
0000
0000
0000
1000
0000
0100
1000
0100
1000
0001
0100
0001
0100
0020
0000
,
1030
0001
1000
0001
0010
0100
0020
0000
0000
0000
0031
0100
0010
2000
0000
0000
,
3001
0000
4000
0000
3100
0000
0010
0200
0000
1300
0001
0100
0001
1000
0100
0010
,
0100
1000
0100
0010
0001
1000
0010
0100
0001
0100
0010
0100
0002
0000
0000
0000
,
1003
0000
0400
0000
0310
0001
0010
0001
1000
0010
0100
0004
1003
0100
0020
0000
,
0031
1000
0040
0000
0130
0001
2000
0000
0000
0000
3001
0010
0001
0010
0100
1000
,
0001
0000
2000
0000
3010
0100
0010
1000
0001
0010
0001
1000
0100
0000
0100
1000
,
0002
0000
0103
0000
0020
0000
0130
0001
1000
0100
0040
0031
1000
0010
0400
0304
,
1003
0000
0000
0000
0000
0000
0000
0000
0000
0000
0000
0000
0000
0000
0000
0000
0000
0000
0000
0000
0000
0000
0000
0000
0000
0000
0000
0000
0000
0000
0000
0000
0000
0000
0000
0000
0000
0000
0000
0000
0000
0000
0000
0000
0000
0000
0000
000M
0100
0000
0000
0000
0000
0000
0000
0000
0000
0000
0000
0000
0000
0000
0000
0000
0000
0000
0000
0000
0000
0000
0000
0000
0000
0000
0000
0000
0000
0000
0000
0000
0000
0000
0000
M000
0000
0000
0000
0000
0000
0000
0000
0000
0000
0000
0000
0000
,
001M
0000
0000
M000
0000
0000
000M
0000
0000
M000
0000
0000
0000
0000
0000
0000
0000
0000
0000
0000
0000
0000
0000
0000
0000
0000
0000
0000
0000
0000
0000
0000
0000
0000
0000
0000
0000
0000
0M00
0000
0000
0000
0000
0000
0000
0000
0000
0000
0000
0000
0000
0000
0000
0000
0000
0000
0000
0000
0000
0000
0000
0000
0000
0000
0000
0000
0000
0000
0000
0000
000M
0000
000M
0000
0000
0000
0000
0000
0000
0000
0000
0000
0000
0000
M000
0000
0000
0000
0000
0000
0000
0000
0000
0000
0000
0000
0001
0000
0000
0000
0000
0000
0000
0000
0M00
0000
0000
0000
0000
0000
0000
0000
0000
0000
0000
0000
0000
0000
0000
0000
0000
0000
0000
0000
0000
0000
0000
0000
0000
0000
0000
0000
00M0
0000
0000
0000
0000
0000
0000
0000
0000
0000
0000
0000
0000
0000
0000
0000
0000
0000
0000
0000
0000
0000
0000
0000
0000
0000
0000
0000
0000
0000
0000
0000
0000
0000
0000
0000
0000
0000
0000
0000
0000
0000
0000
0000
0M00
0000
0000
0000
0000
0000
0000
0000
0000
0000
0000
0000
0000
0000
0000
0000
,
1000
0000
0000
0000
0000
0000
0000
0000
0000
0000
0000
0000
0000
0000
0000
0000
0000
0000
0000
0000
0000
0000
0000
0000
0000
0000
0000
0000
0000
0000
0000
0000
0000
0000
0000
0000
0000
0000
0000
0000
0000
0000
0000
0000
0000
0000
0000
0000
0000
0000
00M0
0000
0000
0000
0000
0000
0000
0000
0000
0000
0000
0000
0000
0000
0000
0000
0000
0000
0000
0000
0000
0000
0000
0000
0000
0000
0M00
0000
0000
0000
0000
0000
0000
0000
0000
0000
0000
0000
0000
0000
0000
0000
0000
0000
0000
0000
001M
0000
0000
0000
0000
0000
0000
0000
0000
0000
0000
0000
M000
0000
0000
0000
0000
0000
0000
0000
0000
0000
0000
0000
0000
0000
000M
0000
0000
0000
0000
0000
0000
0000
0000
0000
0000
0000
0000
0000
0000
0000
0000
0000
0000
0000
0000
0000
M000
0000
M000
0000
M000
0000
M000
000M
M000
0000
M000
0000
0000
0000
0000
0000
0000
0000
0000
0000
0000
0000
0000
0000
0000
0000
0000
0000
0000
0000
0000
0000
0000
0000
0000
0000
0000
0000
0000
0000
000M
0000
0000
0000
0000
0000
0000
0000
,
0100
0000
00M0
0000
0000
0000
0000
0000
0000
0000
0000
0000
0000
0000
0000
0000
0000
0000
0000
0000
0000
0000
0000
0000
0000
0000
0000
0000
0000
0000
0000
0000
0000
0000
0000
0000
M000
0000
0000
0000
0000
0000
0000
0000
0000
0000
0000
0000
0001
0000
0000
0000
0000
0000
0000
0000
0000
0000
0000
0000
0000
0000
0000
0000
0000
0000
0000
0000
0000
0000
0000
0M00
0000
0000
0000
0000
0000
0000
0000
0000
0000
0000
0000
0000
0000
0000
0000
0000
0000
0000
0000
0000
0000
0000
0000
0000
,
1000
0000
0000
0000
0000
0000
0000
0000
0000
00M0
0000
0000
0000
0000
0000
0000
0000
0000
0000
0000
0000
0000
0000
0000
0000
0000
0000
0000
0000
0000
0000
0000
0000
0000
0000
0000
0000
0000
0000
0000
0000
0000
0000
0000
0000
0000
000M
0000
0000
0000
0000
0000
0000
0000
0000
0000
0000
0000
0000
0000
0000
0000
0000
0000
0000
0000
0000
0000
0000
0000
0000
0000
00M0
0000
00M0
0000
00M0
0000
00M0
0000
00M0
0000
00M0
0000
00M0
0000
00M0
0000
00M0
0000
00M0
0000
00M0
0000
00M0
0000
00M1
0000
0000
0000
0M00
0000
0000
0000
0000
0000
0000
0000
M000
0000
0000
0000
0000
0000
0000
0000
0000
0000
0000
0000
0M00
0000
0000
0000
0000
0000
0000
0000
0000
0000
0000
0000
0000
0000
0000
0000
0000
0000
00M0
0000
0000
0000
0000
0000
0000
0000
0000
0000
0000
0000
0000
0000
0000
0000
0000
0000
0000
0000
0000
0000
0000
0000
0000
0000
0000
0000
0000
0000
0000
0000
0000
0M00
0000
0000
0000
0000
0000
0000
0000
0000
0M00
0000
0M00
0000
0M00
0000
0M00
0000
0M00
0000
0M00
0000
,
0M10
0000
0000
M000
0000
0000
0000
0000
0000
0000
0000
0000
0000
0000
0000
0000
0000
0000
0000
0000
0000
0000
0000
0000
0000
0000
0000
0000
0000
0000
0000
0000
0000
0000
0000
0000
0000
0000
0000
0000
0000
0000
0000
0000
0000
0000
0000
0000
0000
0000
0000
0000
0000
0000
0000
0000
0000
0000
0000
0000
000M
0000
0000
0000
0000
0000
0000
0000
0000
0000
0000
0000
000M
0000
0000
0000
0000
0000
0000
0000
0000
0000
0000
0000
000M
0000
0000
0000
0000
0000
0000
00M0
0000
0000
0000
0000
0100
0000
0000
0000
0000
0000
0000
0000
0000
0000
0000
0000
0000
0000
0000
0000
0000
0000
0000
0000
0000
0000
0000
0000
0000
0000
0000
0000
0000
0000
0000
0000
0000
0000
0000
0000
0000
00M0
0000
0000
0000
0000
0000
0000
0000
0000
0000
0000
0000
0000
0000
0000
0000
0000
0000
0000
0000
0000
0000
0000
M000
0000
M000
0000
M000
0000
M000
0000
M000
0000
M000
0000
M000
0000
M000
0000
M000
0000
M000
0000
M000
0000
M000
0000
M000
0000
000M
0000
000M
0000
000M
0000
000M
0000
000M
0000
,
100M
0000
0000
0000
0000
0000
0000
0000
0000
00M0
0000
0000
0000
0000
0000
0000
0M00
00M0
0M00
000M
0000
0000
0000
0000
0000
0000
0000
0000
0000
00M0
0000
0000
0M01
0000
0000
0000
M000
0000
0000
0000
0000
0000
0000
0000
0000
0000
0000
0000
0000
0000
0000
0000
0000
0000
0000
0000
0000
0000
0000
0M00
0000
0000
0000
0000
,
0100
0000
0000
0000
0000
0000
0000
0000
0000
0000
0000
0000
0000
0000
0000
0000
0000
0000
0000
0000
0000
0000
0000
0000
0000
0000
0000
0000
0000
0000
0000
0000
0000
0000
0000
0000
0000
0000
0000
0000
0000
00M0
0000
0000
0000
0000
0000
0000
M010
0000
0000
0000
0000
0000
000M
0000
0000
0000
0000
0000
M000
0000
0000
0000
0000
0000
000M
0000
0000
0000
0000
0000
M000
0000
0000
0000
0000
0000
000M
0000
0000
0000
0000
0000
0M00
0M00
0M00
0M00
0M00
0M00
0M00
0000
0000
00M0
0000
0000
,
0000
0000
0000
0000
0000
0000
0000
0000
0000
0000
0000
0000
0000
0000
0000
0000
0000
0000
0000
0000
0000
0000
0000
0000
0000
0000
0000
0000
0000
0000
0000
0000
0000
0000
0000
0000
0000
0000
0000
0000
0000
0000
0000
0000
0000
0000
0000
0000
0000
0000
0000
0000
0000
0000
0000
0000
0000
0000
0000
0000
0000
0000
0000
0000
0000
0000
0000
0000
0000
0000
0000
0000
0000
0000
0000
0000
0000
0000
0000
0000
0000
0000
0000
0000
0000
0000
0000
0000
00M0
0000
0000
0000
0000
0000
0000
0000
0000
0000
0000
0000
0000
0000
0000
0000
0000
0000
0000
0000
0000
0000
0000
0000
0000
0000
0000
0000
0000
0000
0000
0000
0000
0000
0000
0000
0000
0000
0000
0000
0000
0000
0000
0000
0000
0000
0000
0000
0000
0000
0000
0000
0000
0000
0000
0000
0000
0000
0000
0000
0000
0000
0000
0000
0000
0000
0000
0000
0000
0000
0000
0000
0000
0000
0000
0000
0000
0000
0000
0000
0000
0000
0000
0000
0000
0000
0000
0000
0000
0000
0000
0000
0000
0000
0000
0000
0000
00M0
0000
0000
0000
0000
0000
0000
;
