#TITLE:Overkill;
#SUBTITLE:;
#ARTIST:Riot;
#TITLETRANSLIT:;
#SUBTITLETRANSLIT:;
#ARTISTTRANSLIT:;
#GENRE:;
#CREDIT:;
#MENUCOLOR:;
#METERTYPE:DDR;
#BANNER:[Round C] - Overkill.png;
#BACKGROUND:[Round C] - Overkill-bg.png;
#LYRICSPATH:;
#CDTITLE:;
#MUSIC:[Round C] - Overkill.ogg;
#OFFSET:0.000;
#SAMPLESTART:51.054;
#SAMPLELENGTH:15.000;
#SELECTABLE:YES;
#LISTSORT:;
#BPMS:0.000=174.000;
#STOPS:;
#BGCHANGES:;
#ATTACKS:;

//---------------dance-single - ----------------
#NOTES:
     dance-single:
     :
     Beginner:
     2:
     0.111,0.177,0.000,0.000,0.000:
0000
0000
0000
0000
,
0000
0000
0000
0000
,
0000
0000
0000
0000
,
0000
0000
0000
0000
,
0000
0000
0000
0000
,
0000
0000
0000
0000
,
0000
0000
0000
0000
,
0000
0000
0000
0000
,
0001
0000
0001
0000
,
0001
0000
0000
0000
,
1000
0000
1000
0000
,
1000
0000
0000
0000
,
0010
0000
0010
0000
,
0010
0000
0000
0000
,
0100
0000
0100
0000
,
0100
0000
0000
0000
,
0010
0000
0000
0000
,
0010
0000
0000
0000
,
1000
0000
0000
0000
,
1000
0000
0000
0000
,
0001
0000
0000
0000
,
0001
0000
0000
0000
,
0100
0000
0000
0000
,
0100
0000
0000
0000
,
0010
0000
0000
0000
,
0010
0000
0000
0000
,
0100
0000
0000
0000
,
0100
0000
0000
0000
,
0001
0000
0000
0000
,
0001
0000
0000
0000
,
1000
0000
0000
0000
,
1000
0000
0000
0000
,
0001
0000
0000
0000
,
1000
0000
0000
0000
,
0001
0000
0000
0000
,
0100
0000
0000
0000
,
0010
0000
0000
0000
,
1000
0000
0000
0000
,
0100
0000
0100
0000
,
0010
0000
0010
0000
,
0001
0000
0001
0000
,
0000
0000
0000
0000
,
0100
0000
0100
0000
,
0010
0000
0010
0000
,
1000
0000
1000
0000
,
0001
0000
0000
0000
,
1000
0000
0000
0000
,
0001
0000
0000
0000
,
0010
0000
0000
0000
,
1000
0000
0000
0000
,
0100
0000
0000
0000
,
0001
0000
0000
0000
,
0100
0000
0000
0000
,
0010
0000
0000
0000
,
0100
0000
0000
0000
,
0001
0000
1000
0000
,
0001
0000
0000
0000
,
0100
0000
0000
0000
,
0010
0000
0000
0000
,
0001
0000
1000
0000
,
0001
0000
0000
0000
,
1000
0000
0000
0000
,
1000
0000
0000
0000
,
0001
0000
0000
0000
,
0001
0000
0000
0000
,
0100
0000
0000
0000
,
0100
0000
0000
0000
,
0010
0000
0000
0000
,
0010
0000
0000
0000
,
1000
0000
1000
0000
,
1000
0000
0000
0000
,
0001
0000
0001
0000
,
0001
0000
0000
0000
,
0100
0000
0100
0000
,
0100
0000
0000
0000
,
0010
0000
0010
0000
,
0010
0000
0000
0000
,
1000
0000
0000
0000
,
0001
0000
0000
0000
,
1000
0000
0000
0000
;

//---------------dance-single - ----------------
#NOTES:
     dance-single:
     :
     Hard:
     11:
     0.638,0.833,0.296,0.260,0.130: // measure 1
0000
0000
0000
0000
,  // measure 2
0000
0000
0000
0000
,  // measure 3
0000
0000
0000
0000
,  // measure 4
0000
0000
0000
0000
,  // measure 5
0000
0000
0000
0000
,  // measure 6
0000
0000
0000
0000
,  // measure 7
0000
0000
0000
0000
,  // measure 8
0000
0000
0000
0000
,  // measure 9
0001
0000
0100
0001
0100
0000
0001
0000
1000
0000
0000
0000
1000
0000
0010
0000
,  // measure 10
M000
0010
1000
0000
0001
0010
0100
0010
,  // measure 11
0001
0000
0100
0010
0100
0000
0010
0000
1000
0000
0000
0000
1000
0000
0100
0000
,  // measure 12
M000
0100
0010
0000
0001
0100
0001
1000
,  // measure 13
0100
0000
0010
0001
0010
0000
0001
0000
0100
0000
0000
0000
0001
0000
0100
0000
,  // measure 14
000M
0100
0001
0000
0010
0100
1000
0001
,  // measure 15
1000
0000
0010
1000
0010
0000
1000
0000
0001
0000
0010
0100
1000
0000
0010
0000
,  // measure 16
0100
0000
0010
0000
1000
0000
0000
0000
M010
0000
0100
0001
1000
0000
0001
0000
,  // measure 17
1000
0000
0100
1000
0100
0000
1000
0000
M000
0000
0100
0000
1000
0000
0000
0000
,  // measure 18
0001
0000
0100
0001
0100
0000
0001
0000
0M00
0000
0100
0000
0001
0000
0000
0000
,  // measure 19
1000
0000
0010
1000
0010
0000
1000
0000
00M0
0000
0010
0000
1000
0000
0000
0000
,  // measure 20
0100
0000
1000
0001
1000
0000
0001
0000
M000
0000
1000
0000
0001
0000
0000
0000
,  // measure 21
0100
0000
0010
1000
0010
1000
0010
0000
0M00
0000
0100
0000
0001
0000
0000
0000
,  // measure 22
0010
0000
0001
0010
0001
0010
0001
0000
00M0
0000
0010
0000
0001
0000
0000
0000
,  // measure 23
1000
M100
0M10
00M1
,  // measure 24
0201
0000
0000
0320
0000
0000
M031
0000
,  // measure 25
1010
0010
2000
0000
3002
0000
4003
0000
,  // measure 26
0000
0000
3011
0400
,  // measure 27
0000
0000
1310
0004
,  // measure 28
0000
0000
0000
0000
0000
0000
0103
0010
1000
0000
0100
0000
0100
0000
0100
0000
,  // measure 29
0010
0110
1001
0010
,  // measure 30
0110
0000
0001
1000
0100
0000
1000
0010
,  // measure 31
1000
0001
0001
0001
010M
0010
0010
0010
,  // measure 32
10M0
0100
0100
0100
0M10
0100
0100
0100
,  // measure 33
1M00
0010
0010
0010
0100
0001
1000
0000
,  // measure 34
0011
0000
0100
0001
1000
0000
0110
0000
,  // measure 35
100M
0001
0001
0000
1001
0000
0010
0000
,  // measure 36
01M0
0000
0100
0001
100M
0001
0001
0001
,  // measure 37
001M
0100
0100
0100
0M10
0000
0110
0000
,  // measure 38
1001
0000
0100
0100
0M10
0000
0100
0001
,  // measure 39
1000
0100
1000
0100
1M00
0010
1000
0010
,  // measure 40
01M0
0001
0100
0001
001M
0100
0010
0100
,  // measure 41
0M10
0001
1000
0001
0200
0000
0310
0000
,  // measure 42
0210
0000
0301
0100
0M01
0000
1001
0000
,  // measure 43
1100
0000
1000
0100
0M10
0100
1000
0000
,  // measure 44
0020
0000
0130
0001
1000
0001
0010
0000
,  // measure 45
0201
0340
0000
0000
,  // measure 46
1031
0000
0001
4000
0000
0000
3001
0100
,  // measure 47
0001
0010
0010
0010
01MM
0010
0010
0010
,  // measure 48
0MM1
1000
1000
1000
M01M
0100
0100
0100
,  // measure 49
0M1M
1000
1000
1000
0001
1000
M10M
0000
,  // measure 50
0110
0000
0100
1000
MM10
0000
1001
0000
,  // measure 51
0100
0001
0M1M
0000
0110
0000
0010
0000
,  // measure 52
1001
0000
1000
0001
M10M
0010
0010
0010
,  // measure 53
1000
0100
0100
0100
2000
0000
3002
0000
,  // measure 54
0103
0000
0010
0010
0010
0000
1000
0001
,  // measure 55
1000
0100
1000
0100
MM10
0001
1000
0001
,  // measure 56
M10M
0010
1000
0010
M1M0
0001
1000
0001
,  // measure 57
M01M
0001
0100
0010
2000
0000
3002
0000
,  // measure 58
0103
0000
0010
0010
M1M0
0000
0010
0000
,  // measure 59
0100
0001
0MM1
0000
0110
0000
1001
0000
,  // measure 60
2010
0000
3001
0001
0010
0000
0010
0001
,  // measure 61
1000
0100
1000
0001
1000
0000
0001
0100
0001
1000
0001
0000
1000
0001
1000
0001
,  // measure 62
1000
0100
0010
0100
1000
0001
1000
0010
,  // measure 63
2000
0100
0011
3000
,  // measure 64
0001
0100
0001
0010
0001
0100
0010
1000
,  // measure 65
0020
0100
1100
0030
,  // measure 66
1000
0001
0100
0010
1000
0100
0010
0001
,  // measure 67
0200
0010
1001
0300
,  // measure 68
0001
0010
0100
1000
0001
0010
0001
0100
,  // measure 69
0002
0100
1010
0003
,  // measure 70
1000
0000
0100
0000
0010
0000
0100
0000
1000
0000
0001
0100
0001
0000
1000
0010
,  // measure 71
2000
0010
0101
3M0M
,  // measure 72
0001
0000
0010
0000
0100
0000
0010
0000
0001
0000
0100
0001
0100
0000
0001
1000
,  // measure 73
0002
0010
1100
MM03
,  // measure 74
1000
0000
0100
0010
0001
0000
1000
0000
0001
0000
0100
0010
1000
0000
0010
0000
,  // measure 75
0200
0010
1010
M3M0
,  // measure 76
0001
0000
1000
0001
0100
0000
0001
0000
1000
0000
0001
1000
0010
0000
1000
0000
,  // measure 77
0002
0100
2013
3001
,  // measure 78
4002
0000
0000
0000
,  // measure 79
0000
0000
0000
0000
,  // measure 80
0000
0000
0000
0000
,  // measure 81
0000
0000
0000
3003
;
