#TITLE:NOVAGROUND;
#SUBTITLE:;
#ARTIST:Quarks;
#TITLETRANSLIT:;
#SUBTITLETRANSLIT:;
#ARTISTTRANSLIT:;
#GENRE:;
#CREDIT:;
#MUSIC:[Round C] - NOVAGROUND.ogg;
#BANNER:;
#BACKGROUND:;
#CDTITLE:;
#SAMPLESTART:0.000;
#SAMPLELENGTH:15.000;
#SELECTABLE:YES;
#OFFSET:0.000;
#BPMS:0.000=192.000
,128.000=96.000
,129.000=192.000
;
#STOPS:96.000=0.625
,253.000=0.625
,379.000=0.625
,427.000=0.625
;
#BGCHANGES:;
#FGCHANGES:;

//--------------- dance-single - ----------------
#NOTES:
     dance-single:
     :
     Beginner:
     2:
     0,0,0,0,0:
0000
0000
0000
0000
,
1001
0000
0000
0000
,
0000
0000
0000
0000
,
0010
0000
0000
0000
,
0000
0000
0000
0000
,
0100
0000
0000
0000
,
0000
0000
0000
0000
,
0001
0000
0000
0000
,
0000
0000
0000
0000
,
1001
0000
0000
0000
,
1000
0000
0000
0000
,
0010
0000
0000
0000
,
0100
0000
0000
0000
,
0001
0000
0000
0000
,
1000
0000
0000
0000
,
0010
0000
0000
0000
,
0100
0000
0000
0000
,
1001
0000
0000
0000
,
0001
0000
0000
0000
,
1000
0000
0000
0000
,
0010
0000
0000
0000
,
1000
0000
0001
0000
,
1000
0000
0010
0000
,
1000
0000
0001
0000
,
1001
0000
0001
0000
,
0000
0000
0100
0000
,
0000
0000
0010
0000
,
0000
0000
1000
0000
,
0000
0000
0001
0000
,
0000
0000
0100
0000
,
0000
0000
0010
0000
,
0000
0000
0001
0000
,
0001
1000
0000
0000
,
0000
0010
0000
0000
,
0000
0100
0000
0000
,
0000
0001
0000
0000
,
0000
0010
0000
0000
,
0000
0100
0000
0000
,
0000
0010
0000
0000
,
0000
0010
0000
0000
,
0000
1001
0000
0000
,
0000
0001
0000
0000
,
0000
0010
0000
0000
,
0000
0100
0000
0000
,
0000
0001
0000
0000
,
0000
1000
0000
0000
,
0000
0100
0000
0000
,
0000
0010
0000
0000
,
0000
0010
0000
0000
,
0000
0001
0000
0000
,
0000
0100
0000
0000
,
0000
0010
0000
0000
,
0000
1000
0000
0001
,
0000
0010
0000
0001
,
0000
0100
0000
0000
,
0000
0010
0000
0000
,
0000
1001
0000
0000
,
0000
0001
0000
0001
,
0000
1000
0000
1000
,
0000
0010
0000
0010
,
0000
1000
1000
1000
,
0000
0001
0001
0001
,
0000
1000
0000
0010
,
0000
0100
0000
0000
,
0000
1001
0000
0000
,
0000
0001
0000
0000
,
0000
1000
0000
0001
,
0000
0000
0000
0100
,
0000
0000
0000
0010
,
0000
0000
0000
1000
,
0000
0000
0000
0100
,
0000
0000
0000
0010
,
0000
0000
0000
0001
,
0000
0000
0000
0100
,
0000
0000
0000
0010
,
0000
0000
0000
1000
,
0000
0001
0000
0100
,
0000
0010
0000
1000
,
0000
0100
0000
0010
,
0000
0000
0000
1001
,
0000
0000
0000
0001
,
0000
0000
0000
0100
,
0000
0100
0000
0010
,
0000
0001
0000
0100
,
0000
0000
0000
0010
,
0000
0000
0000
1000
,
0000
0000
0000
0010
,
0000
0000
0000
1001
,
0000
0000
0000
0001
,
0000
0100
0000
0010
,
0010
0000
0000
0100
,
0000
0001
0000
1000
,
1000
0000
0000
0001
,
0000
0000
0000
1000
,
0000
0000
0000
0001
,
0000
1000
0000
0000
,
0000
0001
0000
0000
,
0000
0010
0000
0000
,
0000
0100
0000
0000
;

//--------------- dance-single - Braeden ----------------
#NOTES:
     dance-single:
     Braeden:
     Easy:
     5:
     0,0,0,0,0:
0000
0000
0000
0000
,
2001
0000
3020
0000
,
0230
0000
0300
0000
,
0020
0000
0230
0000
,
0302
0000
0003
0000
,
0002
0000
0203
0000
,
0320
0000
0030
0000
,
2000
0000
3020
0000
,
0230
0000
0300
0000
,
2001
0000
3020
0000
,
2030
0000
3000
0000
,
0002
0000
0023
0000
,
0032
0000
0003
0000
,
2000
0000
0000
0000
,
3002
0000
0000
0000
,
0203
0000
0000
0000
,
0320
0000
0000
0030
,
1001
1000
0020
0000
,
0130
0001
0020
0000
,
0031
0100
0020
0000
,
1030
0100
0020
0000
,
0031
1000
0100
1000
,
0001
0100
0010
1000
,
0100
0010
0001
0100
,
0010
0000
2001
0000
,
3010
0000
0000
0200
0000
0000
0301
0000
,
0001
0200
0301
1000
,
0010
0000
0000
0200
0000
0000
0301
0000
,
1000
0010
2000
3001
,
0100
0010
0000
1000
,
0001
0100
0020
0130
,
0010
0000
1000
0010
,
0100
1001
0000
0001
,
1000
0001
0000
0000
1000
0000
0010
0000
,
0200
0300
0001
1000
,
0001
1000
0000
0000
0020
0000
0130
0000
,
0001
0000
1000
0010
,
0100
0001
0000
0000
0100
0000
0010
0000
,
2000
3000
0010
0100
,
0001
0010
0001
1000
,
0010
0200
0300
0001
,
0000
0001
0000
0002
,
0000
1003
0000
0000
0000
0000
0000
0000
,
0000
0000
0001
0000
1000
0001
0000
1000
,
0000
0001
0000
1000
0000
0000
0000
0000
,
0000
0000
0000
0000
,
0000
0001
0000
0000
,
0000
0100
0000
0010
,
0000
1000
0000
0002
,
0000
2003
0000
3002
,
0000
1003
0000
0000
0000
0000
0000
0000
,
0000
0000
0001
0000
0100
0010
0000
1000
,
0000
0001
0000
0100
0000
0000
0000
0000
,
0000
0010
0000
1000
,
0000
0100
0010
0100
,
0010
0001
1000
0010
,
0000
1000
0001
1000
,
0001
1000
0001
1000
,
0001
0100
0010
0100
,
0010
0100
0010
0100
,
0010
0100
0001
1000
,
0100
1000
0001
0100
,
0010
1000
0100
0010
,
0001
0100
0000
1001
,
0000
0010
0000
1000
,
0000
0100
0000
0010
,
0000
0001
0000
0100
,
0000
0010
0000
1000
,
0100
1000
0000
0001
,
0100
0010
0010
1000
,
0000
0100
0000
0010
,
0001
0100
0000
0010
,
0000
1000
0000
0001
,
0000
0100
0000
0010
,
0000
1000
0000
0100
,
0000
0010
0000
0001
,
0000
0100
0000
0010
,
0000
1000
0000
0001
,
0000
0100
0000
0010
,
0000
0000
0000
1001
,
0000
0001
0000
0100
,
0010
0100
0000
0001
,
0000
1000
0000
0100
,
0010
0100
1000
0010
,
0100
0001
0100
0010
,
1000
0001
0000
0001
,
0100
0010
0000
1000
,
0001
1000
0000
0010
,
0100
0010
0100
0001
,
0000
1000
0000
0010
,
0100
0010
0100
0001
,
0000
1000
0000
0001
,
0001
0001
0000
0100
,
0100
0100
0000
0010
,
1000
0001
0100
0010
,
0000
1001
0000
0001
,
0000
0100
0000
0010
,
0000
1000
0000
0000
;

//--------------- dance-single - ----------------
#NOTES:
     dance-single:
     :
     Medium:
     8:
     0,0,0,0,0:
0000
0000
0000
0000
,
2001
0000
3002
0000
0203
0000
0310
2000
,
0000
0200
0000
0000
3300
0000
0001
0000
,
0200
0000
0320
0000
2030
0000
3001
0200
,
0000
0002
0000
0000
0303
0010
1000
0200
,
0000
0310
0001
0200
0000
0310
1000
0002
,
0000
0103
0010
2000
0000
3001
0100
0020
,
0000
2030
0000
3200
0000
0320
0000
0230
,
0000
1300
0001
0200
0000
0000
0310
0000
,
2001
0000
3002
0000
0203
0000
0310
2000
,
0000
0200
0000
0000
3300
0000
0020
0000
,
0230
0000
0320
0000
0032
0000
0103
0020
,
0000
2000
0000
3030
0000
0100
0001
0020
,
0000
0031
0100
0020
0000
1030
0100
0020
,
0000
0031
0100
0020
0000
1030
0000
0001
,
0000
0100
0010
2000
0000
0000
3000
0000
,
0002
0000
0003
0000
,
1000
0100
1000
0000
1010
0000
0100
0000
,
0001
0010
0001
0000
1000
0000
1001
0000
,
1000
0010
2000
0000
3001
0000
0010
0100
,
0000
0100
0010
0100
0000
0010
0001
1000
,
0010
0100
0001
0010
0001
0100
0010
1000
,
0100
0010
0001
0100
0010
0100
0001
1000
,
0200
0000
0000
0300
,
0001
0100
0010
0000
1001
0000
0001
0100
,
0010
1000
0100
0040
0000
0031
0100
0010
,
1000
0001
0400
0000
0310
0000
1000
0001
,
1000
0000
0001
0040
0000
0030
0004
0000
,
1003
0001
1001
1000
,
0001
0100
0010
0100
0000
0010
1000
0001
,
0100
0001
4000
0000
3010
0000
0100
0000
,
0001
0010
0001
2000
0000
3000
0010
0000
,
2002
3003
1001
0000
1000
0000
0010
0100
,
0010
4000
0000
3000
0001
0100
0010
0000
,
1000
0400
0000
0310
0001
0000
1000
0000
,
1000
0000
0100
0000
0010
0001
0100
0000
,
0101
0000
1010
0000
1000
0010
0000
0100
,
0001
0000
0100
0010
0010
1000
0100
0100
,
0010
0001
0101
0000
1010
0000
1001
0000
,
1010
0000
1000
0001
0100
0010
2000
0000
,
3000
2001
0000
3002
,
0000
0203
0000
0010
,
0000
0020
0000
0000
0000
0000
0330
0000
,
0000
0000
1000
0000
0001
2000
0000
3020
,
0000
2030
0000
0002
0000
0000
0000
0000
,
3003
1000
0001
0100
,
0000
0010
1000
0100
,
0000
0010
0001
0100
,
0000
0010
0000
0200
,
0000
0320
0000
2030
,
0000
0020
0000
0000
0000
0000
3030
0000
,
0000
0000
0010
0000
1000
0001
0000
2000
,
0000
3020
0000
0230
0000
0300
0001
0000
,
0100
0010
1000
0100
,
0010
0000
0001
0000
1000
0100
1000
0000
,
0001
0010
0001
0000
1000
0001
1000
0000
,
0010
0000
0100
0001
0010
0001
0100
0010
,
1000
0100
0010
0001
0100
0010
0100
0001
,
0010
0001
1000
0010
0100
0001
0010
0100
,
0010
0001
0100
0010
1000
0100
0010
0001
,
0100
0010
1000
0001
0100
0010
1000
0100
,
1000
0001
0100
0010
0100
0001
0100
0010
,
1000
0100
0010
0001
0200
0000
0000
0000
,
0300
0010
0000
1001
,
1000
0000
0001
0000
0100
0010
0100
0000
,
0001
0000
0100
0000
0010
1000
0100
0000
,
0010
0000
0001
0000
0100
0010
1000
0000
,
0100
0000
0010
0000
0001
0100
0010
0000
,
1000
0100
0010
0001
,
0100
0000
0010
0000
1000
0000
0100
0010
,
0100
1000
0001
0100
,
0010
1000
0100
0010
,
0001
0000
0100
0000
0010
1000
0010
0000
,
0100
0000
0001
0000
0010
0001
0010
0000
,
0100
0000
1000
0000
0100
0010
0001
0000
,
0022
0033
1001
0010
,
1000
0100
0010
0001
,
0100
0010
1000
2002
,
3003
0202
0303
1010
,
1000
0001
0100
0000
0000
0000
0010
1000
,
0010
1000
0001
0100
0010
1000
0100
0010
,
0100
1000
0001
0000
1000
0000
0010
0100
,
0001
1000
0100
0010
0001
0100
0010
0000
,
1000
0000
0001
0100
0010
1000
0100
0010
,
0100
0010
0001
0100
0010
1000
0100
0010
,
0001
0100
0010
1000
0001
0100
0000
0010
,
0000
1000
0000
0100
0000
1000
0000
0001
,
0100
0010
0000
0000
1000
0000
1001
0000
,
0001
0010
0001
1000
0001
0010
0001
0100
,
0001
0010
0001
0000
0100
0000
0010
1000
,
0100
1000
0001
1000
0100
1000
0001
1000
,
0010
0000
0100
0001
0010
0001
0000
1000
,
0010
2000
0000
3000
0001
0000
0100
0010
,
0100
0001
1000
0100
0010
0001
0200
0000
,
0000
0000
0300
1001
,
0001
0022
0000
0033
;

//--------------- dance-single - ----------------
#NOTES:
     dance-single:
     :
     Hard:
     10:
     0,0,0,0,0:
0000
0000
0000
0000
,
1001
0000
2000
0000
3020
0000
0130
0002
,
0000
0020
0000
0000
0033
0000
0100
0000
,
1000
0000
0001
0000
0100
0000
0010
2000
,
0000
0200
0000
0000
3300
0010
0001
0010
,
0000
0001
1000
0001
0000
1000
0100
0010
,
0000
0001
0100
0010
0000
1000
0100
2000
,
0000
3002
0000
2003
0000
3002
0000
2003
,
0000
3001
1000
0001
0000
0000
1000
0000
,
1010
0000
0100
0000
0001
0000
0100
0020
,
0000
2000
0000
3030
0000
0000
2000
0000
,
3020
0000
0230
0000
0302
0000
1003
0020
,
0000
0200
0000
0330
0000
1000
0100
0010
,
0000
0001
0010
0100
0000
1000
0001
0100
,
0000
0010
1000
0100
0000
0010
0001
0100
,
0000
0010
1000
0200
0000
0000
0000
0000
,
0000
0300
1000
0000
0002
0000
0003
0000
,
1000
0001
0100
0000
0010
0000
1010
0000
,
1000
0001
0200
0000
0310
0000
0110
0000
,
0010
1000
0200
0000
0310
0000
0110
0010
,
0000
0001
0100
0020
0000
1030
0100
0000
,
0010
0001
0100
0010
1000
0100
0001
0100
,
1000
0010
0001
0010
1000
0100
0010
0001
,
1000
0010
0100
0001
0010
0001
1000
0100
0020
0000
0000
0000
0030
0000
0000
0000
,
1001
1000
0001
0000
1001
0000
1000
0100
,
0001
0100
1000
0020
0000
0130
0001
1000
,
0100
0010
0200
0000
1300
0010
0100
0001
,
1001
0000
1000
0000
0010
0000
0200
0000
0000
0000
0301
0000
1000
0010
1000
0010
,
1000
0000
0001
0000
0100
0000
0010
0000
0000
0000
0000
0000
2000
0000
0000
0000
0000
0000
3001
0000
0000
1000
0000
0000
,
1001
0001
1000
0200
0000
1300
0002
0103
,
0020
0130
0002
0003
1001
1000
0100
0010
,
0002
0103
0010
2000
0000
3001
0100
0010
,
1000
0100
0010
0000
1001
0000
0000
0000
0001
0000
0100
0000
0010
0000
1000
0000
,
0100
0020
0000
0031
0100
1000
0100
0001
,
0020
0030
0011
0001
0100
0010
1010
0000
,
0101
0000
0002
0000
0000
0000
1003
0000
0010
0000
0100
0000
0001
1000
0001
1000
,
0001
0000
1001
0001
0100
0110
0010
1000
,
0001
0100
0001
0000
0101
0000
0100
0000
0010
0000
0110
0000
0010
0000
1000
0000
,
0010
0100
0010
0100
0010
0000
0100
0000
0001
0000
1000
0000
0100
0000
1000
0000
,
0001
0000
0100
0000
0001
1000
0010
0100
0001
0010
0001
1000
0001
0000
0000
0000
,
0000
1002
0000
0020
,
0030
0200
0300
2000
,
3000
2000
0000
0000
0000
0000
3003
0000
,
0000
0000
0010
0000
1000
0020
0000
0230
,
0000
0302
0000
0200
0303
0000
0010
0000
,
1000
0100
0010
0100
,
1000
0001
0100
0010
,
1000
0100
0010
0100
,
1000
0001
1000
2020
,
0030
0002
0003
0020
,
0030
0020
0000
0000
3030
0000
0100
0000
,
0000
0000
0001
0000
0100
0020
0000
2030
,
0000
3200
0000
0320
0000
0030
0010
0000
,
0001
0100
0010
1000
,
0100
0000
0010
0001
0100
0010
1000
0100
,
0010
0100
1000
0001
0100
0010
1000
0001
,
1001
0000
1000
0010
1000
0010
0100
0001
,
0100
0001
1000
0100
0010
0001
1000
0010
,
0100
0001
1000
0100
1000
0001
0100
0010
,
0100
0001
1000
0100
0010
0001
0100
0010
,
1000
0000
0001
0000
1000
0100
1000
0000
0001
0000
0100
0000
0010
1000
0010
0000
,
0100
0000
0001
0000
1000
0001
1000
0000
0010
0000
0100
0000
0001
1000
0001
0000
,
1000
0000
0100
0000
0010
0001
0100
0010
1000
0100
0010
0001
0020
0000
0000
0000
,
0030
0000
1001
0001
1000
0000
1001
0000
,
1000
0000
0000
0010
0000
0000
0100
0000
0001
0000
1000
0000
0100
0000
0001
0000
,
0100
0000
0000
0100
0000
0000
1000
0000
0010
0000
0100
0000
0001
0010
0001
0100
,
0010
0000
0000
1000
0000
0000
0100
0000
0010
0000
0001
0000
0100
0000
0010
0000
,
1000
0000
0000
0010
0000
0000
0001
0000
0010
0000
0100
0000
0001
0000
0010
0000
,
0000
0001
0000
0000
1000
0000
0000
0100
0000
0000
1000
0000
0100
0010
0100
0000
,
1000
0000
0000
0000
0100
0000
0000
0100
0000
1000
0010
0100
0001
0000
1000
0000
,
0000
0010
0000
0000
0100
0000
0000
0001
0000
0000
0010
0000
0001
0000
0000
0100
,
0000
0000
0010
0000
0000
1000
0000
0000
0010
0000
0100
0000
0020
0000
0000
0030
,
1001
0000
0000
0010
0000
0000
0100
0000
0001
0000
1000
0000
0100
0000
0010
0000
,
0002
0000
0000
0103
0000
0000
0010
0000
1000
0000
0100
0000
1000
0010
0100
0001
,
0010
0000
0000
0000
0100
1000
0100
0000
0010
0001
0010
0000
0011
0000
0000
0110
,
0000
0000
1100
0000
0000
1001
0000
0000
0100
0000
0000
0000
1001
0000
0000
0001
,
0000
0000
0100
0000
0000
0010
0000
0000
1000
0000
0100
0000
1100
0000
0000
1000
,
0000
0000
0010
0000
0000
0100
0000
0000
0001
0000
0010
0000
0011
0000
0000
0011
,
0000
0000
0001
0000
1001
0000
0000
1001
0000
0000
1000
0000
0020
0000
0000
0000
,
0030
0000
0000
0000
0000
0000
1000
0100
,
0001
0100
1000
0010
0100
0001
1000
0100
,
0010
0001
1000
0010
0001
0010
1000
0100
,
0001
0100
1000
0001
0010
0100
1000
0001
,
0100
1000
0100
0010
1000
0100
0001
0100
,
0010
0001
0100
0010
1000
0100
0001
0100
,
1000
0010
0100
0001
0100
0010
1000
0002
,
0000
0203
0000
0320
0000
2030
0000
3001
,
0001
0001
0000
0000
1000
0000
1002
0000
,
2003
0000
3020
0000
0130
0002
0000
0103
,
0010
2000
0000
3010
0100
0001
0200
0000
,
0320
0000
2030
0000
3100
0010
0000
0001
,
0100
0020
0000
1030
0100
0010
0001
1000
,
0010
0100
0001
1000
0100
0010
0001
0100
,
0010
0000
0100
0000
0001
0000
1000
0000
0001
0000
0100
0000
0010
1000
0010
1000
,
0100
0010
0001
0100
0020
0000
0000
0000
0030
0000
0000
0000
1001
0000
0001
0000
,
0100
1010
0000
0000
;

//--------------- dance-single - ----------------
#NOTES:
     dance-single:
     :
     Challenge:
     13:
     0.628571,0.810385,0.176923,0.307692,0.25,572,549,23,40,0,0,0.628571,0.810385,0.176923,0.307692,0.25,572,549,23,40,0,0:
0000
0000
0000
0000
,
1001
0000
1000
0000
0010
0000
0100
0002
,
0000
1003
0000
0000
0000
0000
0002
0000
,
0203
0000
0320
0000
2030
0000
3100
2000
,
0000
0002
0000
0000
3003
1000
0100
0010
,
0000
0001
0100
0020
0000
4030
3400
0340
,
0030
0004
4003
3004
0003
1000
0100
0010
,
0000
0001
0000
0010
0000
0100
0000
1000
,
0000
0010
0100
0010
0000
0000
1000
0000
,
1001
0000
0001
0000
0100
0000
0010
1000
,
0000
0010
0100
0001
0010
0100
0010
0001
,
0010
0100
0010
0001
0100
0010
0100
0001
,
1000
0010
0100
0001
1000
0100
1000
0001
,
0100
0010
1000
0010
0100
0001
1000
0010
,
2000
3000
0000
0000
0000
0000
0020
0000
0030
0000
0000
0000
0200
0000
0300
0000
0000
0000
0020
0000
0000
0030
0000
0000
2000
0000
0000
3000
0000
0000
0002
0000
0000
0000
0003
0000
2000
0000
0000
0000
3000
0000
0200
0000
0000
0000
0000
0300
,
2000
0000
0000
0000
0000
3000
0002
0000
0000
0000
0000
0000
0203
0000
0000
0000
0000
0000
0320
0000
0000
0000
0000
0000
2030
0000
0000
0000
0000
0000
3200
0000
0000
0000
0000
0000
0320
0000
0000
0000
0000
0000
0230
0000
0000
0000
0000
0000
,
2300
3020
0230
0302
2003
3200
0320
0031
,
0011
0000
0100
0000
0010
0000
0001
0100
0010
0000
0100
0000
0001
0000
0000
0000
,
0001
0000
0010
0000
0011
0000
0001
0100
0010
0000
1000
0000
1010
0000
0010
0000
,
0100
0000
0001
0000
1000
0000
0010
0100
0010
0000
1000
0000
1001
0000
0000
0000
,
0001
0000
0100
0000
0010
0000
0000
1000
0010
0000
0100
0000
0001
0000
0000
0000
,
1000
0100
0010
0001
0100
0010
1000
0001
0010
0001
1000
0100
0010
0001
1000
0010
,
0100
0001
0010
0100
1000
0001
0100
0010
0100
0001
1000
0100
0010
0001
0100
0010
,
1000
0100
1000
0100
0010
0001
0100
0010
1000
0001
1000
0001
1000
0001
1000
0010
,
0100
0010
1000
0010
1010
0000
0010
1000
,
0001
0010
0100
1000
0004
0000
1003
0010
,
0100
0001
0400
0000
0310
1000
0001
0100
,
0010
1000
0010
0100
0001
0100
0004
0000
0000
0000
1003
0000
0020
0000
0000
0000
,
1030
0000
0001
0000
0010
0000
0100
0000
0000
0000
0000
0000
1000
0000
0000
0100
0000
0000
0010
0000
0000
0001
0000
0000
,
0100
0000
0010
0000
0100
0000
0004
0000
0000
0000
1003
0000
0010
0100
0010
0000
,
1000
0001
1000
0000
0020
0000
0000
0000
0130
0000
0001
0000
1000
0000
0010
0000
,
1000
0100
0010
0000
0100
1000
0004
0000
0000
0000
0103
0000
0010
0000
0100
0000
,
0010
1000
0010
0000
1010
0000
0000
0000
1000
0000
0100
0000
0001
0000
0100
0000
,
0010
0004
0000
0013
0100
1000
0010
0100
,
0020
0000
0000
0000
0430
0000
0301
0000
0100
0000
0010
0000
1000
0010
0100
0000
,
0001
0100
0010
0000
1000
0000
0001
0000
1000
0010
0200
0000
0301
1000
0001
0000
,
1001
0000
0000
0000
4040
0000
3030
0000
0010
0000
1000
0001
0100
0000
0001
0000
,
1000
0001
1000
0001
0000
0000
0110
0000
0000
0010
0000
0000
0100
0000
0000
0101
0000
0000
0010
0000
0000
1000
0000
0000
,
0020
0130
0010
0101
0001
1001
1000
1010
,
0010
0000
0110
0000
0100
0000
0010
1000
0001
0100
0001
0010
0400
0000
0000
0000
,
0300
2001
0000
3020
,
0000
0230
0000
0302
,
0000
0020
0000
0000
0000
0000
0000
0000
,
0033
0000
0011
0000
0001
0100
0000
0010
,
0000
0000
0000
0000
0000
0000
1000
0000
0000
0000
0000
0000
0000
0000
0000
0000
0000
0000
0010
0000
0100
0000
0010
0000
0100
0000
0000
0001
0000
0000
0010
0000
0000
0100
0000
0000
0010
0000
0000
0001
0000
0000
1000
0000
0000
0010
0000
0000
,
0100
0001
1001
0000
1001
1000
0000
0001
,
1000
0000
0000
0010
0000
0000
1000
0000
0000
0000
0000
0000
0001
0000
0100
0000
0001
0000
0100
0000
0000
0000
0000
0000
0001
0000
0000
0000
0000
0000
0000
0000
0000
0000
0000
0000
1000
0000
0000
0000
0010
0000
0000
0000
0100
0000
0000
0000
,
0010
0000
0000
0010
0100
0000
0000
0010
0100
0000
0000
0000
0010
0000
0100
0000
,
1000
0000
0000
0000
0000
0000
0010
0000
0000
0000
0000
0000
0100
0000
0000
0000
0000
0000
0000
0000
0000
0000
0000
0000
0101
0000
0000
0000
0000
0000
0000
0000
0000
0010
0000
0000
1000
0000
0000
0000
0000
0000
0001
0000
0010
0000
0001
0000
,
0010
0000
0100
1000
0001
0000
0000
0000
1001
0000
0000
0000
0010
0000
1000
0000
,
0001
0100
0001
0000
0010
0000
0000
0000
1001
0000
0000
0010
1000
0100
0010
0000
,
0001
0100
0010
0000
0200
0000
0000
0000
0301
0010
0100
1000
0001
0000
1000
0000
,
0001
0000
0000
0000
0000
0000
1000
0000
0001
0000
1000
0000
0001
0000
0000
0000
0000
0000
0000
0000
0000
0000
0000
0000
0001
0000
0000
0000
0000
0000
0100
0000
0000
0001
0000
0000
0100
0000
0000
0000
0000
0000
0001
0000
0000
0000
0000
0000
,
1000
0000
0000
0010
0100
0000
0000
0000
0010
0000
0000
0000
0010
0000
0000
0100
,
0000
0010
1000
0000
0010
1000
0001
0010
0100
0010
0001
1000
0010
0100
0001
1000
,
0100
0010
0001
1000
0010
0100
0001
1000
0100
0010
0100
1000
0001
0100
0010
1000
,
0001
0000
1000
0000
0001
0100
0010
1000
0100
0010
0001
1000
0010
0100
0010
1000
,
0100
0010
0100
1000
0001
0100
0010
1000
0001
0010
0100
0010
0001
1000
0010
0100
,
0001
1000
0100
0010
0100
1000
0001
0100
0010
0100
0001
1000
0010
1000
0001
0010
,
0001
1000
0010
1000
0001
0010
0100
1000
0001
0100
0010
0100
0001
1000
0100
0010
,
0001
0100
0010
1000
0001
0100
0010
1000
0001
0010
0100
0010
0001
1000
0010
0100
,
0001
1000
0100
0010
0001
1000
0010
0100
0001
0010
0001
1000
0100
0010
0001
1000
,
0010
0100
0001
0010
0100
0010
0001
0100
0010
1000
0100
0010
0001
0100
0010
1000
,
0002
0000
0013
0001
1001
0001
0020
0030
,
0011
0000
0000
0001
0000
0000
0100
0000
0010
0000
1000
0000
0100
0000
1000
0000
,
0001
0000
0000
0100
0000
0000
0010
0000
1000
0000
0100
0000
0010
0100
0010
0100
,
0010
0000
0000
0100
0000
0000
0010
0000
0001
0000
1000
0000
1001
0000
0001
0000
,
0200
0000
0000
0310
0000
0000
0100
0000
0001
0000
0010
0000
0001
0000
0100
0000
,
0010
0100
0000
0001
0010
0000
0001
0100
0000
0010
0100
0000
0001
0000
0100
0000
,
0010
0100
0000
0001
0010
0000
0100
0010
0100
1000
0010
0100
0001
0010
0001
0000
,
0100
0010
0000
0100
0001
0000
0010
0001
0000
0100
0010
0000
0100
0001
0000
0100
,
0010
0000
0100
0001
0010
0000
0000
0000
0001
0000
0100
0000
0020
0000
0030
0000
,
1010
0000
0000
1000
0000
0000
0001
0000
0100
0000
1000
0000
0100
0000
0001
0000
,
0010
0000
0001
1000
0001
0000
0100
0000
2001
0000
0001
0000
3001
0010
0001
1000
,
0010
0000
0000
1000
0100
1000
0100
0000
0010
0001
1000
0000
1001
0000
0000
1010
,
0000
0000
0110
0000
0000
0101
0000
0000
0020
0000
0030
0000
1001
0000
0000
0010
,
0100
0010
1000
0000
0010
0100
0000
0010
1000
0000
0100
0000
1001
0000
0001
0100
,
0000
0010
0100
0000
0001
0100
0000
0010
0100
0000
0010
0000
1001
0000
0000
0101
,
0000
0000
0110
0000
1010
0000
0000
0110
0000
0000
0101
0000
1001
0000
0000
0000
,
0100
0010
0100
0001
0100
0000
0000
0000
0000
0000
0000
0000
1000
0000
0010
0000
,
0100
0001
1000
0010
0100
0001
1000
0100
,
0010
0001
1000
0010
1000
0001
0010
0001
,
1000
0100
0010
0001
1000
0010
0100
0001
,
0010
0001
1000
0100
0010
0100
1000
0001
,
0100
0010
0100
0001
1000
0100
1000
0001
,
0100
0010
0100
0001
1000
0100
0010
0001
,
1000
0010
0100
0001
0010
0001
1000
0010
,
1000
0001
0010
0100
0010
0001
1000
0010
,
0100
0001
0010
0001
1000
0100
0010
0001
,
1000
0010
1000
0001
0010
0001
1000
0100
,
0010
0100
1000
0001
0100
0010
0100
0001
,
1000
0100
0010
0001
0100
0010
1000
0100
,
1000
0000
0100
0000
0010
0000
0001
0000
0010
0000
0001
0000
0001
0100
0010
1000
,
0001
0010
0001
1000
0100
0010
0001
0100
0010
0100
0001
0010
0001
0100
0010
1000
,
0100
0010
0001
0100
0010
1000
0001
0010
0001
1000
0010
1000
0001
0000
0001
0000
,
0001
0022
0000
0033
;

//--------------- dance-double - ----------------
#NOTES:
     dance-double:
     :
     Hard:
     9:
     0,0,0,0,0:
00000000
00000000
00000000
00000000
,
00012000
00000000
00023000
00000000
00030020
00000000
00001030
00000100
,
00000000
00002000
00000000
00000000
00003000
00000000
00000002
00000000
,
00002003
00000000
00003200
00000000
00020300
00000000
00030100
00001000
,
00000000
00000002
00000000
00000000
00000003
00000001
00000010
00000100
,
00000000
00000100
00010000
00001000
00000000
00001000
01000000
00100000
,
00000000
10000000
01000000
00100000
00000000
00010000
01000000
00100000
,
00000000
02000000
00000000
03002000
00000000
00023000
00000000
00031000
,
00000000
00100000
00001000
00010000
00000000
00000000
00001000
00000000
,
00001100
00000000
00000100
00000000
00000010
00000000
00000001
00001000
,
00000000
00000100
00000000
00000000
00011000
00000000
00100000
00000000
,
00100000
00000000
01000000
00000000
01000000
00000000
00010000
01000000
,
00000000
02000000
00000000
00000000
03000000
00100000
10000000
00010000
,
00000000
01000000
00001000
00010000
00000000
00001000
00100000
00001000
,
00000000
01000000
00001000
00100000
00000000
00002000
00000000
00023000
,
00000000
00031000
01000000
00200000
00000000
00000000
00300000
00000000
,
00000000
10000000
00010000
00000000
,
10000000
00010000
01000000
00000000
01010000
00000000
00010000
00000000
,
00100000
00001000
00010000
00000000
00011000
00000000
00001000
00000000
,
00010000
00000010
00000100
00000000
00000110
00000000
00000010
00000002
,
00000000
00000203
00000000
00000320
00000000
00002030
00000000
00003000
,
00000001
00001000
00000100
00010000
00001000
00100000
00010000
10000000
,
01000000
00100000
00010000
00100000
00001000
00010000
00000010
00000100
,
00000010
00010000
00000010
00001000
00000100
00010000
00001000
00000000
,
01010000
00010000
01000000
00100000
10000000
00000000
00100000
01000000
,
00001000
00010000
00000010
00000200
00000000
00000310
00001000
00000001
,
00010000
00000100
00020000
00030000
00011000
00001000
00100000
00010000
,
10000000
00010000
01000000
00002000
00000000
00013000
00002000
00000000
,
00013000
00000100
00010000
00000000
00011000
00000000
00001000
00100000
,
01000000
00100000
00001000
00020000
00000000
00031000
00010000
00000010
,
00000100
00000001
00000200
00000000
00000310
00010000
00001000
00010000
,
00000010
00000100
00000001
00000020
00000000
00000130
00001000
00000100
,
00010000
00001000
00010000
00000000
00011000
00000000
00000000
00000000
00001000
00000000
00100000
00000000
00010000
00000000
10000000
00000000
,
01000000
00200000
00000000
00310000
00100000
00001000
00010000
00000100
,
00100000
00000000
00011000
00010000
00000100
00001000
00000001
00000000
,
00000001
00002000
00000000
00003100
00010000
00001000
10000000
00100000
,
01000000
00000000
01100000
00000000
00000000
00011000
00000000
00000000
,
00000110
00000000
00011000
00000000
00000000
00101000
00000000
00000000
,
01100000
00000000
00100000
10000000
01000000
10000000
00100000
10000000
,
01000000
00000000
00100000
00000000
00010000
01000000
00010000
00000000
10000000
00100000
01000000
00000000
00001000
00000000
00000000
00000000
,
00000000
00001200
00000000
00020000
,
00030000
00002000
00003000
01000000
,
00000000
02000000
00000000
00000000
00000000
00000000
03000300
00000000
,
00000000
00000000
00012000
00000000
00010000
00010000
00000000
01000000
,
00000000
00010000
00000000
00200000
00000000
00000000
00303000
00000000
,
00000000
00100000
00000000
00000000
,
00000000
00000100
00000000
00000000
,
00000000
00001000
00000000
00000000
,
00000000
00001000
00010000
20000000
,
00000000
00020000
00030000
00200000
,
00300000
00200000
00000000
00000000
00000000
00000000
30300000
00000000
,
00000000
00000000
02000000
00000000
00100000
00100000
00000000
00001000
,
00000000
00100000
00000000
00010000
03000000
00000000
00100000
00000000
,
00010000
00000000
00000000
00000000
00010000
00000000
00000000
00000000
00100000
00000000
00000000
00000000
00001000
00000000
00000000
00010000
,
00000000
00001000
00010000
00000000
00001000
00000000
00010000
00000000
00000100
00000000
00001000
00000000
00000010
00000000
00000100
00000000
,
00000001
00001000
00000100
00010000
00001000
00100000
00010000
00000000
,
10010000
00000000
10000000
01000000
00010000
00001000
00000100
00000001
,
00000100
00001000
00010000
01000000
10000000
00100000
00010000
00100000
,
01000000
00001000
00010000
00000100
00000001
00000100
00000010
00000001
,
00000100
00001000
00010000
00100000
10000000
01000000
00010000
00001000
,
00000100
00000001
00010000
00001000
00010000
00000100
00100000
00001000
,
10000000
00100000
10000000
01000000
00100000
00010000
00100000
00001000
,
00010000
00000100
00010000
00001000
00010000
00001000
00010000
00001000
,
00010000
00000000
00010000
00001000
00100000
00010000
10000000
00000000
,
00010000
00000000
00000000
00100000
00000000
00000000
00001000
00000000
00010000
00000000
00000100
00000000
00010000
00000000
00001000
00000000
,
00010000
00000000
00000000
00000010
00000000
00000000
00000100
00000000
00000001
00000000
00001000
00000000
00000100
00001000
00000100
00001000
,
00000100
00000000
00000000
00010000
00000000
00000000
00001000
00000000
01000000
00000000
00100000
00000000
10000000
00000000
00010000
00000000
,
01000000
00000000
00000000
00001000
00000000
00000000
01000000
00000000
00100000
00000000
10000000
00000000
01000000
00000000
00100000
00000000
,
00000000
00001000
00000000
00000000
00010000
00000000
00000000
00000010
00000000
00000000
00000001
00000000
00000010
00000000
00001000
00000000
,
00000000
00000100
00000000
00000000
00010000
00000000
00000000
00000000
00001000
00010000
00001000
00010000
00001000
00000000
00100000
00000000
,
00000000
00000010
00000000
00000000
00100000
00000000
00000000
00001000
00000000
00000000
01000000
00000000
00100000
00000000
00000000
10000000
,
00000000
00000000
00000000
00000000
00000000
00000000
00010000
00000000
00000000
00000000
00000000
00000000
00000000
00000000
00000000
01000000
00000000
00000000
00000000
00000000
00000000
00000000
00000000
00000000
00100000
00000000
00000000
00000000
00000000
00000000
10000000
00000000
00000000
00000000
00000000
00000000
20020000
00000000
00000000
00000000
30030000
00000000
00000000
00000000
00000000
00000000
00000000
00000000
,
01000000
00000000
00000000
00001000
00000000
00000000
00010000
00000000
00000001
00000000
00000100
00000000
00000010
00000000
00010000
00000000
,
00001000
00000000
00000000
10000000
00000000
00000000
00010000
00000000
01000000
00000000
00100000
00000000
10000000
00010000
10000000
00010000
,
10000000
00000000
00000000
00001000
00000000
00000000
00010000
00000000
00000100
00000000
00001000
00000000
00001001
00000000
00000000
00001100
,
00000000
00000000
00010100
00000000
00000000
00101000
00000000
00000000
00001000
00000000
00000000
00000000
00100000
00000000
00000000
00010000
,
00000000
00000000
10000000
00000000
00000000
00010000
00000000
00000000
01000000
00000000
00010000
00000000
01010000
00000000
00000000
01000000
,
00000000
00000000
00001000
00000000
00000000
00010000
00000000
00000000
00000100
00000000
00001000
00000000
00001100
00000000
00000000
00000011
,
00000000
00000000
00000000
00000000
00001001
00000000
00000000
00000110
00000000
00000000
00000000
00000000
00001100
00000000
00000000
00000000
,
00000000
00000000
00000000
00000000
00000000
00000000
10000000
01000000
,
00010000
01000000
00100000
00001000
01000000
10000000
01000000
00100000
,
10000000
00010000
01000000
00001000
00010000
00000100
00000010
00000100
,
00010000
00001000
01000000
00100000
01000000
00001000
00100000
01000000
,
00010000
01000000
10000000
00010000
00100000
00001000
00010000
00000100
,
00010000
00000001
00000100
00000001
00001000
00000100
00010000
00100000
,
10000000
00100000
00010000
01000000
00100000
10000000
00001000
00010000
,
00000001
00000100
00001000
00000100
00000010
00010000
00001000
01000000
,
00100000
10000000
01000000
00100000
00010000
00000000
11000000
00000000
,
00110000
00000000
00101000
00000000
00100000
00000200
00000000
00002000
,
00000000
00003300
00001000
00000010
00001000
00000100
00010000
00001000
,
00100000
00010000
10000000
01000000
00100000
00010000
10000000
00001000
,
00010000
00000100
00010000
00001000
00100000
00001000
00011000
00010000
,
00000100
00000000
00001000
00000000
00000100
00000000
00010000
00000000
00001000
00000000
00100000
00000000
00010000
00001000
00010000
00001000
,
00010000
00001000
00010000
00001000
00010000
00001000
00010000
00001000
00010000
00001000
00010000
00001000
00020000
00000000
00000000
00000000
,
00000000
00000000
00000000
00000000
00030000
00000000
00000011
00000001
,
00000001
00000022
00000000
00000033
;
