#VERSION:0.83;
#TITLE:Halogen Blindness;
#SUBTITLE:;
#ARTIST:Junkie XL;
#TITLETRANSLIT:;
#SUBTITLETRANSLIT:;
#ARTISTTRANSLIT:;
#GENRE:;
#ORIGIN:;
#CREDIT:HealingDMax300 (song), CuzcoBlocko (steps);
#BANNER:;
#BACKGROUND:;
#PREVIEWVID:;
#JACKET:;
#CDIMAGE:;
#DISCIMAGE:;
#LYRICSPATH:;
#CDTITLE:cdtitle.png;
#MUSIC:[Round C] - Halogen Blindness.ogg;
#OFFSET:-0.140000;
#SAMPLESTART:49.895920;
#SAMPLELENGTH:14.222218;
#SELECTABLE:YES;
#DISPLAYBPM:67.500000:202.500000;
#BPMS:0.000=135.000,
20.750=101.250,
20.938=168.750,
21.250=135.000,
24.750=101.250,
24.938=168.750,
25.250=135.000,
27.000=67.500,
27.500=135.000,
28.750=67.500,
28.875=135.000,
29.125=67.500,
29.250=135.000,
30.250=101.250,
31.000=135.000,
54.500=101.250,
54.688=168.750,
55.000=135.000,
58.500=101.250,
58.688=168.750,
59.000=135.000,
61.500=101.250,
61.688=168.750,
62.000=135.000,
70.500=101.250,
70.688=168.750,
71.000=135.000,
172.500=101.250,
172.688=168.750,
173.000=135.000,
178.000=101.250,
178.188=168.750,
178.500=135.000,
182.000=101.250,
182.188=168.750,
182.500=135.000,
185.250=101.250,
185.438=168.750,
185.750=135.000,
192.500=101.250,
192.688=168.750,
193.000=135.000,
198.500=101.250,
198.688=168.750,
199.000=135.000,
200.500=101.250,
200.688=168.750,
201.000=135.000,
201.250=101.250,
201.438=168.750,
201.750=135.000,
215.000=67.500,
281.000=135.000,
284.500=101.250,
284.688=168.750,
285.000=135.000,
288.500=151.875,
288.688=101.250,
288.750=135.000,
293.000=67.500,
295.000=135.000,
297.500=101.250,
297.688=168.750,
298.000=135.000,
298.500=101.250,
298.688=168.750,
299.000=135.000,
305.250=101.250,
305.438=168.750,
305.750=135.000,
306.250=101.250,
306.438=168.750,
306.750=135.000,
309.000=67.500,
310.000=135.000,
313.000=101.250,
313.188=168.750,
313.500=135.000,
316.250=101.250,
316.438=168.750,
316.750=135.000,
321.000=101.250,
321.188=168.750,
321.500=135.000,
324.250=101.250,
324.438=168.750,
324.750=135.000,
342.000=146.250,
346.333=157.500,
351.000=168.750,
353.500=180.000,
356.167=191.250,
359.000=202.500,
362.000=67.500;
#STOPS:;
#DELAYS:;
#WARPS:76.000=28.000,
135.000=32.000,
215.250=64.000;
#TIMESIGNATURES:0.000=4=4,
24.000=2=7,
31.000=4=4,
75.000=32=4,
107.000=4=4,
135.000=36=4,
171.000=4=4,
215.000=66=4,
281.000=4=4,
293.000=2=4,
295.000=4=4,
306.750=3=4,
310.000=4=4;
#TICKCOUNTS:0.000=4;
#COMBOS:0.000=1;
#SPEEDS:0.000=1.000=0.000=0,
75.000=0.984=0.125=0,
75.125=0.939=0.125=0,
75.250=0.864=0.125=0,
75.375=0.759=0.125=0,
75.500=0.623=0.125=0,
75.625=0.455=0.125=0,
75.750=0.250=0.125=0,
75.875=0.000=0.125=0,
104.000=0.085=0.125=0,
104.125=0.169=0.125=0,
104.250=0.250=0.125=0,
104.375=0.329=0.125=0,
104.500=0.406=0.125=0,
104.625=0.481=0.125=0,
104.750=0.554=0.125=0,
104.875=0.624=0.125=0,
105.000=0.691=0.125=0,
105.125=0.754=0.125=0,
105.250=0.814=0.125=0,
105.375=0.868=0.125=0,
105.500=0.917=0.125=0,
105.625=0.958=0.125=0,
105.750=0.987=0.125=0,
105.875=1.000=0.125=0,
134.750=0.000=0.250=0,
167.000=-0.253=0.125=0,
167.125=-0.764=0.125=0,
167.250=-1.000=0.125=0,
167.375=-0.891=0.125=0,
167.500=-0.526=0.125=0,
167.625=0.000=0.125=0,
167.750=0.465=0.125=0,
167.875=0.800=0.125=0,
168.000=1.021=0.125=0,
168.125=1.157=0.125=0,
168.250=1.228=0.125=0,
168.375=1.250=0.125=0,
168.500=1.236=0.125=0,
168.625=1.183=0.125=0,
168.750=1.066=0.125=0,
168.875=1.000=0.125=0,
214.750=0.000=0.500=0,
279.250=1.000=0.375=0,
289.000=1.333=4.000=0,
293.000=1.000=0.750=0,
362.000=0.500=0.500=0,
364.625=0.250=0.375=0,
365.438=0.000=1.813=0;
#SCROLLS:0.000=1.000,
20.750=1.333,
20.938=0.800,
21.250=1.000,
24.750=1.333,
24.938=0.800,
25.250=1.000,
54.500=1.333,
54.688=0.800,
55.000=1.000,
58.500=1.333,
58.688=0.800,
59.000=1.000,
61.500=1.333,
61.688=0.800,
62.000=1.000,
70.500=1.333,
70.688=0.800,
71.000=1.000,
104.000=-0.125,
107.000=1.000,
159.000=0.250,
167.000=1.000,
172.500=1.333,
172.688=0.800,
173.000=1.000,
178.000=1.333,
178.188=0.800,
178.500=1.000,
182.000=1.333,
182.188=0.800,
182.500=1.000,
185.250=1.333,
185.438=0.800,
185.750=1.000,
192.500=1.333,
192.688=0.800,
193.000=1.000,
198.500=1.333,
198.688=0.800,
199.000=1.000,
200.500=1.333,
200.688=0.800,
201.000=1.000,
201.250=1.333,
201.438=0.800,
201.750=1.000,
279.250=-8.000,
279.375=-2.000,
279.500=-0.500,
279.625=-8.000,
279.750=-2.000,
279.875=-0.500,
280.000=-8.000,
280.125=-2.000,
280.250=0.500,
280.313=1.500,
280.375=2.500,
280.438=3.500,
280.500=2.000,
280.625=0.500,
281.000=1.000,
284.500=1.333,
284.688=0.800,
285.000=1.000,
288.500=0.889,
288.688=1.333,
288.750=1.000,
293.000=2.000,
293.125=1.833,
293.250=1.667,
293.375=1.500,
293.500=1.333,
293.625=1.167,
293.750=1.000,
297.500=1.333,
297.688=0.800,
298.000=1.000,
298.500=1.333,
298.688=0.800,
299.000=1.000,
305.250=1.333,
305.438=0.800,
305.750=1.000,
306.250=1.333,
306.438=0.800,
306.750=1.000,
313.000=1.333,
313.188=0.800,
313.500=1.000,
316.250=1.333,
316.438=0.800,
316.750=1.000,
321.000=1.333,
321.188=0.800,
321.500=1.000,
324.250=1.333,
324.438=0.800,
324.750=1.000,
362.000=2.000;
#FAKES:;
#LABELS:0.000=Song Start;
#BGCHANGES:;
#KEYSOUNDS:;
#ATTACKS:
;

//---------------dance-single - whatthefuck?----------------
#NOTEDATA:;
#CHARTNAME:ITG 11 X 16;
#STEPSTYPE:dance-single;
#DESCRIPTION:whatthefuck?;
#CHARTSTYLE:Pad;
#DIFFICULTY:Challenge;
#METER:11;
#RADARVALUES:0.796144,1.329541,0.149199,0.552913,1.570975,635.000000,618.000000,17.000000,63.000000,102.000000,0.000000,6.000000,0.000000,45.000000,0.796144,1.329541,0.149199,0.552913,1.570975,635.000000,618.000000,17.000000,63.000000,102.000000,0.000000,6.000000,0.000000,45.000000;
#CREDIT:CuzcoBlocko;
#DISPLAYBPM:67.500000:202.500000;
#NOTES:
// measure 0
0000
0000
0000
0000
,  // measure 1
0000
0000
0000
0000
,  // measure 2
0000
0000
0000
0000
,  // measure 3
0000
0000
0000
0000
,  // measure 4
210M
0000
000M
0000
010M
0000
000M
3020
010M
0000
000M
0000
010M
0000
103M
0010
,  // measure 5
1000
0000
0000
0000
0000
0000
0000
0000
0100
0000
0000
0000
0000
0000
0000
0100
0000
0000
0000
0000
0001
0000
0000
0000
0010
0000
0000
0000
0100
0000
0000
0000
1000
0000
0000
0000
0001
0000
0000
0000
0100
0000
0000
0000
0001
0000
0000
0000
1000
0000
0000
0000
0100
0000
0000
0000
1000
0000
0000
0000
0001
0000
0000
0000
,  // measure 6
0100
0000
0000
0000
0000
0000
0000
0000
0100
0000
0000
0000
0000
0000
0000
0100
0000
0000
0000
0000
1000
0000
0000
0000
0010
0000
0000
0000
0100
0000
0000
0000
0001
0000
0000
0000
1000
0000
0000
0000
0100
0000
0000
0000
1000
0000
0000
0000
0002
0000
0000
0000
0000
0000
0013
0000
0400
0000
0000
0000
4000
0000
0000
0000
,  // measure 7
0000
0000
0000
0000
0000
0000
0000
0000
0000
0000
0000
0000
0000
0000
0000
0000
0000
0000
0000
0000
00M0
0000
0000
0000
000M
0000
0000
0000
00M0
0000
0000
0000
000M
0000
0000
0000
33M0
0000
0000
000M
0000
0000
0M00
0000
0000
000M
0000
0000
1010
0000
0000
0000
0000
0000
0000
0000
0010
0000
0000
0000
0000
0000
0000
0000
,  // measure 8
1000
0000
0010
0100
0001
0000
0010
0000
0001
0000
0010
0010
0100
0000
1000
0000
,  // measure 9
0100
0000
1000
0010
0100
0000
0001
0000
0100
0000
0010
0000
1000
0000
0100
0000
,  // measure 10
1000
0000
0100
0010
0001
0000
0100
0000
0001
0000
0100
0100
0010
0000
1000
0000
,  // measure 11
0010
0000
1000
0100
0010
0000
0001
0000
0010
0100
0010
0100
1000
0010
0100
0010
,  // measure 12
1000
0001
0010
010M
0010
0001
1000
0001
0100
0000
1M00
0001
0010
0000
0001
1000
,  // measure 13
0010
0000
0000
0000
0100
0000
0000
0000
0000
0000
0000
0000
0100
0000
0000
0000
0001
0000
0000
0000
0010
0000
0000
0000
0001
0000
0000
0000
1000
0000
0000
0000
0010
0000
0000
0000
0010
0000
0000
0000
0000
0000
0000
0010
0000
0000
0000
0000
0001
0000
0000
0000
0000
0000
0000
0000
1000
0000
0000
0000
0001
0000
0000
0000
,  // measure 14
0010
0000
0000
0000
0100
0000
0000
0000
0000
0000
0000
0000
1000
0000
0000
0000
0001
0000
0000
0000
0000
0000
0000
0000
1000
0000
0000
0000
0001
0000
0000
0000
0010
0000
0000
0000
0010
0000
0000
0000
0000
0000
0000
0010
0000
0000
0000
0000
1000
0000
0000
0000
0000
0000
0000
0000
0001
0000
0000
0000
0010
0000
0000
0000
,  // measure 15
0100
0000
0000
0000
1000
0000
0000
0000
0000
0000
0000
0000
1000
0000
0000
0000
0001
0000
0000
0000
0100
0000
0000
0000
0100
0000
0000
0000
0000
0000
0000
0100
0000
0000
0000
0000
1000
0000
0000
0000
0000
0000
0000
0000
0000
0000
0000
0000
1000
0000
0000
0000
0010
0000
0000
0000
1000
0000
0000
0000
0001
0000
0000
0000
,  // measure 16
1000
0000
0100
0000
0000
0M00
0001
0000
0100
0000
0000
0000
0001
0000
0000
0000
0020
0000
0000
0000
2030
0000
3020
0000
0031
0000
1000
0000
0000
0000
0001
0000
,  // measure 17
0100
0000
0000
0000
0010
0000
0000
0000
0000
0000
0000
0000
1000
0000
0000
0000
0001
0000
0000
0000
1000
0000
0000
0000
0001
0000
0000
0000
1000
0000
0000
0000
0100
0000
0000
0000
0100
0000
0000
0000
0000
0000
0000
0100
0000
0000
0000
0000
0001
0000
0000
0000
0010
0000
0000
0000
0001
0000
0000
0000
1000
0000
0000
0000
,  // measure 18
0001
0000
0100
0000
0000
0M00
1000
0000
0100
0000
0000
0000
1000
0000
0000
0000
0020
0000
0000
0000
0032
0000
0023
0000
2000
0000
0000
0000
0000
0000
0000
0000
,  // measure 19
3030
0000
0000
0000
,  // measure 20
0000
0000
0000
0000
,  // measure 21
0000
0000
0000
0000
,  // measure 22
0000
0000
0000
0000
,  // measure 23
0000
0000
0000
0000
,  // measure 24
0000
0000
0000
0000
,  // measure 25
0000
0000
0000
0000
,  // measure 26
0000
0000
0000
0000
0000
0000
0000
0000
0000
0000
0000
0000
0000
0000
0000
0000
0000
0000
0000
0000
0000
0000
0000
0000
0000
0000
0000
0000
0000
0000
0000
0000
0000
0000
0000
0000
0000
0000
0000
0000
0000
0000
0000
0000
0000
0000
0000
0000
0000
0000
0000
0000
0000
0000
0000
0000
0000
0000
0000
0000
0000
0000
0000
0000
0000
0000
0000
0000
0000
0000
0000
0000
0000
0000
0000
0000
0000
0000
0000
0000
0000
0000
0000
0000
0000
0000
0000
0000
0000
0000
0000
0000
0000
0000
0000
0000
0000
0000
0000
0000
0000
0000
0000
0000
0000
0000
0000
0000
0000
0000
0000
0000
0000
0000
0000
0000
0000
0000
0000
0000
0000
0000
0000
0000
0000
0000
0000
0000
0000
0000
0000
0000
0000
0000
0000
0000
0000
0000
0000
0000
0000
0000
0000
0000
1M00
0000
0000
0000
0000
0000
0000
0000
0000
0000
0M00
0000
0000
0000
0000
0000
0000
0000
0000
0M00
0000
0000
0000
0000
0010
0000
0000
0000
0000
0M00
0000
0000
0000
0000
0000
0000
0000
0000
0M00
0000
0000
0000
0000
0000
0000
0000
0000
0000
,  // measure 27
0M11
0000
0000
0000
0000
0000
0000
0000
0000
0000
0M00
0000
0000
0000
0000
0000
0000
0000
0000
0M00
0000
0000
0000
0000
0000
0000
0000
0000
0000
0M00
0000
0000
0000
0000
0000
0000
0000
0000
0M00
0000
0000
0000
0000
0000
0000
0000
0000
0000
0M01
0000
0000
0000
0000
0000
0000
0000
0000
0000
0M00
0000
0000
0000
0000
0000
0000
0000
0000
0M00
0000
0000
0000
0000
0010
0000
0000
0000
0000
0M00
0000
0000
0000
0000
0000
0000
0000
0000
0M00
0000
0000
0000
0000
0000
0000
0000
0000
0000
1M10
0000
0000
0000
0000
0000
0000
0000
0000
0000
0M00
0000
0000
0000
0000
0000
0000
0000
0000
0M00
0000
0000
0000
0000
0010
0000
0000
0000
0000
0M00
0000
0000
0000
0000
0000
0000
1000
0000
0M00
0000
0000
0000
0000
0000
0000
0000
0000
0000
0M01
0000
0000
0000
0000
0000
0000
0000
0000
0000
0M00
0000
0000
0000
0000
0000
0000
0000
0000
0M00
0000
0000
0000
0000
0010
0000
0000
0000
0000
0M00
0000
0000
0000
0000
0000
0000
0000
0000
0M00
0000
0000
0000
0000
0000
0000
0000
0000
0000
,  // measure 28
1M10
0000
0000
0000
0000
0000
0000
0000
0000
0000
0M00
0000
0000
0000
0000
0000
0000
0000
0000
0M00
0000
0000
0000
0000
0000
0000
0000
0000
0000
0M00
0000
0000
0000
0000
0000
0000
0000
0000
0M00
0000
0000
0000
0000
0000
0000
0000
0000
0000
1M00
0000
0000
0000
0000
0000
0000
0000
0000
0000
0M00
0000
0000
0000
0000
0000
0000
0000
0000
0M00
0000
0000
0000
0000
0010
0000
0000
0000
0000
0M00
0000
0000
0000
0000
0000
0000
0000
0000
0M00
0000
0000
0000
0000
0000
0000
0000
0000
0000
0M11
0000
0000
0000
0000
0000
0000
0000
0000
0000
0000
0000
0000
0000
0000
0000
0000
0000
0000
0000
0000
0000
0000
0000
0001
0000
0000
0000
0000
0000
0000
0000
0000
0000
0000
0000
0000
0000
0000
0000
0000
0000
0000
0000
0000
0000
0000
0000
0100
0000
0000
0000
0000
0000
0000
0000
0000
0000
0000
0000
0000
0000
0000
0000
0000
0000
0000
0000
0000
0000
0000
0000
0010
0000
0000
0000
0000
0000
0000
0000
0000
0000
0000
0000
0000
0000
0000
0000
0000
0000
0000
0000
0000
0000
0000
0000
,  // measure 29
1010
0000
00M0
0000
0100
0000
0010
0000
0011
0000
0001
1000
0010
0000
0100
0000
,  // measure 30
0101
0000
0M00
0000
0010
0100
0000
0100
0010
0001
10M0
0001
0100
0010
1000
0001
,  // measure 31
0100
0010
0100
0001
1000
0100
0010
0001
0100
0000
0010
1000
0001
0010
0100
0010
,  // measure 32
0002
0003
0000
0000
1000
0000
0000
0000
0001
0000
0000
0000
0100
0000
0000
0000
0020
0000
0030
0000
1000
0000
0000
0000
0001
0000
0000
0000
1000
0000
0000
0000
0200
0000
0000
0300
0000
0000
0000
0000
0010
0000
0000
0000
0100
0000
0000
0000
2000
0000
0000
0000
3000
0000
0000
0000
0001
0000
0000
0000
0100
0000
0000
0000
,  // measure 33
0020
0000
0000
0030
1000
0000
0100
0000
0002
0000
0000
0000
0103
0000
1000
0000
0020
0000
0000
0000
0100
0030
0001
0000
1001
0000
0000
0000
0000
0000
0000
0000
,  // measure 34
0000
0000
0000
0000
,  // measure 35
0000
0000
0000
0000
,  // measure 36
0000
0000
0000
0000
,  // measure 37
0000
0000
0000
0000
,  // measure 38
0000
0000
0000
0000
,  // measure 39
0000
0000
0000
0000
0000
0000
0000
0000
0000
0000
0000
0000
0001
0010
0100
0010
,  // measure 40
0002
0003
0000
0000
1000
0000
0000
0000
0001
0000
0000
0000
0100
0000
0000
0000
0020
0000
0030
0000
1000
0000
0000
0000
0001
0000
0000
0000
1000
0000
0000
0000
0200
0000
0000
0300
0000
0000
0000
0000
0010
0000
0000
0000
0001
0000
0000
0000
2000
0000
0000
0000
3000
0000
0000
0000
0001
0000
0000
0000
0100
0000
0000
0000
,  // measure 41
0020
0000
0000
0030
1000
0000
0100
0000
0002
0000
0000
0000
0103
0000
1000
0000
0020
0000
0000
0000
0100
0030
0001
0000
2002
0000
0000
0000
0000
0000
0MM0
0000
,  // measure 42
0000
0000
0000
0000
0000
0000
3003
0000
0004
4000
0000
0000
0000
0000
0000
0000
0000
0000
0000
0000
3003
0000
0000
0000
1200
0000
0000
0000
0000
0000
0000
0000
,  // measure 43
0310
0000
0000
0000
0001
0000
0000
0000
0100
0000
0000
0200
0000
0000
0000
0000
1000
0000
0000
0000
0000
0000
0000
0000
0000
0000
0000
0000
0000
0000
0000
0000
0310
0000
0000
0000
0001
0000
0000
0000
1000
0000
0000
0000
0020
0000
0000
0000
0100
0000
0000
0000
0000
0000
0000
0000
0000
0000
0000
0000
0000
0000
0000
0000
,  // measure 44
1030
0000
0000
0000
0100
0000
0000
0000
1000
0000
0000
0000
0000
0000
0000
0000
0001
0000
0000
0000
0000
0000
0000
0000
1000
0000
0000
0000
0001
0000
0000
0000
0100
0000
0000
0100
0000
0000
0000
0000
0000
0000
0000
0000
0100
0000
0000
0000
2000
0000
0000
0000
0000
0000
0000
0000
0000
0000
0000
0000
0000
0000
0000
0000
,  // measure 45
0010
0000
0000
0000
0000
0000
0000
0000
0000
0000
0000
0000
0000
0000
0000
0000
0100
0000
0000
0000
0000
0000
0000
0000
0000
0000
0000
0000
0000
0000
0000
0000
3010
0000
0000
0010
0000
0000
0000
0000
0001
0000
0000
0000
0020
0000
0000
0000
0100
0000
0000
0000
0000
0000
0000
0000
0000
0000
0000
0000
0000
0000
0000
0000
,  // measure 46
0001
0000
0000
0000
0000
0000
0000
0000
0130
0000
0000
0000
0000
0000
0000
0000
1000
0000
0000
0000
0010
0000
0000
0010
0000
0000
0000
0000
0000
0000
0000
0000
0012
0000
0000
0000
0000
0000
0000
0000
0000
0000
0000
0000
0000
0000
0000
0000
1003
0000
0000
0000
0000
0000
0000
0000
0010
0000
0000
0000
0000
0000
0000
0000
,  // measure 47
0002
0000
0000
0013
0100
0010
1000
0001
1000
0000
1000
0010
0100
0000
0100
0000
,  // measure 48
0001
0000
0000
0000
0000
0000
0000
0000
0010
0000
0000
0010
0000
0000
0000
0000
1000
0000
0000
0000
0000
0000
0000
0000
0010
0000
0000
0000
0000
0000
00M0
0000
0001
0000
0000
0000
0010
0000
0000
0000
0000
0000
0000
0000
0010
0000
0000
0000
0200
0000
0000
0000
0000
0000
0000
0000
1000
0000
0000
0000
0000
0000
0000
0000
,  // measure 49
1000
0000
0000
0000
0000
0000
0000
0000
0000
0000
0000
0000
0000
0000
0000
0000
0000
0000
0000
0000
0000
0000
0000
0000
1300
0000
0000
0000
0000
0000
0000
0000
0000
0000
0000
0000
0010
0000
0000
0000
0000
0000
0000
0000
0000
0000
0000
0000
0100
0000
0000
0000
0000
0000
0000
0000
0000
0000
0000
0000
0001
0000
0000
0000
0000
0000
0000
0000
0000
0000
0000
0000
1000
0000
0000
0000
0000
0000
0000
0000
0000
0000
0000
0000
0001
0000
0000
0000
0000
0000
0000
0000
0000
0000
0000
0000
0010
0000
0000
0000
0000
0000
0000
0000
0000
0000
0000
0000
0010
0000
0000
0000
0000
0000
0000
0000
0000
0000
0000
0000
0000
0000
0000
0000
0000
0000
0000
0000
0000
0010
0000
0000
0000
0000
0000
0000
0000
0000
0000
0000
0000
0000
0000
0000
1000
0000
0000
0000
0000
0000
0000
0000
0000
0000
0000
0000
0000
0000
0000
0000
1000
0000
0000
0000
0000
0000
0000
0000
0000
0000
0000
0000
0000
0000
0000
0000
1000
0000
0000
0000
0000
0000
0000
0000
0000
0000
0000
0000
0000
0000
0000
0000
,  // measure 50
0001
0000
0000
0000
0000
0000
0000
0000
0010
0000
0000
0010
0000
0000
0000
0000
1000
0000
0000
0000
0010
0000
0000
0010
0000
0000
0000
0000
0000
0000
0000
0000
0001
0000
0000
0000
0000
0000
0000
0000
0100
0000
0000
0000
0010
0000
0000
0000
1000
0000
0000
0000
0000
0000
0000
0000
0100
0000
0000
0000
0000
0000
0000
0000
,  // measure 51
1000
0100
0000
0001
0100
0000
1000
0000
0010
0000
1000
0000
0001
0000
0100
0000
,  // measure 52
0001
0100
0000
1000
0100
0000
0001
0000
0010
0000
0001
0000
1000
0010
1000
0001
,  // measure 53
0010
0001
1000
0010
0100
0000
0001
0000
0010
0000
0001
1000
00M0
0000
00M0
0000
,  // measure 54
00M0
00M0
00M0
00M0
00M0
00M0
00M0
00M0
,  // measure 55
00M0
00M0
00M0
00M0
00M0
00M0
00M0
0000
,  // measure 56
0000
0000
0000
0000
,  // measure 57
0000
0000
0000
0000
,  // measure 58
0000
0000
0000
0000
,  // measure 59
0000
0000
0000
0000
,  // measure 60
0000
0000
0000
0000
,  // measure 61
0000
0000
0000
0000
,  // measure 62
0000
0000
0000
0000
,  // measure 63
0000
0000
0000
0000
,  // measure 64
0000
0000
0000
0000
,  // measure 65
0000
0000
0000
0000
,  // measure 66
0000
0000
0000
0000
,  // measure 67
0000
0000
0000
0000
,  // measure 68
0000
0000
0000
0000
,  // measure 69
0000
0000
0000
0000
,  // measure 70
0000
0000
0000
0000
11M0
0000
00M0
1000
00M2
0000
00M0
0103
10M0
0000
01M0
0000
,  // measure 71
00M1
0000
0000
0000
1000
0000
0000
0000
01M0
0000
0000
0100
0000
0000
0000
0000
00M1
0000
0000
0000
0000
0000
0000
0000
00M0
0000
0000
0000
1000
0000
0000
0000
01M0
0000
0000
0000
0000
0000
0000
0000
00M1
0000
0000
0000
0100
0000
0000
0000
10M0
0000
0000
0000
0000
0000
0000
0000
00M1
0000
0000
0000
0000
0000
0000
0000
,  // measure 72
01M0
0000
0000
0000
0000
0000
0000
0000
0000
0000
0000
0000
0000
0000
0000
0000
0100
0000
0000
0000
0000
0000
0000
0000
00M0
0000
0000
0000
0000
0000
0000
0000
0000
0100
0000
0000
0000
0000
0000
0000
0000
0000
0000
0000
0000
0000
0000
0000
10M0
0000
0000
0000
0000
0000
0000
0000
0000
0000
0000
0000
0000
0000
0000
0000
0000
0000
0000
0000
0000
0000
0000
0000
2000
0000
0000
0000
0000
0000
0000
0000
0000
0000
0000
0000
0000
0000
0000
0000
0000
0000
0000
0000
0000
0000
0000
0000
0010
0000
0000
0000
0000
0000
0000
0000
0000
0000
0000
0000
0000
0000
0000
0000
0000
0000
0000
0000
0000
0000
0000
0000
3001
0000
0000
0000
0000
0000
0000
0000
0000
0000
0000
0000
0100
0000
0000
0000
0000
0000
0000
0000
0000
0000
0000
0000
0040
0000
0000
0000
0000
0000
4000
0000
0000
0000
0000
0000
0000
0000
0000
0000
0000
0000
0000
0000
0000
0000
0000
0000
0000
0000
0000
0000
0000
0000
0000
0000
0000
0000
0000
0000
0000
0000
0000
0000
0000
0000
0000
0000
0000
0000
0000
0000
,  // measure 73
0000
0000
0000
0000
0000
0000
0000
0000
303M
0000
0M00
0000
000M
0M00
M011
0M00
0000
0000
0012
0000
0000
0000
0103
M000
0010
0000
1000
0000
0001
0000
0010
0000
,  // measure 74
0000
0000
0000
0000
1000
0000
0000
0000
0000
0000
0000
0000
0010
0000
0000
0000
0001
0000
0000
0000
0000
0000
0000
0000
0100
0000
0000
0100
0000
0000
0000
0000
1000
0000
0000
0000
0000
0000
0000
0000
0100
0000
0000
0100
0000
0000
0000
0000
0001
0000
0000
0000
1000
0000
0000
0000
0010
0000
0000
0000
1000
0000
0000
0000
,  // measure 75
0001
0010
0100
0010
0001
0100
0010
1000
0001
0100
0010
1000
0001
0010
0000
1000
,  // measure 76
0000
0000
0000
0000
0010
0000
0000
0000
0100
0000
0000
0000
0010
0000
0000
0000
0001
0000
0000
0000
0100
0000
0000
0000
0000
0000
0000
0100
0000
0000
0000
0000
1000
0000
0000
0000
0100
0000
0000
0000
0000
0000
0000
0100
0000
0000
0000
0000
0001
0000
0000
0000
0010
0000
0000
0000
0100
0000
0000
0000
1000
0000
0000
0000
,  // measure 77
0001
0000
0010
0000
0100
0000
1000
0000
00M0
0000
M000
000M
00M0
000M
M000
000M
0010
0000
0001
0000
1000
0000
0010
0000
0100
0000
0001
0000
1000
0000
0001
0000
,  // measure 78
0100
0000
0000
0000
0001
0000
0000
0000
1000
0000
0000
0000
0001
0000
0000
0000
0010
0000
0000
0010
0000
0000
0000
0000
1000
0000
0000
0000
0001
0000
0000
0000
0100
0000
0000
0000
0010
0000
0000
0000
2000
3000
0000
0000
0001
0000
0000
0000
2000
3000
0000
0000
0100
0000
0000
0000
2000
3000
0000
0000
0001
0000
0000
0000
,  // measure 79
2000
3000
0000
0000
0010
0000
0000
0010
0000
0000
0000
0000
0002
0003
0000
0000
1000
0000
0000
0000
0002
0003
0000
0000
0100
0000
0000
0000
0002
0003
0000
0000
1000
0000
0000
0000
0001
0000
0000
0000
0020
0030
0000
0000
0100
0000
0000
0000
0020
0030
0000
0000
1000
0000
0000
0000
0020
0030
0000
0000
0100
0000
0000
0000
,  // measure 80
0020
0030
0000
0000
0001
0000
0000
0000
1000
0000
0000
0000
0002
0003
0000
0000
0100
0000
0000
0200
0300
0000
0000
0000
1000
0000
0000
0000
0200
0300
0000
0000
1000
0000
0000
0000
0001
0000
0000
0000
0200
0300
0000
0000
0010
0000
0000
0000
0002
0003
0000
0000
0010
0000
0000
0000
0200
0300
0000
0000
0010
0000
0000
0000
,  // measure 81
2000
3000
0000
0000
0100
0000
0000
0100
0000
0000
0000
0000
0002
0003
0000
0000
1000
0000
0000
0000
0020
0030
0000
0000
0100
0000
0000
0000
0020
0030
0000
0000
2000
0000
0000
0000
3100
0000
0000
0000
0010
0000
0000
0000
0001
0000
0000
0000
0000
0000
0000
0000
0001
0000
0000
0000
0100
0000
0000
0000
0010
0000
0000
0000
,  // measure 82
0000
0100
0001
1000
0000
1000
0100
0010
0000
0001
0100
1000
0000
1000
0100
0001
,  // measure 83
0000
1000
0100
0001
0000
0001
0100
1000
0002
0013
0100
1000
0001
1000
0010
0100
,  // measure 84
0001
1000
0001
0010
0100
1000
0001
0100
0010
0100
0001
0010
0100
0010
0001
0100
,  // measure 85
0010
0000
0000
0000
0000
0000
0000
0000
0000
0000
0000
0000
1000
0000
0000
0000
0000
0000
0000
0000
0000
0000
0000
0000
0100
0000
0000
0000
0000
0000
0000
0000
0000
0000
0000
0000
0010
0000
0000
0000
0000
0000
0000
0000
0000
0000
0000
0000
0100
0000
0000
0000
0000
0000
0000
0000
0000
0000
0000
0000
1000
0000
0000
0000
0000
0000
0000
0000
0000
0000
0000
0000
0010
0000
0000
0000
0000
0000
0000
0000
0000
0000
0000
0000
0100
0000
0000
0000
0000
0000
0000
0000
0000
0000
0000
0000
0002
0000
0000
0000
0000
0000
0000
0000
0000
0000
0000
0000
0000
0013
0000
0000
0000
0000
0000
0000
0000
0000
0000
0000
0000
0000
0100
0000
0000
0000
0000
0000
0000
0000
0000
0000
0000
0000
0000
0010
0000
0000
0000
0000
0000
0000
0000
0000
0000
0000
0000
0000
0001
0000
0000
0000
0000
0000
0000
0000
0000
0000
0000
0000
0000
1000
0000
0000
0000
0000
0000
0000
0000
0000
0000
0000
0000
0000
0010
0000
0000
0000
0000
0000
0000
0000
0000
0000
0000
0000
0000
0100
0000
0000
0000
0000
,  // measure 86
0000
0000
0000
0000
0000
0000
0000
0000
0001
0000
0000
0000
0000
0000
0000
0000
0000
0000
0000
0000
0000
0010
0000
0000
0000
0000
0000
0000
0000
0000
0000
0000
0000
0000
0100
0000
0000
0000
0000
0000
0000
0000
0000
0000
0000
0000
0000
0010
0000
0000
0000
0000
0000
0000
0000
0000
0000
0000
0000
0000
1000
0000
0000
0000
0000
0000
0000
0000
0000
0000
0000
0000
0000
0010
0000
0000
0000
0000
0000
0000
0000
0000
0000
0000
0000
0000
0100
0000
0000
0000
0000
0000
0000
0000
0000
0000
0000
0000
0000
0010
0000
0000
0000
0000
0000
0000
0000
0000
0000
0000
0000
0000
0002
0000
0000
0000
0000
0000
0000
0000
0000
0000
0000
0000
0003
0000
1000
0000
0000
0000
0000
0000
0000
0000
0000
0000
0000
0000
0000
0000
0010
0000
0000
0000
0000
0000
0000
0000
0000
0000
0000
0000
0000
0000
0100
0000
0000
0000
0000
0000
0000
0000
0000
0000
0000
0000
0000
0000
0001
0000
0000
0000
0000
0000
0000
0000
0000
0000
0000
0000
0000
0000
1000
0000
0000
0000
0000
0000
0000
0000
0000
0000
,  // measure 87
0000
0000
0000
0000
0100
0000
0000
0000
0000
0000
0000
0000
0000
0000
0000
0000
0000
0000
0010
0000
0000
0000
0000
0000
0000
0000
0000
0000
0000
0000
0000
0000
0001
0000
0000
0000
0000
0000
0000
0000
0000
0000
0000
0000
0000
0000
0100
0000
0000
0000
0000
0000
0000
0000
0000
0000
0000
0000
0000
0000
0010
0000
0000
0000
0000
0000
0000
0000
0000
0000
0000
0000
0000
0000
0100
0000
0000
0000
0000
0000
0000
0000
0000
0000
0000
0000
0000
0000
1000
0000
0000
0000
0000
0000
0000
0000
0000
0000
0000
0000
0000
0000
0100
0000
0000
0000
0000
0000
0000
0000
0000
0000
0000
0000
0000
0000
0010
0000
0000
0000
0000
0000
0000
0000
0000
0000
0000
0000
0000
0000
0100
0000
0000
0000
0000
0000
0000
0000
0000
0000
0000
0000
0000
0000
0002
0000
0000
0000
0000
0000
0000
0000
0000
0000
0000
0000
0000
0000
0000
1003
0000
0000
0000
0000
0000
0000
0000
0000
0000
0000
0000
0000
0000
0000
0100
0000
0000
0000
0000
0000
0000
0000
0000
0000
0000
0000
0000
0000
0000
0010
0000
0000
,  // measure 88
0000
0000
0000
0000
0000
0000
0000
0000
0000
0000
0000
0000
0001
0000
0000
0000
0000
0000
0000
0000
0000
0000
0000
0000
0000
0000
0000
0100
0000
0000
0000
0000
0000
0000
0000
0000
0000
0000
0000
0000
0000
0000
0010
0000
0000
0000
0000
0000
0000
0000
0000
0000
0000
0000
0000
0000
0000
1000
0000
0000
0000
0000
0000
0000
0000
0000
0000
0000
0000
0000
0000
0000
0200
0000
0000
0000
0000
0000
0000
0000
0000
0000
0000
0000
0000
0000
0000
0000
0310
0000
0000
0000
0000
0000
0000
0000
0000
0000
0000
0000
0000
0000
0000
0000
0100
0000
0000
0000
0000
0000
0000
0000
0000
0000
0000
0000
0000
0000
0000
0000
0001
0000
0000
0000
0000
0000
0000
0000
0000
0000
0000
0000
0000
0000
0000
0000
0100
0000
0000
0000
0000
0000
0000
0000
0000
0000
0000
0000
0000
0000
0000
0000
0010
0000
0000
0000
0000
0000
0000
0000
0000
0000
0000
0000
0000
0000
0000
0000
0100
0000
0000
0000
0000
0000
0000
0000
0000
0000
0000
0000
0000
0000
0000
0000
1000
0000
0000
0000
0000
0000
0000
0000
,  // measure 89
0000
0000
0000
0000
0000
0000
0000
0000
0002
0000
0000
0000
0000
0000
0000
0000
0000
0000
0000
0000
0000
0000
0000
0000
0000
0103
0000
0000
0000
0000
0000
0000
0000
0000
0000
0000
0000
0000
0000
0000
0000
0000
0010
0000
0000
0000
0000
0000
0000
0000
0000
0000
0000
0000
0000
0000
0000
0000
0000
1000
0000
0000
0000
0000
0000
0000
0000
0000
0000
0000
0000
0000
0000
0000
0000
0000
0001
0000
0000
0000
0000
0000
0000
0000
0000
0000
0000
0000
0000
0000
0000
0000
0000
0010
0000
0000
0000
0000
0000
0000
0000
0000
0000
0000
0000
0000
0000
0000
0000
0000
0100
0000
0000
0000
0000
0000
0000
0000
0000
0000
0000
0000
0000
0000
0000
0000
0000
1000
0000
0000
0000
0000
0000
0000
0000
0000
0000
0000
0000
0000
0000
0000
0000
0000
0020
0000
0000
0000
0000
0000
0000
0000
0000
0000
0000
0000
0000
0000
0000
0000
0000
0000
0130
0000
0000
0000
0000
0000
0000
0000
0000
0000
0000
0000
0000
0000
0000
0000
0000
0000
0010
0000
0000
0000
0000
0000
0000
0000
0000
0000
0000
0000
,  // measure 90
0000
0000
0001
0000
0000
0000
0000
0000
0010
0000
0000
0000
0000
0000
0100
0000
0000
0000
0000
0000
0010
0000
0000
0000
0000
0000
2000
0000
0000
0000
0000
0000
0002
0000
0000
0000
0000
0000
0000
0000
3M03
0000
00M0
0000
000M
0000
M000
0000
00M0
0000
0000
0000
0000
0000
0000
0000
0000
0000
0M00
0000
0000
0M00
0000
0000
,  // measure 91
0M00
0000
0000
0000
0000
0000
0000
0000
0000
0000
0110
0000
0000
0000
0000
0000
0000
0000
0000
0000
0000
0000
0000
2002
0000
0000
0000
0000
0000
0000
0000
0000
0000
0000
0000
0000
0000
0000
0000
0000
0000
0000
0000
0000
0000
0000
0000
0000
0000
0000
0000
0000
3003
0000
0000
0000
0000
0000
0000
0000
0000
0000
0000
0000
;
