#TITLE:Gradation;
#SUBTITLE:;
#ARTIST:The Natural Mahoganies;
#TITLETRANSLIT:;
#SUBTITLETRANSLIT:;
#ARTISTTRANSLIT:;
#GENRE:;
#CREDIT:;
#BANNER:;
#BACKGROUND:;
#LYRICSPATH:;
#CDTITLE:;
#MUSIC:Gradation.mp3;
#OFFSET:-1.159000;
#SAMPLESTART:75.778000;
#SAMPLELENGTH:12.000000;
#SELECTABLE:YES;
#BPMS:0.000000=125.395004
;
#STOPS:
;
#BGCHANGES:;
#KEYSOUNDS:;
#ATTACKS:;

//---------------dance-single - ----------------
#NOTES:
     dance-single:
     :
     Challenge:
     9:
     0.497788,0.576037,0.194033,0.396151,0.436575,431.000000,407.000000,24.000000,49.000000,0.000000,0.000000,0.497788,0.576037,0.194033,0.396151,0.436575,431.000000,407.000000,24.000000,49.000000,0.000000,0.000000:
// measure 0
0000
0000
0000
0000
,  // measure 1
0000
0000
0000
0000
,  // measure 2
0000
0000
0000
0000
,  // measure 3
0000
0000
0000
0000
,  // measure 4
0000
0000
0000
0000
,  // measure 5
0001
0000
0001
1000
0000
1000
0010
0000
0020
0000
0100
0000
0130
0000
0010
0000
,  // measure 6
1000
0000
1000
0001
0000
0001
0010
0000
0020
0000
0100
0000
0130
0000
0010
0000
,  // measure 7
0100
0000
0100
1000
0000
1000
0001
0000
0002
0000
0100
0000
0203
0000
0010
0000
,  // measure 8
0320
0000
0000
0100
0000
0000
1030
0000
0001
0000
0000
0000
0001
0000
1000
0000
,  // measure 9
0100
0000
0010
0100
0000
1000
0100
0000
0010
0000
0001
0000
1000
0000
0010
0000
,  // measure 10
0100
0000
0010
1000
0000
0001
0010
0000
0100
0000
0010
0000
0011
0000
0000
0000
,  // measure 11
0010
0000
0100
0010
0000
0001
0010
0000
0100
0000
1000
0000
0001
0000
0100
0000
,  // measure 12
0010
0000
0000
0010
0000
0000
0010
0000
0010
0100
0001
1000
0100
0010
0100
0010
,  // measure 13
0100
0000
1000
0100
0000
1000
0001
0000
0100
0000
0010
0000
0001
0000
1000
0000
,  // measure 14
0200
0000
0000
0001
0000
0000
0010
0000
0310
0000
0000
0000
0100
0000
0100
0000
,  // measure 15
0001
0000
1000
0001
0000
1000
0100
0000
0010
0000
0100
0000
0001
0000
1000
0000
,  // measure 16
0020
0000
0000
0100
0000
0000
0001
0000
0031
0000
0000
0000
1000
0000
1000
0000
,  // measure 17
0010
0000
1000
0010
0000
1000
0001
0000
0010
0000
0100
0000
0001
0000
1000
0000
,  // measure 18
0020
0000
0000
0001
0000
0000
0100
0000
0130
0000
0000
0000
0010
0000
0010
0000
,  // measure 19
0012
0000
0000
0010
0000
0000
1000
0000
1000
0000
0000
0000
0103
0000
0000
0000
,  // measure 20
0201
0000
0000
0001
0000
0000
0010
0000
0010
0000
0000
0000
1300
0000
0000
0000
,  // measure 21
1200
0000
0000
1000
0000
0000
1000
0000
0000
0000
0010
0000
0000
0010
0000
0000
,  // measure 22
0301
0000
0000
0001
0000
0000
0001
0000
0000
0000
0001
0000
1000
0000
0010
0000
,  // measure 23
0200
0000
0000
0302
0000
0000
0023
0000
0230
0000
0000
0302
0000
0000
0203
0000
,  // measure 24
0320
0000
0000
2030
0000
0000
3020
0000
0230
0000
0000
2300
0000
0000
3002
0000
,  // measure 25
0203
0000
0000
2300
0000
0000
3200
0000
0320
0000
0000
0000
2030
0000
0000
0000
,  // measure 26
3200
0001
0010
1300
,  // measure 27
1100
0000
0000
0110
0000
0000
0011
0000
2000
0000
0000
3200
0000
0000
0310
0000
,  // measure 28
0011
0000
0000
0110
0000
0000
1100
0000
0002
0000
0000
0023
0000
0000
0230
0000
,  // measure 29
2300
0000
0000
3002
0000
0000
0023
0000
0230
0000
0000
0000
0310
0000
0001
0000
,  // measure 30
0100
0000
0000
1000
0000
0000
0200
0000
0302
0000
0003
0000
0100
0000
0001
0000
,  // measure 31
1000
0000
0100
0010
0000
0100
1000
0000
0100
0000
0010
0001
0010
0000
0100
0000
,  // measure 32
0010
0000
0001
1000
0000
0001
0100
0000
0001
0000
1000
0010
1000
0000
0001
0000
,  // measure 33
0100
0000
0010
0100
0010
0000
0100
0000
0001
0000
0100
0001
0100
0000
0001
0000
,  // measure 34
1000
0000
0001
1000
0001
0000
1000
0100
1000
0000
0100
0010
0100
0010
0001
0010
,  // measure 35
0001
0000
0010
0100
0000
0010
0001
0000
0010
0000
0100
1000
0100
0000
0100
0000
,  // measure 36
1000
0000
0001
1000
0000
0001
0100
0000
0001
0000
1000
0010
1000
0000
0001
0000
,  // measure 37
0200
0000
0000
0001
0000
0000
0010
0000
0000
0000
1300
0000
0100
0000
0001
0000
,  // measure 38
0020
0000
0000
0100
0000
0000
0031
0000
0010
0000
0100
0000
1001
0000
0000
0000
,  // measure 39
0001
0000
1000
0010
0000
1000
0001
0000
0010
0001
1000
0010
0100
0001
1000
0100
,  // measure 40
0010
0000
0100
1000
0000
0001
0100
0000
0010
0000
0110
0000
1001
0000
1000
0000
,  // measure 41
0010
0000
1000
0001
0000
1000
0100
0010
0000
0100
1000
0001
0100
0000
0010
0000
,  // measure 42
0110
0000
0000
1001
0000
0000
1000
0000
0001
0100
0001
0100
0020
0000
0000
0000
,  // measure 43
0130
0000
0001
0100
0000
0001
1000
0000
0100
1000
0001
0100
0010
1000
0001
0010
,  // measure 44
0100
0000
0010
0001
0000
1000
0010
0000
0100
0000
0110
0000
1001
0000
1000
0000
,  // measure 45
0001
0000
0100
0010
0000
0100
0001
0000
1000
0000
0100
0000
0001
0000
0100
0000
,  // measure 46
0010
0000
0000
0010
0000
0000
0010
0000
0010
0100
1000
0001
0100
0010
0100
0010
,  // measure 47
0100
0000
0001
0100
0000
0001
1000
0000
0100
0000
0010
0000
1000
0000
0001
0000
,  // measure 48
0200
0000
0000
1000
0000
0000
0010
0000
0310
0000
0000
0000
0100
0000
0100
0000
,  // measure 49
1000
0000
0001
1000
0000
0001
0100
0000
0010
0000
0100
0000
1000
0000
0001
0000
,  // measure 50
0020
0000
0000
0100
0000
0000
1000
0000
1030
0000
0000
0000
0001
0000
0001
0000
,  // measure 51
0010
0000
0001
0010
0000
0001
1000
0000
0010
0000
0100
0000
1000
0000
0001
0000
,  // measure 52
0020
0000
0000
1000
0000
0000
0100
0000
0130
0000
0000
0000
0010
0000
0010
0000
,  // measure 53
2010
0000
0000
0010
0000
0000
0001
0000
0001
0000
0000
0000
3100
0000
0000
0000
,  // measure 54
1200
0000
0000
1000
0000
0000
0010
0000
0010
0000
0000
0000
0301
0000
0000
0000
,  // measure 55
0201
0000
0000
0001
0000
0000
0001
0000
0000
0000
0010
0000
1000
0000
1000
0000
,  // measure 56
1300
0000
0000
0110
0000
0000
0100
0000
1000
0000
1001
0000
1010
0000
0000
0000
,  // measure 57
0101
0000
0000
0000
;

//---------------dance-single - ----------------
#NOTES:
     dance-single:
     :
     Hard:
     7:
     0.349953,0.483871,0.153610,0.145525,0.165737,303.000000,284.000000,19.000000,18.000000,0.000000,0.000000,0.349953,0.483871,0.153610,0.145525,0.165737,303.000000,284.000000,19.000000,18.000000,0.000000,0.000000:
// measure 0
0000
0000
0000
0000
,  // measure 1
0000
0000
0000
0000
,  // measure 2
0000
0000
0000
0000
,  // measure 3
0000
0000
0000
0000
,  // measure 4
0000
0000
0000
0000
,  // measure 5
1000
0000
0000
0100
0000
0000
0001
0000
0100
0000
1000
0000
0010
0000
0000
0000
,  // measure 6
0100
0000
0000
1000
0000
0000
0100
0000
0001
0000
0000
0000
0110
0000
0000
0000
,  // measure 7
0001
0000
0000
0010
0000
0000
1000
0000
0010
0000
0000
0000
0100
0000
0000
0000
,  // measure 8
2000
0000
3001
1000
,  // measure 9
1001
0000
0000
1010
0000
0000
0110
0000
0100
0000
0001
0000
1000
0000
0001
0000
,  // measure 10
1001
0000
0000
1100
0000
0000
0110
0000
0010
0000
0000
0000
1100
0000
0000
0000
,  // measure 11
1001
0000
0000
0101
0000
0000
0110
0000
0010
0000
0000
0000
0100
0000
0000
0000
,  // measure 12
0002
0000
0000
0000
1003
0100
0010
0001
,  // measure 13
1000
0000
0000
0010
0000
0000
0001
0000
0001
0000
0000
0000
1000
0000
0000
0000
,  // measure 14
0200
0000
0000
0000
0301
0000
0100
0001
,  // measure 15
0010
0000
0000
1000
0000
0000
0001
0000
0001
0000
0000
0000
0100
0000
0000
0000
,  // measure 16
2000
0000
0000
0000
3001
0000
0010
0010
,  // measure 17
0001
0000
0000
0100
0000
0000
1000
0000
1000
0000
0000
0000
0001
0000
0000
0000
,  // measure 18
0020
0000
0000
0000
1030
0000
0001
0010
,  // measure 19
0200
0000
0001
0010
,  // measure 20
2300
0000
0100
0001
,  // measure 21
3020
0000
0000
1000
0000
0000
1000
0000
0000
0000
0100
0000
0000
0100
0000
0000
,  // measure 22
1030
0000
0000
1000
0000
0000
1000
0000
0000
0000
1000
0000
0001
0000
0010
0000
,  // measure 23
0100
0000
0000
0010
0000
0000
0001
0000
1000
0000
0000
0001
0000
0000
0100
0000
,  // measure 24
0010
0000
0000
1000
0000
0000
0001
0000
0010
0000
0000
0100
0000
0000
0010
0000
,  // measure 25
0001
0000
0000
0100
0000
0000
0010
0000
0100
0000
0000
0000
0001
0000
0000
0000
,  // measure 26
2000
0001
0100
3001
,  // measure 27
1000
0000
0000
0010
0000
0000
0001
0000
0001
0000
0000
0010
0000
0000
1000
0000
,  // measure 28
0100
0000
0000
0001
0000
0000
0100
0000
0100
0000
0000
1000
0000
0000
0001
0000
,  // measure 29
0100
0000
0000
0010
0000
0000
0100
0000
0001
0000
0000
0000
0100
0000
0001
0000
,  // measure 30
1000
0000
0000
0100
0000
0000
0010
0000
0010
0000
0000
0000
0010
0000
0001
0000
,  // measure 31
0100
0000
0000
0100
0000
0000
0100
0000
0000
0000
0100
0000
0001
0000
0010
0000
,  // measure 32
0100
0000
0000
0100
0000
0000
0100
0000
0000
0000
0100
0000
1000
0000
0010
0000
,  // measure 33
0001
0000
0000
0001
0000
0000
0001
0000
0000
0000
0001
0000
0010
0000
1000
0000
,  // measure 34
0001
0000
0000
0010
0000
0000
1000
0000
0001
0000
0100
0000
1000
0000
1000
0000
,  // measure 35
1100
0000
0000
0010
0000
0000
1100
0000
0010
0000
0001
0000
0100
0000
0100
0000
,  // measure 36
0101
0000
0000
0010
0000
0000
0101
0000
0000
0000
0010
0000
0100
0000
0001
0000
,  // measure 37
0020
0000
0000
0100
0000
0000
0001
0000
0000
0000
0130
0000
0010
0000
0001
0000
,  // measure 38
2000
0000
0000
0001
0000
0000
0010
0000
0000
0000
0001
0000
3001
0000
0000
0000
,  // measure 39
0001
0010
0100
1000
0001
0100
1000
0100
,  // measure 40
0010
0001
0010
0100
0001
0100
0100
0000
,  // measure 41
0001
0000
1000
0100
0000
0010
0100
0000
1000
0000
0100
0000
0010
0000
0001
0000
,  // measure 42
0100
0000
0000
0110
0000
0000
0100
0000
0001
0000
0010
0000
0100
0000
0000
0000
,  // measure 43
1000
0100
0010
0001
1000
0010
0001
0010
,  // measure 44
0100
1000
0100
0010
1000
0010
0010
0000
,  // measure 45
1000
0000
0001
0010
0000
0100
0010
0000
0001
0000
0010
0000
0100
0000
1000
0000
,  // measure 46
0002
0000
0000
0000
1003
0010
0100
0001
,  // measure 47
1000
0000
0000
0100
0000
0000
0001
0000
0001
0000
0000
0000
1000
0000
0000
0000
,  // measure 48
0020
0000
0000
0000
0031
0000
0010
0001
,  // measure 49
0100
0000
0000
1000
0000
0000
0001
0000
0001
0000
0000
0000
0010
0000
0000
0000
,  // measure 50
2000
0000
0000
0000
3001
0000
0100
0100
,  // measure 51
0001
0000
0000
0010
0000
0000
1000
0000
1000
0000
0000
0000
0001
0000
0000
0000
,  // measure 52
0200
0000
0000
0000
1300
0000
0001
0100
,  // measure 53
0020
0000
0001
0100
,  // measure 54
2030
0000
0010
0001
,  // measure 55
3200
0000
0000
1000
0000
0000
1000
0000
0000
0000
0310
0000
0100
0000
1000
0000
,  // measure 56
0001
0000
0000
1001
0000
0000
0001
0000
0100
0000
0010
0000
0110
0000
0000
0000
,  // measure 57
1001
0000
0000
0000
;
