#TITLE:Function #05;
#SUBTITLE:;
#ARTIST:Yu_Asahina;
#TITLETRANSLIT:;
#SUBTITLETRANSLIT:;
#ARTISTTRANSLIT:;
#GENRE:J-Core;
#CREDIT:;
#BANNER:Function #05-bn.png;
#BACKGROUND:Function #05-bg.png;
#LYRICSPATH:;
#CDTITLE:cdtitle.png;
#MUSIC:Function #05.ogg;
#OFFSET:-0.004000;
#SAMPLESTART:32.438999;
#SAMPLELENGTH:14.268000;
#SELECTABLE:YES;
#BPMS:0.000000=92.500000
,24.000000=185.000000
,200.000000=92.500000
,208.000000=185.000000
,232.000000=92.500000
,236.000000=185.000000
,321.000000=92.500000
;
#STOPS:
;
#BGCHANGES:;
#KEYSOUNDS:;
#ATTACKS:;

//---------------dance-single - welcome to stream hell...----------------
#NOTES:
     dance-single:
     X-Scale 15:
     Challenge:
     10:
     0.864466,1.466351,0.385537,0.243056,0.838125,722.000000,676.000000,46.000000,29.000000,0.000000,0.000000,0.864466,1.466351,0.385537,0.243056,0.838125,722.000000,676.000000,46.000000,29.000000,0.000000,0.000000:
// measure 0
0000
0000
0000
0000
,  // measure 1
0000
0000
0000
0000
,  // measure 2
1000
0000
0001
0000
0001
0000
0000
0000
0100
0000
0000
0010
0000
0000
0100
0000
0010
0000
1000
0000
1000
0000
0000
0000
0001
0000
0000
0100
0000
0000
0001
0000
,  // measure 3
0200
0000
0010
0000
0010
0000
0000
0000
0301
0000
0100
0000
0010
0000
2000
0000
0001
0000
3000
0000
1000
0000
0200
0000
0000
0000
0310
0000
0001
0010
0001
0010
,  // measure 4
0002
0010
0010
0000
1003
0001
1000
0200
0000
0001
0001
0000
1300
0100
0010
0002
,  // measure 5
0000
0000
0000
1000
0000
0000
1000
0000
0000
0000
0000
0000
0013
0000
0000
0001
0000
0000
1000
0000
0000
0020
0000
0000
0000
0000
0000
1030
0000
0000
0010
0000
1000
0000
0001
0000
0010
0000
0100
0000
1000
0000
0001
0000
0100
0000
0001
0000
,  // measure 6
1001
1000
0001
1000
0001
0010
0100
0010
,  // measure 7
0100
1000
0010
0001
0010
1000
0100
0010
,  // measure 8
0001
0100
0001
0010
0001
0100
1000
0200
,  // measure 9
0301
0000
0002
0000
1003
0000
2000
0000
3010
0000
1000
0010
1000
0000
0000
0000
,  // measure 10
1001
1000
0001
1000
0001
0010
0100
0010
,  // measure 11
0100
0000
1000
0000
0001
0000
1000
0000
0100
0000
0010
0000
0001
0100
0001
0100
,  // measure 12
0001
1000
0010
0001
0010
1000
0001
1001
,  // measure 13
0000
0000
0004
0000
1003
0000
1000
0000
0100
0000
0100
1000
0001
1000
0100
1000
,  // measure 14
0001
0000
0010
0000
0010
0000
0000
0000
0100
0000
0000
0010
0100
0000
0010
0000
,  // measure 15
0001
0000
1000
0000
0001
0000
0010
0000
0100
0000
0000
1000
0010
0000
1000
0000
,  // measure 16
0100
0000
0010
0000
0001
0000
1000
0000
0001
0000
0000
0010
0100
0000
0110
0000
,  // measure 17
0000
0000
1000
0010
0100
0000
0001
0010
0100
0000
1000
0010
1000
0010
1000
0010
,  // measure 18
1000
0001
0101
0100
0010
1000
0001
0010
,  // measure 19
0100
0000
1000
0000
0001
0000
1000
0000
0010
0000
0100
0000
0001
0010
0100
1000
,  // measure 20
0001
1000
0001
1000
0100
0010
0100
0010
,  // measure 21
0001
0000
0100
0000
1000
0000
0100
0000
0001
0000
0000
0100
0001
0000
1000
0000
,  // measure 22
0001
1000
0100
0001
1000
0010
0001
0100
,  // measure 23
0001
0010
0100
1000
0001
1000
0010
1000
,  // measure 24
0001
0100
0010
0100
0001
0010
0100
1000
,  // measure 25
0002
0000
0003
0002
0000
0003
0002
0000
1003
0000
1000
0000
0010
0100
0010
0100
,  // measure 26
0010
0000
0000
1000
0001
0000
1000
0000
0000
0100
0000
0000
0010
0001
0000
0000
,  // measure 27
1000
0000
0000
0001
0100
0000
0001
0000
0000
1000
0000
0000
0100
1000
0000
0000
,  // measure 28
0001
0000
0000
0100
0001
0000
1000
0000
0000
0001
0000
0000
1000
0010
0100
0010
,  // measure 29
1000
0000
0001
0000
1000
0000
0001
0000
0010
0000
0100
0000
0010
0100
0010
0000
,  // measure 30
0011
0000
0001
0100
0000
0010
1000
0000
0100
0010
0000
0001
,  // measure 31
0100
0000
0001
1000
0100
0010
0001
0000
0100
0001
0000
0000
,  // measure 32
1000
0000
0000
0000
0000
0000
0000
0000
0100
0000
0000
0000
1000
0000
0000
0000
0000
0000
0000
0000
0001
0000
0000
0000
0100
0000
0000
0000
0000
0000
0000
0000
0010
0000
0000
0000
0100
0000
0000
0010
0000
0000
0100
0000
0000
0010
0000
0000
,  // measure 33
0100
0000
0010
0000
1000
0000
0001
0000
0010
0000
0100
0000
1000
0000
0000
0001
0000
0000
1001
0000
0000
0000
0000
0000
,  // measure 34
1100
0000
0000
1001
0000
0000
0101
0000
0000
0110
0000
0000
1001
0000
0000
0000
,  // measure 35
0011
0000
0000
1001
0000
0000
1010
0000
0000
0110
0000
0000
1001
0000
0000
0000
,  // measure 36
1100
0000
0000
1001
0000
0000
0101
0000
0000
0110
0000
0000
1001
0000
0000
0000
,  // measure 37
0101
0000
0000
0000
0000
0000
0000
0000
0000
0100
0000
0000
0001
0000
0000
0000
0100
0000
0000
0000
0010
0000
0000
0000
1000
0000
0000
0000
0000
0000
0000
0000
0000
0000
0000
0000
0002
0000
0000
0000
0000
0000
0000
0000
0003
0000
0000
0000
,  // measure 38
1001
0000
0000
1000
0001
0000
1000
0000
0000
1001
0000
0000
0101
0000
0000
0000
,  // measure 39
0110
0000
0000
0010
1000
0000
0001
0000
0000
0110
0000
0000
1010
0000
0000
0000
,  // measure 40
1001
0000
0000
0000
0000
0000
0000
0000
0000
0001
0000
0000
0010
0000
0000
0000
0001
0000
0000
0000
1000
0000
0000
0000
0100
0000
0000
0000
0000
0000
0000
0000
0000
1100
0000
0000
0000
0000
0000
0000
0000
0000
0101
0000
0000
0000
0000
0000
,  // measure 41
0101
0000
0000
0000
0000
0000
0000
0000
0000
1000
0000
0000
0001
0000
0000
0000
1000
0000
0000
0000
0010
0000
0000
0000
0100
0000
0000
0000
0000
0000
0001
0000
0000
0000
0000
0000
0100
0000
0000
0000
0000
0000
0001
0000
0000
0100
0000
0000
,  // measure 42
0002
0000
0000
0000
0100
0000
0000
0000
0000
0000
1000
0000
1003
0000
0001
0010
,  // measure 43
0200
0000
0000
0000
0001
0000
0000
0000
2000
0000
3300
0200
0000
0300
0020
0000
,  // measure 44
0032
0000
1000
0000
0010
0010
0013
0100
,  // measure 45
1000
0000
0000
0000
0001
0000
1000
0001
1000
0000
0100
0000
0010
0100
0000
0000
,  // measure 46
1000
0010
0100
0001
0100
0010
1000
0100
0010
0001
0000
0000
,  // measure 47
1000
0000
0000
0000
0000
0000
0000
0000
0000
0000
0000
0000
0010
0000
0000
0000
0000
0000
1000
0000
0000
0010
0000
0000
1000
0000
0000
0000
0010
0000
0000
0000
0100
0000
0000
0000
0001
0000
0000
0000
1000
0000
0000
0000
0010
0000
0000
0000
,  // measure 48
1000
0000
0100
0000
0010
0000
0001
0000
1000
0000
0001
0000
0010
0000
0100
0000
0010
0000
0001
0000
0000
0010
0000
0000
,  // measure 49
0001
0000
1000
0000
0010
0000
0000
1000
0010
0000
1000
0000
0100
0010
0000
0000
,  // measure 50
0110
0000
0010
0100
0000
1000
0001
0000
0010
0100
0000
1000
0010
0000
0100
0001
0000
0010
0100
0000
0010
0001
0000
1000
,  // measure 51
0010
0000
0000
0000
0000
0000
0000
0000
1000
0000
0000
0000
0000
0000
0000
0000
0100
0000
0000
0000
0000
0000
0000
0000
0010
0000
0000
0000
0000
0000
0000
0000
0100
0000
0000
0000
0000
0000
0000
0000
1000
0000
0000
0000
0000
0000
0000
0000
0001
0000
0000
0000
0000
0000
0000
0000
0010
0000
0000
0000
0000
0000
0000
0000
0100
0000
0000
0000
0000
0000
0000
0000
1000
0000
0000
0000
0000
0000
0000
0000
0001
0000
0000
0000
0000
0000
0000
0000
1000
0000
0000
0000
0000
0000
0000
0000
0010
0000
0000
0000
0000
0000
0000
0000
0100
0000
0000
0000
0000
0000
0000
0000
0001
0000
0000
0000
0000
0000
0000
0000
0010
0000
0000
0000
0000
0000
0000
0000
0001
0000
0000
0000
0000
0000
0000
0000
1000
0000
0000
0000
0000
0000
0000
0000
0001
0000
0000
0000
0000
0000
0000
0000
0010
0000
0000
0000
0000
0000
0000
0000
0100
0000
0000
0000
0000
0000
0000
0000
1000
0000
0000
0000
0000
0000
0100
0000
0000
0000
0000
0000
1000
0000
0000
0000
0000
0000
0100
0000
0000
0000
0000
0000
,  // measure 52
1000
0000
0001
1001
0000
1000
1100
0000
,  // measure 53
0010
0000
0100
0010
0100
0010
0100
0000
0101
0000
0000
0000
1000
0100
0010
0001
,  // measure 54
1000
1000
0001
0100
0100
0010
1000
1000
,  // measure 55
0001
0000
0010
0000
0010
0000
0100
0000
1000
0000
0000
0000
0001
0000
0010
0001
,  // measure 56
0010
0001
0010
0000
0100
0000
1000
0000
1000
0000
0001
0000
0100
0001
0100
0000
,  // measure 57
0001
0000
0010
0000
0010
0000
0100
0000
1000
0000
0100
1000
0100
0000
1000
0000
,  // measure 58
1002
0000
0000
0023
0000
0000
0230
0000
0000
2300
0000
0000
3001
1000
0100
0010
0100
0010
0001
0000
0000
1000
0001
1000
,  // measure 59
1001
0000
0000
0000
0010
0000
1000
0010
0100
0000
0000
0010
0100
0000
0001
0000
,  // measure 60
1000
0000
0000
0000
0001
0000
0100
0010
1000
0000
0010
0000
0001
0000
0010
0000
,  // measure 61
1000
0000
0000
0000
0010
0000
1000
0010
1000
0000
0000
0100
0000
0000
1000
0000
,  // measure 62
0001
0100
0001
0000
0010
0100
1000
0001
,  // measure 63
1000
0000
0010
0000
0100
0000
0010
0100
0010
0000
0100
0000
0001
0000
1000
0000
,  // measure 64
0001
0000
1000
0010
1000
0010
1000
0010
1000
0000
0000
0000
0001
0000
0100
0000
,  // measure 65
0001
0000
0010
0000
0000
0100
0000
0100
1000
0000
0010
0000
1000
0010
1000
0010
,  // measure 66
1000
0000
0000
0000
0001
0000
0000
1000
0001
0000
1000
0000
0010
1000
0010
1000
,  // measure 67
0020
0000
0000
0000
0001
0000
0000
0000
1030
0000
0000
0010
0000
0000
0100
0000
,  // measure 68
0001
0100
0001
0000
1000
0000
0000
0000
0100
0000
1000
0000
0001
0000
1000
0000
,  // measure 69
0100
0000
0000
0000
0010
0000
0001
0010
0001
0000
0000
1000
0000
0000
0010
0000
,  // measure 70
1000
0010
0200
0000
0010
0000
0000
0000
1000
0000
0000
0000
0301
0000
0100
0000
,  // measure 71
0101
0000
0000
0000
0000
0000
0001
0000
0100
0000
0010
0000
1000
0000
0000
0010
0000
0000
2000
0000
0000
0000
0000
0000
,  // measure 72
3001
0000
0000
0000
0000
0000
1000
0000
0100
0000
0010
0000
0001
0000
0000
0100
0000
0000
0002
0000
0000
0000
0000
0000
,  // measure 73
0013
0000
0000
0100
0010
0000
0001
0000
0000
1000
0000
0000
0100
0000
1000
0000
,  // measure 74
1001
0000
0000
1100
0000
0000
0101
0000
0000
0110
0000
0000
1001
0000
1000
0001
,  // measure 75
1000
0000
0100
0010
0001
0000
1000
0010
,  // measure 76
0001
0000
1000
0100
0001
0000
0100
0000
,  // measure 77
0010
0000
0000
0000
1000
0000
0000
0001
1000
0000
0000
0000
0010
0000
0010
0000
,  // measure 78
0010
0000
0000
0000
1000
0000
0100
1000
0100
0000
1000
0001
1000
0000
0000
0000
,  // measure 79
0001
0010
0000
0010
0100
0000
0100
1000
0000
1000
0010
0000
1000
0010
0100
0001
,  // measure 80
0000
2004
0003
0000
,  // measure 81
0000
0000
0000
3000
0000
0000
0000
0000
;

//---------------dance-single - jesus...----------------
#NOTES:
     dance-single:
     X-Scale 13:
     Hard:
     9:
     0.682473,0.818429,0.243056,0.234675,0.540590,570.000000,541.000000,29.000000,28.000000,0.000000,0.000000,0.682473,0.818429,0.243056,0.234675,0.540590,570.000000,541.000000,29.000000,28.000000,0.000000,0.000000:
// measure 0
0000
0000
0000
0000
,  // measure 1
0000
0000
0000
0000
,  // measure 2
0001
0000
1000
0000
1000
0000
0000
0000
0010
0000
0000
0100
0000
0000
0010
0000
0100
0000
0001
0000
0001
0000
0000
0000
1000
0000
0000
0010
0000
0000
1000
0000
,  // measure 3
0020
0000
0000
0000
0100
0000
0000
0000
1030
0000
0000
0001
0000
0000
1000
0000
0002
0000
0000
0000
0013
0000
0001
0000
0000
0000
1000
0000
0010
0000
0100
0000
,  // measure 4
0002
0000
0100
0000
1003
0001
1000
0200
0000
0000
0001
0000
1300
0100
0010
0002
,  // measure 5
0000
0000
0000
0000
0000
0000
0100
0000
0000
0000
0000
0000
1003
0000
0000
0001
0000
0000
0100
0000
0000
0020
0000
0000
0000
0000
0000
1030
0000
0000
0010
0000
0000
0000
1000
0000
0010
0000
0000
0000
0100
0000
0001
0000
0000
0000
0000
0000
,  // measure 6
1001
0000
1000
0000
0001
0000
0000
0000
1000
0000
0000
0010
0000
0000
1000
0000
,  // measure 7
0001
0010
0001
0000
0100
0010
1000
0010
,  // measure 8
0100
0000
0001
0000
1000
0100
0001
0100
,  // measure 9
1000
0000
0020
0000
0031
0000
0020
0000
1030
0000
0010
1000
0010
0000
0000
0000
,  // measure 10
1000
0000
0100
0000
1000
0000
0000
0000
0001
0000
0000
1000
0000
0000
0001
0000
,  // measure 11
0010
0000
0100
0000
0010
0000
0000
0000
0001
0000
1000
0000
0010
0000
0000
1000
,  // measure 12
0000
0001
1000
0000
0100
0010
0001
0011
,  // measure 13
0000
0000
0000
0000
1000
0000
0100
0000
0010
0000
0001
0000
1000
0010
1000
0010
,  // measure 14
1000
0000
0010
0000
0100
0000
0000
0000
0001
0000
0000
0100
0000
0000
0001
0000
,  // measure 15
0010
0000
0100
0000
1000
0000
0000
0000
0001
0000
0000
0100
0001
0000
0100
0000
,  // measure 16
0010
0000
1000
0000
0001
0000
0000
0000
1000
0000
0000
0100
1000
0000
1100
0000
,  // measure 17
0000
0010
1000
0001
1000
0010
1000
0100
,  // measure 18
0010
0000
0000
0000
0011
0000
0000
0000
0001
0000
0000
0010
0000
0000
0001
0000
,  // measure 19
0010
0000
0100
0000
1000
0000
0000
0000
0001
0000
0000
1000
0000
0000
0001
0000
,  // measure 20
1000
0000
0100
0000
0010
0000
0000
0000
0001
0000
0000
0100
0000
0000
0001
0000
,  // measure 21
0100
0010
1000
0000
0001
0100
1000
0100
,  // measure 22
0001
0000
0100
0000
0010
0000
0000
0000
1000
0000
0000
0010
0000
0000
1000
0000
,  // measure 23
0100
0000
0010
0000
0001
0000
0000
0000
0100
0000
0000
0001
0000
0000
1000
0000
,  // measure 24
0001
0000
0100
0000
0010
0000
0000
0000
1000
0000
0000
0100
0000
0000
1000
0000
,  // measure 25
0002
0000
0003
0020
0000
0030
0002
0000
0013
0000
0100
0000
1000
0000
0001
0000
,  // measure 26
1000
0000
0000
0100
0000
0000
0001
0000
0000
0100
0000
0000
1000
0100
0000
0000
,  // measure 27
0010
0000
0000
0001
0000
0000
1000
0000
0000
0001
0000
0000
0010
0001
0000
0000
,  // measure 28
0100
0000
0000
0010
0000
0000
0001
0000
0000
0010
0000
0000
0100
0010
0000
0000
,  // measure 29
1000
0001
1000
0001
0010
0100
0010
0100
,  // measure 30
0110
0000
0010
0001
0000
1000
0001
0000
0010
0100
0000
0010
,  // measure 31
0001
0000
1000
0010
0000
1000
0100
0000
0010
0001
0000
0000
,  // measure 32
1000
0000
0010
1000
0000
0001
0010
0000
0100
1000
0000
0000
,  // measure 33
0001
0000
0000
1000
0100
0010
0001
0000
0000
0001
0000
0000
,  // measure 34
1001
0000
0000
1000
0000
0000
0100
0000
0000
0001
0000
0000
1100
0000
0000
0000
,  // measure 35
0101
0000
0000
0001
0000
0000
0010
0000
0000
1000
0000
0000
0011
0000
0000
0000
,  // measure 36
1010
0000
0000
1000
0000
0000
0100
0000
0000
0001
0000
0000
1100
0000
0000
0000
,  // measure 37
0110
0000
0000
0000
0000
0000
0000
0000
0000
0000
0000
0000
1000
0000
0000
0000
0010
0000
0000
0000
0100
0000
0000
0000
0001
0000
0000
0000
0000
0000
0000
0000
0000
0000
0000
0000
0200
0000
0000
0000
0000
0000
0000
0000
0000
0300
0000
0000
,  // measure 38
0101
0000
0000
0001
0000
0000
1000
0000
0000
0100
0000
0000
1100
0000
0000
0000
,  // measure 39
1010
0000
0000
1000
0000
0000
0010
0000
0000
0100
0000
0000
0110
0000
0000
0000
,  // measure 40
0011
0000
0000
0000
0000
0000
0000
0000
0000
0000
0000
0000
0001
0000
0000
0000
0010
0000
0000
0000
0100
0000
0000
0000
1000
0000
0000
0000
0000
0000
0000
0000
0000
0010
0000
0000
0000
0000
0000
0000
0000
0000
1000
0000
0000
0000
0000
0000
,  // measure 41
0001
0000
0000
0000
0000
0000
1000
0000
0010
0000
0100
0000
0001
0000
0000
1000
0000
0000
0001
0000
0000
1000
0000
0000
,  // measure 42
2001
0000
0100
0000
0000
0001
3001
1000
,  // measure 43
0020
0000
0000
0000
0001
0000
0000
0000
2030
0000
3000
0002
0000
0003
0020
0000
,  // measure 44
0230
0000
0001
0000
0000
1000
1300
0100
,  // measure 45
0010
0000
0000
0000
0001
0000
0000
0000
1000
0000
0010
0000
1000
0010
0000
0000
,  // measure 46
0100
0000
0010
0100
0000
0001
0010
0000
0001
1000
0000
0000
,  // measure 47
2100
0001
3002
1000
,  // measure 48
1003
0000
0000
0000
0001
0000
1000
0000
0000
0000
0100
0000
0010
0000
0000
0000
0001
0000
0100
0000
0000
0001
0000
0000
,  // measure 49
1000
0000
0010
0000
1000
0010
1000
0000
,  // measure 50
0001
0000
1000
0000
0000
0100
0000
0000
0010
0000
0000
0001
0000
0000
1000
0000
0000
0010
0000
0000
0100
0000
0000
0001
,  // measure 51
1000
0000
0000
0000
0001
0000
0000
0000
0000
0000
0010
0000
0000
0000
0000
0000
0100
0000
0000
0000
0000
0000
1000
0000
0000
0000
0000
0000
0001
0000
0000
0000
0000
0000
1000
0000
0000
0000
0000
0000
0100
0000
1000
0000
0000
0100
0000
0000
,  // measure 52
1000
0000
0010
0011
0000
1000
1100
0000
,  // measure 53
0001
0000
0100
0001
0100
0001
0100
0000
0101
0000
0000
0000
0001
1000
0001
1000
,  // measure 54
0001
1000
0100
0010
0001
0100
0001
0010
,  // measure 55
0100
0000
1000
0000
0010
0000
1000
0000
0100
0000
0010
0000
0001
0000
0010
0001
,  // measure 56
0010
0100
1000
0001
0100
0010
0001
0010
,  // measure 57
0100
0000
0001
0000
1000
0000
0010
0000
1000
0000
0001
1000
0001
0000
1000
0000
,  // measure 58
2100
0000
0000
0100
0000
0000
0010
0000
0000
0010
0000
0000
3001
0000
1000
0100
0000
0100
0010
0000
0010
0001
0000
0000
,  // measure 59
1002
0000
0000
0000
1003
0000
0001
0000
0010
0000
0000
0001
0000
0000
1000
0000
,  // measure 60
0010
0000
0100
0010
0100
1000
0100
0001
,  // measure 61
1000
0000
0000
0000
0010
0000
1000
0010
1000
0000
0000
0100
0000
0000
0010
0000
,  // measure 62
0001
0000
0100
0000
0001
0100
1000
0001
,  // measure 63
0010
0000
1000
0000
0001
0000
1000
0001
1000
0000
0010
0000
0100
0000
0010
0000
,  // measure 64
1000
0000
0100
0000
0010
0000
0001
0010
0001
0000
0000
0000
1000
0000
0010
0000
,  // measure 65
0100
0000
0001
0000
0000
0010
0000
0000
0100
0000
1000
0000
0010
0000
1000
0000
,  // measure 66
0200
0000
0001
0000
1300
0100
0010
0001
,  // measure 67
0020
0000
0000
0000
1000
0000
0000
0000
0031
0000
0000
0010
0000
0000
0001
0000
,  // measure 68
1000
0000
0010
0000
0100
0010
0001
0010
,  // measure 69
1000
0000
0000
0000
0001
0000
1000
0001
1000
0000
0000
0010
0000
0000
0100
0000
,  // measure 70
0010
0001
1000
0000
1000
0100
0010
0001
,  // measure 71
0100
0000
0000
0000
0000
0000
0001
0000
0010
0000
0100
0000
1000
0000
0000
0100
0000
0000
2000
0000
0000
0000
0000
0000
,  // measure 72
3001
0000
0000
0000
0000
0000
1000
0000
0010
0000
0100
0000
0001
0000
0000
0100
0000
0000
0002
0000
0000
0000
0000
0000
,  // measure 73
0013
0000
0000
0001
0000
0000
0100
0000
0000
0001
0000
0000
0010
0000
0100
0000
,  // measure 74
1000
0000
0000
0001
0000
0000
1000
0000
0000
0001
0000
0000
1000
0000
0010
1000
,  // measure 75
0010
0000
0100
0010
0001
0000
0001
0010
,  // measure 76
1000
0000
0001
0010
1000
0000
1000
0010
,  // measure 77
0001
0000
0100
0010
0001
0000
0001
0010
,  // measure 78
1000
0000
0001
0010
0100
1000
0001
0000
,  // measure 79
1001
0000
0000
1100
0000
0000
0101
0000
0000
0110
0000
0000
1000
0001
1000
0001
,  // measure 80
0000
0022
0003
0000
,  // measure 81
0000
0000
0000
0030
0000
0000
0000
0000
;

//---------------dance-single - the calm b4 the storm----------------
#NOTES:
     dance-single:
     X-Scale 10:
     Medium:
     7:
     0.550768,0.613822,0.150862,0.444206,0.222103,460.000000,442.000000,18.000000,53.000000,0.000000,0.000000,0.550768,0.613822,0.150862,0.444206,0.222103,460.000000,442.000000,18.000000,53.000000,0.000000,0.000000:
// measure 0
0000
0000
0000
0000
,  // measure 1
0000
0000
0000
0000
,  // measure 2
1000
0000
0000
0000
0100
0000
0000
0000
0010
0000
0000
0001
0000
0000
0010
0000
0001
0000
0000
0000
0100
0000
0000
0000
0010
0000
0000
1000
0000
0000
0010
0000
,  // measure 3
1000
0000
0100
0000
0010
0000
0000
0002
0000
0003
1000
0002
0000
0003
0010
0000
,  // measure 4
0100
0000
0010
0000
0001
0000
1000
0200
0000
0000
0001
0000
1300
0000
0100
0020
,  // measure 5
0000
0000
1000
0000
0031
0000
0100
0002
0000
0000
1003
0000
0010
0000
1000
0000
,  // measure 6
1010
0000
0001
0000
1000
0000
0010
0100
,  // measure 7
0010
0000
1000
0000
0100
0000
0010
0001
,  // measure 8
0010
0000
0001
0000
0100
0000
0010
1000
,  // measure 9
0010
0200
1300
0200
0301
0100
0001
0000
,  // measure 10
1000
0000
0010
0000
0100
0000
0001
0100
,  // measure 11
0001
0000
1000
0000
0010
0000
0100
0010
,  // measure 12
0100
0000
0001
0100
1000
0100
0001
0101
,  // measure 13
0000
0000
1000
0001
0100
0010
1000
0100
,  // measure 14
1100
0000
0001
0000
0100
0000
0010
1000
,  // measure 15
0010
0000
1000
0000
0100
0000
0010
0001
,  // measure 16
0010
0000
0001
0000
0100
0000
0010
0110
,  // measure 17
0000
0000
1000
0001
0100
0010
1000
0100
,  // measure 18
0010
0000
0000
0000
0011
0000
0000
0000
0100
0000
0000
0001
0000
0000
0100
0000
,  // measure 19
0001
0000
0000
0000
0010
0000
0000
0000
0100
0000
0000
1000
0000
0000
0100
0000
,  // measure 20
1000
0000
0000
0000
0001
0000
0000
0000
0100
0000
0000
0010
0000
0000
0100
0000
,  // measure 21
0010
0000
1000
0000
0001
0010
0100
1000
,  // measure 22
0001
0000
0000
0000
1000
0000
0000
0000
0100
0000
0000
0010
0000
0000
0100
0000
,  // measure 23
0010
0000
0000
0000
0001
0000
0000
0000
1000
0000
0000
0010
0000
0000
1000
0000
,  // measure 24
0010
0000
0000
0000
0100
0000
0000
0000
0001
0000
0000
1000
0000
0000
0001
0000
,  // measure 25
1000
0000
0000
0001
0000
0000
1000
0000
0100
0000
0001
0000
0100
0000
1000
0000
,  // measure 26
0001
0000
0000
0010
0000
0000
0100
0000
0000
1000
0000
0000
0011
0000
0000
0000
,  // measure 27
1000
0000
0000
0100
0000
0000
0010
0000
0000
0001
0000
0000
1100
0000
0000
0000
,  // measure 28
0001
0000
0000
0100
0000
0000
0010
0000
0000
1000
0000
0000
0011
0000
0000
0000
,  // measure 29
0001
1000
0100
1000
0001
1000
0100
1000
,  // measure 30
0002
0023
0230
2300
,  // measure 31
3002
0000
0000
1003
0001
1000
0001
0000
0000
0020
0000
0000
,  // measure 32
0230
2300
3020
0230
,  // measure 33
0302
0000
0000
1003
0001
1000
0001
0000
0000
1000
0000
0000
,  // measure 34
1001
0000
0000
0001
0000
0000
1000
0000
0000
0001
0000
0000
1001
0000
0000
0000
,  // measure 35
0110
0000
0000
0100
0000
0000
0010
0000
0000
0100
0000
0000
0110
0000
0000
0000
,  // measure 36
0011
0000
0000
0010
0000
0000
0001
0000
0000
0010
0000
0000
0011
0000
0000
0000
,  // measure 37
1010
0000
0000
1000
0010
1000
0010
0000
0000
0100
0000
0000
,  // measure 38
0001
0000
0000
0000
0010
0000
0001
0000
0000
0010
0000
0000
0001
0000
0000
0000
,  // measure 39
1000
0000
0000
0000
0010
0000
1000
0000
0000
0010
0000
0000
1000
0000
0000
0000
,  // measure 40
0001
0000
0000
0000
0000
0000
0000
0000
0000
0000
0000
0000
1000
0000
0000
0000
0000
0000
0000
0000
0001
0000
0000
0000
1000
0000
0000
0000
0000
0000
0000
0000
0000
0100
0000
0000
0000
0000
0000
0000
0000
0000
1000
0000
0000
0000
0000
0000
,  // measure 41
0100
0000
0000
0000
0000
0000
0010
0000
0000
0000
0001
0000
0010
0000
0000
0100
0000
0000
0000
0000
0000
0100
0000
0000
,  // measure 42
1100
0000
0010
0000
1000
0000
0100
0010
,  // measure 43
0001
0000
0000
0000
0100
0000
0000
0000
0002
0000
0003
0020
0000
0030
0200
0000
,  // measure 44
1300
0000
0010
0000
1000
0000
0100
0010
,  // measure 45
0001
1000
0001
0100
,  // measure 46
0010
0000
1000
0000
0001
0100
0001
0000
,  // measure 47
0010
0000
0100
0000
1000
0010
1000
0000
,  // measure 48
0100
0000
0010
0000
0001
0010
0001
0000
,  // measure 49
1000
0000
0010
0000
0100
0010
0100
0000
,  // measure 50
0102
0023
0230
2300
,  // measure 51
3002
0203
0320
2030
,  // measure 52
3001
0000
1000
0100
0000
0100
0001
0000
,  // measure 53
0010
0200
0000
1300
0100
0000
2000
0000
,  // measure 54
3001
1000
0001
1000
0100
0010
0100
0010
,  // measure 55
0001
0100
0001
0100
0010
0000
1000
0000
,  // measure 56
0001
0100
0001
0100
1000
0100
1000
0100
,  // measure 57
0001
0100
0001
0010
0100
0010
0100
0000
,  // measure 58
2000
3200
0320
0032
0203
0000
0320
0000
,  // measure 59
1030
0000
0000
0000
0001
0000
0000
0000
2000
0000
3000
0200
0000
0300
0020
0000
,  // measure 60
0031
0000
0100
0000
0001
0100
1000
0100
,  // measure 61
0001
0000
0000
0000
1000
0000
0000
0000
0020
0000
0030
0200
0000
0300
0002
0000
,  // measure 62
0103
0000
0010
0000
1000
0100
0010
0001
,  // measure 63
1000
0001
0010
0100
1000
0000
0001
0100
,  // measure 64
0001
0000
0000
0000
1000
0001
1000
0001
1000
0000
0000
0000
0010
0000
0100
0000
,  // measure 65
0001
0000
0100
0000
0000
0010
0000
0000
1000
0000
0010
0000
1000
0000
0000
0000
,  // measure 66
0100
0010
0001
0000
1000
0010
0100
0001
,  // measure 67
1000
0000
0000
0000
0010
0000
0000
0000
0200
0000
0300
0002
0000
0003
2000
0000
,  // measure 68
3001
1000
0010
0000
0100
0010
0001
0010
,  // measure 69
0100
0000
0000
0000
0001
0000
1000
0000
0002
0000
0003
0020
0000
0030
0200
0000
,  // measure 70
1300
0100
0010
0000
0001
0100
0010
0100
,  // measure 71
0001
0000
1000
0000
0010
1000
0001
0000
,  // measure 72
0100
0000
0010
0000
1000
0001
0010
0000
,  // measure 73
0100
0000
0000
1000
0000
0000
0001
0000
0000
1000
0000
0000
0100
0000
1000
0000
,  // measure 74
0100
0000
0000
0100
0000
0000
0010
0000
0000
0010
0000
0000
0001
0000
0010
0000
,  // measure 75
0001
0000
1000
0200
0000
0300
0010
0000
,  // measure 76
0001
0000
0100
0020
0000
0030
1000
0000
,  // measure 77
0001
0000
1000
0200
0000
0300
0010
0001
,  // measure 78
1000
0000
0001
0100
0010
0000
1000
0000
,  // measure 79
0100
0000
0000
1000
0000
0000
0001
0000
0000
1000
0000
0000
0100
0000
0100
0000
,  // measure 80
0000
2100
0000
0000
,  // measure 81
0000
0000
0000
3000
0000
0000
0000
0000
;

//---------------dance-single - easy mode?----------------
#NOTES:
     dance-single:
     X-Scale 6:
     Easy:
     4:
     0.367577,0.404814,0.058669,0.209531,0.000000,307.000000,300.000000,7.000000,25.000000,0.000000,0.000000,0.367577,0.404814,0.058669,0.209531,0.000000,307.000000,300.000000,7.000000,25.000000,0.000000,0.000000:
// measure 0
0000
0000
0000
0000
,  // measure 1
0000
0000
0000
0000
,  // measure 2
0001
0010
0100
1000
,  // measure 3
0010
1000
0100
1000
,  // measure 4
0010
0100
0001
0010
,  // measure 5
0001
1000
0100
1000
,  // measure 6
1000
0100
0010
0001
,  // measure 7
1000
0000
0010
0000
0100
0000
0001
0100
,  // measure 8
0001
0000
0100
0000
0010
0000
1000
0010
,  // measure 9
1000
0100
0010
0001
,  // measure 10
0100
0000
0001
0000
0010
0000
0100
1000
,  // measure 11
0100
0010
0001
0100
,  // measure 12
0001
0000
0010
0000
0100
1000
0100
1000
,  // measure 13
0000
0001
1000
0001
,  // measure 14
1001
0000
1000
0000
0100
0000
0010
0001
,  // measure 15
0010
0000
0001
0000
0100
0000
0010
1000
,  // measure 16
0010
0000
1000
0000
0100
0010
0100
0010
,  // measure 17
0000
0001
1000
0001
,  // measure 18
1000
0110
0100
0001
,  // measure 19
1000
0000
0001
0000
0100
0000
0010
1000
,  // measure 20
0001
0100
0010
1000
,  // measure 21
0100
0000
0010
0000
0100
0000
1000
0010
,  // measure 22
1000
0001
0010
0001
,  // measure 23
1000
0100
1000
0010
,  // measure 24
0100
0010
1000
0001
,  // measure 25
0100
0000
0001
1000
,  // measure 26
0001
0000
0000
0010
0000
0000
0100
0000
,  // measure 27
1000
0000
0000
0010
0000
0000
1000
0000
,  // measure 28
0100
0000
0000
0010
0000
0000
0001
0000
,  // measure 29
1000
0001
1000
0001
,  // measure 30
1001
0100
0010
0001
,  // measure 31
0010
0100
1000
0001
,  // measure 32
1000
0010
0100
0010
,  // measure 33
1000
0100
0010
0001
,  // measure 34
1000
0000
0000
0001
0000
0000
1000
0000
,  // measure 35
0010
0000
0000
0100
0000
0000
0010
0000
,  // measure 36
1000
0000
0000
0100
0000
0000
1000
0000
,  // measure 37
0001
1000
0001
0020
,  // measure 38
0130
0000
0000
0010
0000
0000
0001
0000
,  // measure 39
1000
0000
0000
0010
0000
0000
0100
0000
,  // measure 40
0001
0020
0130
0000
,  // measure 41
0010
0002
1003
0000
,  // measure 42
1001
0000
1000
0000
0000
0010
1000
0000
,  // measure 43
0001
0000
1000
0000
0000
0100
0010
0000
,  // measure 44
0001
0000
0010
0000
0000
0100
1000
0000
,  // measure 45
0001
0000
0010
0000
0000
0100
1000
0000
,  // measure 46
0010
1000
0002
1000
,  // measure 47
2003
0100
3200
0010
,  // measure 48
0320
0000
0100
0000
0000
0000
0031
0002
,  // measure 49
0000
0000
1000
0000
0000
0000
0010
0003
,  // measure 50
0012
0203
0302
0023
,  // measure 51
0032
0203
0302
0023
,  // measure 52
0130
0000
0000
1000
0000
0000
0001
0000
,  // measure 53
0000
2000
0000
3000
0100
0000
0020
0000
,  // measure 54
0031
0000
0000
0010
0000
0000
0100
0000
,  // measure 55
0000
1000
0000
0000
0001
0000
1000
0000
,  // measure 56
0001
0000
0000
0100
0000
0000
0010
0000
,  // measure 57
0000
1000
0000
0000
0001
0000
1000
0000
,  // measure 58
0002
0023
0230
2300
,  // measure 59
3001
1000
0001
0010
,  // measure 60
0100
0010
0001
1000
,  // measure 61
0010
0100
0001
1000
,  // measure 62
0010
1000
0001
0010
,  // measure 63
0100
0010
0001
1000
,  // measure 64
0001
0100
0010
1000
,  // measure 65
0001
1000
0100
1000
,  // measure 66
0001
0010
0200
0000
,  // measure 67
0300
1100
1000
0001
,  // measure 68
1000
0010
0100
0010
,  // measure 69
1000
0100
0010
0001
,  // measure 70
0100
0001
0010
0100
,  // measure 71
1000
0010
0100
0001
,  // measure 72
0010
0001
1000
0001
,  // measure 73
0010
0000
0000
0100
0000
0000
0010
0001
,  // measure 74
0010
0000
0000
0100
0000
0000
1000
0100
,  // measure 75
1000
0001
1000
0001
,  // measure 76
0010
0100
0010
0100
,  // measure 77
1000
0100
1000
0100
,  // measure 78
0010
0001
0010
0001
,  // measure 79
1000
0000
0000
0001
0000
0000
1000
0000
,  // measure 80
0000
2002
3003
0000
;

//---------------dance-single - beginner's paradise----------------
#NOTES:
     dance-single:
     X-Scale 3:
     Beginner:
     2:
     0.177203,0.235408,0.000000,0.000000,0.000000,148.000000,148.000000,0.000000,0.000000,0.000000,0.000000,0.177203,0.235408,0.000000,0.000000,0.000000,148.000000,148.000000,0.000000,0.000000,0.000000,0.000000:
// measure 0
0000
0000
0000
0000
,  // measure 1
0000
0000
0000
0000
,  // measure 2
0001
0000
0010
0000
,  // measure 3
0100
0000
1000
0000
,  // measure 4
0001
0000
0100
0000
,  // measure 5
0010
0000
1000
0000
,  // measure 6
0001
0000
0100
0000
,  // measure 7
0001
0000
0010
0000
,  // measure 8
0100
0000
1000
0000
,  // measure 9
0001
0000
1000
0000
,  // measure 10
0100
0000
0010
0000
,  // measure 11
0001
0000
0100
0000
,  // measure 12
0001
0000
0000
0000
0010
0000
0000
0010
,  // measure 13
0000
0010
0000
0000
,  // measure 14
0100
0000
1000
0000
,  // measure 15
0010
0000
1000
0000
,  // measure 16
0001
0000
0000
0000
0010
0000
0000
0010
,  // measure 17
0000
0010
0000
0000
,  // measure 18
1000
0100
1000
0000
,  // measure 19
0001
0000
1000
0000
,  // measure 20
0001
0000
0010
0000
,  // measure 21
0001
0000
1000
0000
,  // measure 22
0100
0000
1000
0000
,  // measure 23
0010
0000
0100
0000
,  // measure 24
0010
0000
1000
0000
,  // measure 25
0001
0000
0100
0000
,  // measure 26
0001
0000
0000
0000
,  // measure 27
0010
0000
0000
0000
,  // measure 28
0100
0000
0000
0000
,  // measure 29
1000
0000
0001
0000
,  // measure 30
1000
0000
0010
0000
,  // measure 31
0100
0000
0001
0000
,  // measure 32
1000
0000
0100
0000
,  // measure 33
0010
0000
0001
0000
,  // measure 34
1000
0000
0000
0000
,  // measure 35
0100
0000
0000
0000
,  // measure 36
0010
0000
0000
0000
,  // measure 37
0001
0000
0000
0000
,  // measure 38
1000
0000
0000
0000
,  // measure 39
0010
0000
0000
0000
,  // measure 40
0100
0000
0000
0000
,  // measure 41
0001
0000
0000
0000
,  // measure 42
1000
0010
0000
0010
,  // measure 43
1000
0001
0000
0100
,  // measure 44
0010
0100
0000
0001
,  // measure 45
1000
0001
0000
0010
,  // measure 46
0100
0010
0000
0001
,  // measure 47
1000
0001
0000
1000
,  // measure 48
0100
1000
0000
0010
,  // measure 49
0100
0010
0000
0000
,  // measure 50
1000
0000
0100
0000
,  // measure 51
0010
0000
0001
0000
,  // measure 52
1000
0000
0000
0000
,  // measure 53
0100
0000
0000
0000
,  // measure 54
1000
0000
0000
0000
,  // measure 55
0001
0000
0000
0000
,  // measure 56
0100
0000
0010
0000
,  // measure 57
1000
0000
0001
0000
,  // measure 58
1000
0000
0001
0000
,  // measure 59
1000
0000
0100
0000
,  // measure 60
0010
0000
0001
0000
,  // measure 61
1000
0000
0010
0000
,  // measure 62
0100
0000
0010
0000
,  // measure 63
1000
0000
0001
0000
,  // measure 64
0010
0000
0100
0000
,  // measure 65
0010
0000
0001
0000
,  // measure 66
1000
0000
0001
0000
,  // measure 67
0010
0000
0100
0000
,  // measure 68
1000
0000
0010
0000
,  // measure 69
1000
0000
0001
0000
,  // measure 70
0010
0000
0001
0000
,  // measure 71
1000
0000
0010
0000
,  // measure 72
1000
0000
0001
0000
,  // measure 73
0100
0000
0000
0000
,  // measure 74
0010
0000
0001
0000
,  // measure 75
1000
0000
0001
0000
,  // measure 76
1000
0000
0100
0000
,  // measure 77
0010
0000
0001
0000
,  // measure 78
1000
0000
0010
0000
,  // measure 79
1000
0000
0000
0000
,  // measure 80
0000
0001
0000
0000
;
