#TITLE:Desert Rain;
#SUBTITLE:;
#ARTIST:Edward Maya feat. Vika Jigulina;
#TITLETRANSLIT:;
#SUBTITLETRANSLIT:;
#ARTISTTRANSLIT:;
#GENRE:PROGRESSIVE HOUSE;
#CREDIT:DaffaK, skeleton by K-Step;
#BANNER:[Round C] - Desert Rain.png;
#BACKGROUND:[Round C] - Desert Rain-bg.png;
#LYRICSPATH:;
#CDTITLE:cdtitle.png;
#MUSIC:[Round C] - Desert Rain.ogg;
#OFFSET:-0.172000;
#SAMPLESTART:75.160004;
#SAMPLELENGTH:15.000000;
#SELECTABLE:YES;
#DISPLAYBPM:128.000000;
#BPMS:0.000000=128.000000
,156.000000=128.860001
,160.000000=128.000000
;
#STOPS:
;
#BGCHANGES:;
#KEYSOUNDS:;
#ATTACKS:;

//---------------dance-single - ----------------
#NOTES:
     dance-single:
     :
     Beginner:
     1:
     0.114043,0.127003,0.000000,0.000000,0.000000,88.000000,88.000000,0.000000,0.000000,0.000000,0.000000,0.114043,0.127003,0.000000,0.000000,0.000000,88.000000,88.000000,0.000000,0.000000,0.000000,0.000000:
// measure 0
0000
0000
0000
0000
,  // measure 1
0000
0000
0000
0000
,  // measure 2
0000
0000
0000
0000
,  // measure 3
0000
0000
0000
0000
,  // measure 4
1000
0000
0000
0000
,  // measure 5
1000
0000
0000
0000
,  // measure 6
0001
0000
0000
0000
,  // measure 7
0001
0000
0000
0000
,  // measure 8
0100
0000
0000
0000
,  // measure 9
0010
0000
0000
0000
,  // measure 10
0100
0000
0000
0000
,  // measure 11
0010
0000
0000
0000
,  // measure 12
1000
0000
0000
0000
,  // measure 13
0001
0000
0000
0000
,  // measure 14
1000
0000
0000
0000
,  // measure 15
0001
0000
0000
0000
,  // measure 16
1000
1000
0000
0000
,  // measure 17
0010
0010
0000
0000
,  // measure 18
1000
1000
0000
0000
,  // measure 19
0001
0000
0100
0000
,  // measure 20
0001
0001
0000
0000
,  // measure 21
0010
0010
0000
0000
,  // measure 22
0001
0001
0000
0000
,  // measure 23
1000
0000
0100
0000
,  // measure 24
1000
0000
0000
0010
,  // measure 25
0010
0000
0000
1000
,  // measure 26
1000
0000
0000
0000
,  // measure 27
0001
0000
1000
0000
,  // measure 28
0001
0000
0000
0010
,  // measure 29
0010
0000
0000
0001
,  // measure 30
0001
0000
0000
0000
,  // measure 31
1000
0000
0001
0000
,  // measure 32
1000
0000
0000
0100
,  // measure 33
0100
0000
0000
1000
,  // measure 34
1000
0000
0000
0000
,  // measure 35
0001
0000
0100
0000
,  // measure 36
0001
0000
0000
0100
,  // measure 37
0100
0000
0000
0001
,  // measure 38
0001
0000
0000
0000
,  // measure 39
0010
0000
0000
0000
,  // measure 40
0001
0001
0000
0000
,  // measure 41
0100
0100
0000
0000
,  // measure 42
0010
0010
0000
0000
,  // measure 43
1000
0000
0001
0000
,  // measure 44
1000
1000
0000
0000
,  // measure 45
0100
0100
0000
0000
,  // measure 46
0010
0010
0000
0000
,  // measure 47
0001
0000
1000
0000
,  // measure 48
0001
0001
0000
0000
,  // measure 49
0010
0010
0000
0000
,  // measure 50
0100
0100
0000
0000
,  // measure 51
1000
0000
0001
0000
,  // measure 52
1000
1000
0000
0000
,  // measure 53
0010
0010
0000
0000
,  // measure 54
0100
0100
0000
0000
,  // measure 55
0001
0000
1000
0000
,  // measure 56
0100
0000
0000
0000
;

//---------------dance-single - ----------------
#NOTES:
     dance-single:
     :
     Easy:
     3:
     0.191800,0.203204,0.009072,0.063501,0.000000,148.000000,147.000000,1.000000,7.000000,0.000000,0.000000,0.191800,0.203204,0.009072,0.063501,0.000000,148.000000,147.000000,1.000000,7.000000,0.000000,0.000000:
// measure 0
0000
0000
0000
0000
,  // measure 1
0000
0000
0000
0000
,  // measure 2
0000
0000
0000
0000
,  // measure 3
0000
0000
0000
0000
,  // measure 4
1000
0000
0010
0000
,  // measure 5
0010
0000
0100
0000
,  // measure 6
0100
0000
0001
0000
,  // measure 7
0001
0000
1000
0000
,  // measure 8
2000
0000
0000
3000
,  // measure 9
0002
0000
0000
0003
,  // measure 10
0200
0000
0000
0300
,  // measure 11
0010
0000
1000
0000
,  // measure 12
0002
0000
0000
0003
,  // measure 13
2000
0000
0000
3000
,  // measure 14
0200
0000
0000
0300
,  // measure 15
0010
0000
0001
0000
,  // measure 16
1000
0010
1000
0000
,  // measure 17
0010
0010
0100
0000
,  // measure 18
0001
0100
0001
0000
,  // measure 19
1000
0001
1000
0000
,  // measure 20
0001
0010
0001
0000
,  // measure 21
0010
0010
0100
0000
,  // measure 22
1000
0100
1000
0000
,  // measure 23
0001
1000
0001
0000
,  // measure 24
1000
0010
0000
1000
,  // measure 25
0001
1000
0000
0001
,  // measure 26
0100
0001
0000
1000
,  // measure 27
0010
1000
0010
0100
,  // measure 28
0001
0010
0000
0001
,  // measure 29
1000
0001
0000
1000
,  // measure 30
0100
1000
0000
0001
,  // measure 31
0010
0001
0010
0100
,  // measure 32
1000
0001
0000
0100
,  // measure 33
0001
1000
0000
0100
,  // measure 34
1000
0001
0000
1000
,  // measure 35
0010
0100
0001
1000
,  // measure 36
0001
1000
0000
0100
,  // measure 37
1000
0001
0000
0100
,  // measure 38
0001
1000
0000
0001
,  // measure 39
0200
0000
0000
0300
,  // measure 40
0001
0010
0001
0000
,  // measure 41
1000
1000
0010
0010
,  // measure 42
1000
0100
1000
0000
,  // measure 43
0001
0001
0100
0010
,  // measure 44
1000
0010
1000
0000
,  // measure 45
0001
0001
0010
0010
,  // measure 46
0001
0100
0001
0000
,  // measure 47
1000
1000
0100
0010
,  // measure 48
0001
0100
0001
0000
,  // measure 49
1000
1000
0100
0100
,  // measure 50
1000
0010
1000
0000
,  // measure 51
0001
0001
0010
0100
,  // measure 52
1000
0100
1000
0000
,  // measure 53
0001
0001
0100
0100
,  // measure 54
0001
0010
0001
0000
,  // measure 55
1000
1000
0010
0000
,  // measure 56
1001
0000
0000
0000
;

//---------------dance-single - ----------------
#NOTES:
     dance-single:
     :
     Medium:
     6:
     0.386191,0.406408,0.027215,0.127003,0.027215,298.000000,295.000000,3.000000,14.000000,0.000000,0.000000,0.386191,0.406408,0.027215,0.127003,0.027215,298.000000,295.000000,3.000000,14.000000,0.000000,0.000000:
// measure 0
0000
0000
0000
0000
,  // measure 1
0000
0000
0000
0000
,  // measure 2
0000
0000
0000
0000
,  // measure 3
0000
0000
0000
0000
,  // measure 4
2000
0000
0000
3010
0000
0000
0100
0001
,  // measure 5
2000
0000
0000
3100
0000
0000
0010
0000
,  // measure 6
0002
0000
0000
0013
0000
0000
0100
1000
,  // measure 7
0002
0000
0000
0103
0000
0000
0010
0000
,  // measure 8
1000
0000
0000
1000
0000
0000
1000
0000
0000
0000
0010
0000
0100
0000
0000
0000
,  // measure 9
0001
0000
0000
0001
0000
0000
0001
0000
0000
0000
1000
0000
0100
0000
0000
0000
,  // measure 10
0010
0000
0000
0010
0000
0000
0010
0000
0000
0000
0001
0000
1000
0000
0000
0000
,  // measure 11
0001
0100
0001
0000
1000
0100
1000
0000
,  // measure 12
0001
0000
0000
0001
0000
0000
0001
0000
0000
0000
0010
0000
0100
0000
0000
0000
,  // measure 13
1000
0000
0000
1000
0000
0000
1000
0000
0000
0000
0001
0000
0100
0000
0000
0000
,  // measure 14
0010
0000
0000
0010
0000
0000
0010
0000
0000
0000
1000
0000
0001
0000
0000
0000
,  // measure 15
1000
0100
1000
0000
0001
0100
0001
0000
,  // measure 16
1000
0010
1000
0010
0100
0001
1000
0000
,  // measure 17
0001
0010
0100
0000
1000
0100
0010
0000
,  // measure 18
0001
0100
0001
0100
0010
1000
0001
0000
,  // measure 19
1000
0100
0010
0001
0100
0010
1000
0000
,  // measure 20
0001
0010
0001
0010
0100
1000
0001
0000
,  // measure 21
1000
0010
0100
0000
0001
0100
0010
0000
,  // measure 22
1000
0100
1000
0100
0010
0001
1000
0000
,  // measure 23
0001
0100
0010
1000
0100
0010
0001
0000
,  // measure 24
2001
0000
3100
0000
0010
0001
1000
0000
,  // measure 25
0002
0000
0013
0000
0100
1000
0001
0000
,  // measure 26
1000
0010
0100
0000
0001
0100
0010
0000
,  // measure 27
1000
0000
0001
0000
0010
0100
0010
0000
,  // measure 28
0002
0000
0103
0000
0010
1000
0001
0000
,  // measure 29
2000
0000
3010
0000
0100
0001
1000
0000
,  // measure 30
0001
0010
0100
0000
1000
0100
0010
0000
,  // measure 31
0001
0000
1000
0000
0010
0100
0010
0000
,  // measure 32
2000
0000
3001
0000
0100
0010
1000
0000
,  // measure 33
0002
0000
1003
0000
0010
0100
0001
0000
,  // measure 34
0010
0001
0100
0000
0010
1000
0100
0000
,  // measure 35
0010
0001
1000
0000
0001
0010
0100
1000
,  // measure 36
0002
0000
1003
0000
0100
0010
0001
0000
,  // measure 37
2000
0000
3001
0000
0010
0100
1000
0000
,  // measure 38
0010
1000
0100
0000
0010
0001
0100
0000
,  // measure 39
2002
0000
0000
3003
,  // measure 40
0001
0100
0010
0100
0001
1000
0001
0000
,  // measure 41
1000
0010
0100
0000
0100
0001
1000
0000
,  // measure 42
0001
0010
0100
0010
0001
1000
0001
0000
,  // measure 43
1000
0001
0010
0000
0100
1000
0001
0000
,  // measure 44
1000
0100
0010
0100
1000
0001
1000
0000
,  // measure 45
0001
0010
0100
0000
0100
1000
0001
0000
,  // measure 46
1000
0010
0100
0010
1000
0001
1000
0000
,  // measure 47
0001
1000
0010
0000
0100
0001
1000
0000
,  // measure 48
0001
0010
0100
1000
0001
0000
0100
0000
,  // measure 49
0010
1000
0100
0010
0001
0000
1000
0000
,  // measure 50
0001
0100
1000
0000
1000
0100
0001
0000
,  // measure 51
0001
0010
0100
1000
0010
0100
0001
0000
,  // measure 52
1000
0010
0100
0001
1000
0000
0100
0000
,  // measure 53
0010
0001
0100
0010
1000
0000
0001
0000
,  // measure 54
1000
0100
0001
0000
0001
0100
1000
0000
,  // measure 55
1000
0010
0100
0001
0010
0100
1000
0000
,  // measure 56
1001
0000
0000
0000
;

//---------------dance-single - ----------------
#NOTES:
     dance-single:
     :
     Hard:
     8:
     0.506714,0.558811,0.217719,0.290292,0.199575,391.000000,367.000000,24.000000,32.000000,0.000000,0.000000,0.506714,0.558811,0.217719,0.290292,0.199575,391.000000,367.000000,24.000000,32.000000,0.000000,0.000000:
// measure 0
0000
0000
0000
0000
,  // measure 1
0000
0000
0000
0000
,  // measure 2
0000
0000
0000
0000
,  // measure 3
0000
0000
0000
0000
,  // measure 4
1000
0002
0000
0103
1000
0100
0001
0000
,  // measure 5
0001
2000
0000
3100
0001
0100
1000
0000
,  // measure 6
2000
0000
3001
0200
0000
0310
1000
0000
,  // measure 7
0002
0000
1003
0200
0000
0310
0001
0000
,  // measure 8
1000
0000
0000
0010
0000
0000
0001
0000
0000
0000
0010
0000
1000
0000
0000
0000
,  // measure 9
0001
0000
0000
0010
0000
0000
1000
0000
0010
0000
0001
0000
1000
0000
0000
0000
,  // measure 10
0100
0000
0000
0001
0000
0000
0100
0000
0000
0000
1000
0000
0001
0000
0000
0000
,  // measure 11
1000
0010
0100
0001
0010
0100
1000
0000
,  // measure 12
0001
0000
0000
0010
0000
0000
1000
0000
0000
0000
0010
0000
0001
0000
0000
0000
,  // measure 13
1000
0000
0000
0010
0000
0000
0001
0000
0010
0000
1000
0000
0001
0000
0000
0000
,  // measure 14
0100
0000
0000
1000
0000
0000
0100
0000
0000
0000
0001
0000
1000
0000
0000
0000
,  // measure 15
0001
0010
0100
1000
0010
0100
0001
0000
,  // measure 16
1000
0100
1000
0000
0001
0000
0100
0000
0010
0000
1000
0000
1002
0000
0000
0000
,  // measure 17
0013
0100
0000
0000
0100
1000
0000
0000
1000
0000
0001
0000
0201
0000
0000
0000
,  // measure 18
0310
1000
0010
0000
0100
0000
0001
0000
0010
0000
0100
0000
2100
0000
0000
0000
,  // measure 19
3010
0001
0010
1000
0100
0010
0100
1000
,  // measure 20
0001
0100
0001
0000
1000
0000
0100
0000
0010
0000
0001
0000
2001
0000
0000
0000
,  // measure 21
3010
0100
0000
0000
0100
0001
0000
0000
0001
0000
1000
0000
1200
0000
0000
0000
,  // measure 22
0310
0001
0010
0000
0100
0000
1000
0000
0010
0000
0100
0000
0102
0000
0000
0000
,  // measure 23
0013
1000
0010
0001
0100
0010
0100
0000
,  // measure 24
1001
0000
0000
1000
0200
0000
0000
0000
0301
0000
0100
0000
1000
0000
0100
0000
,  // measure 25
0010
0000
0000
0010
0002
0000
0000
0000
0103
0000
1000
0000
0100
0000
0010
0000
,  // measure 26
2000
0000
3001
1000
0100
0010
0001
0100
,  // measure 27
0000
0110
0000
1001
0000
1000
0100
0010
,  // measure 28
0001
0000
0000
0001
0200
0000
0000
0000
1300
0000
0100
0000
0001
0000
0100
0000
,  // measure 29
0010
0000
0000
0010
2000
0000
0000
0000
3100
0000
0001
0000
0100
0000
0010
0000
,  // measure 30
0002
0000
1003
0001
0100
0010
1000
0100
,  // measure 31
0000
0110
0000
1001
0000
0001
0100
0010
,  // measure 32
1000
0000
0000
1000
0002
0000
0000
0000
0013
0000
1000
0000
0010
0000
0001
0000
,  // measure 33
1000
0000
0000
1000
0020
0000
0000
0000
0130
0000
0001
0000
1000
0000
0100
0000
,  // measure 34
0002
0000
0103
1000
0001
0100
0010
1000
,  // measure 35
0000
0000
0101
0000
0000
0000
0001
0000
1000
0000
0100
0010
0100
0000
0010
0000
,  // measure 36
0001
0000
0000
0001
2000
0000
0000
0000
3010
0000
0001
0000
0010
0000
1000
0000
,  // measure 37
0001
0000
0000
0001
0020
0000
0000
0000
0130
0000
1000
0000
0001
0000
0100
0000
,  // measure 38
2000
0000
3100
0001
1000
0100
0010
0002
,  // measure 39
2000
0000
0000
3003
,  // measure 40
0001
0100
0001
0000
0010
0000
1000
0000
0010
0000
0001
0000
0201
0000
0000
0000
,  // measure 41
0310
1000
0010
0000
1000
0001
1000
0000
0001
0000
0010
0000
0210
0000
0000
0000
,  // measure 42
1300
0001
1000
0000
0010
0000
0001
0000
0010
0000
1000
0000
1002
0000
0000
0000
,  // measure 43
0013
1000
0001
0100
1000
0010
0100
0001
,  // measure 44
1000
0100
1000
0000
0010
0000
0001
0000
0010
0000
1000
0000
1200
0000
0000
0000
,  // measure 45
0310
0001
0010
0000
0001
1000
0001
0000
1000
0000
0010
0000
0210
0000
0000
0000
,  // measure 46
0301
1000
0001
0000
0010
0000
1000
0000
0010
0000
0001
0000
2001
0000
0000
0000
,  // measure 47
3010
0001
1000
0100
0001
0010
0100
0000
,  // measure 48
1001
0000
0000
1000
0010
0000
0001
0000
0010
0000
1000
0001
1000
0000
0001
0000
,  // measure 49
0011
0000
0000
0010
0100
0000
1000
0000
0001
0000
0100
0001
0100
0000
0010
0000
,  // measure 50
1010
0000
0000
1000
0100
0000
0001
0000
0100
0000
0010
0100
0010
0000
0001
0000
,  // measure 51
1000
0000
0010
0000
0100
0000
0010
0000
0001
0000
0010
0000
1000
0000
0001
1000
,  // measure 52
0001
0000
0000
0001
0010
0000
1000
0000
0010
0000
0001
1000
0001
0000
1000
0000
,  // measure 53
1010
0000
0000
0010
0100
0000
0001
0000
1000
0000
0100
1000
0100
0000
0010
0000
,  // measure 54
0011
0000
0000
0001
0100
0000
1000
0000
0100
0000
0010
0100
0010
0000
1000
0000
,  // measure 55
0001
0010
0100
0010
1000
0010
0001
0000
,  // measure 56
1001
0000
0000
0000
;
