#VERSION:0.83;
#TITLE:Caught Red Handed;
#SUBTITLE:;
#ARTIST:Jake Kaufman;
#TITLETRANSLIT:;
#SUBTITLETRANSLIT:;
#ARTISTTRANSLIT:;
#GENRE:Electro House;
#ORIGIN:;
#CREDIT:;
#BANNER:[Round C] - Caught Red Handed.png;
#BACKGROUND:[Round C] - Caught Red Handed-bg.png;
#PREVIEWVID:;
#JACKET:[Round C] - Caught Red Handed-jacket.png;
#CDIMAGE:;
#DISCIMAGE:;
#LYRICSPATH:;
#CDTITLE:cdtitle.png;
#MUSIC:[Round C] - Caught Red Handed.ogg;
#OFFSET:0.000480;
#SAMPLESTART:14.062019;
#SAMPLELENGTH:15.000000;
#SELECTABLE:YES;
#BPMS:0.000=128.000,
215.000=64.000,
217.000=128.000;
#STOPS:28.000=0.469,
185.000=0.469,
214.000=0.469;
#DELAYS:;
#WARPS:;
#TIMESIGNATURES:0.000=4=4;
#TICKCOUNTS:0.000=4;
#COMBOS:0.000=1;
#SPEEDS:0.000=1.000=0.000=0;
#SCROLLS:0.000=1.000;
#FAKES:;
#LABELS:0.000=Song Start;
#BGCHANGES:;
#KEYSOUNDS:;
#ATTACKS:
;

//---------------dance-single - ----------------
#NOTEDATA:;
#CHARTNAME:09-12;
#STEPSTYPE:dance-single;
#DESCRIPTION:;
#CHARTSTYLE:;
#DIFFICULTY:Challenge;
#METER:9;
#RADARVALUES:0.550142,0.620800,0.421921,0.475621,0.471785,502.000000,447.000000,55.000000,62.000000,0.000000,0.000000,0.000000,0.000000,0.000000,0.550142,0.620800,0.421921,0.475621,0.471785,502.000000,447.000000,55.000000,62.000000,0.000000,0.000000,0.000000,0.000000,0.000000;
#CREDIT:;
#OFFSET:0.000480;
#BPMS:0.000000=128.000000
,215.000000=64.000000
,217.000000=128.000000
;
#STOPS:28.000000=0.468750
,185.000000=0.468748
,214.000000=0.468748
;
#DELAYS:;
#WARPS:;
#TIMESIGNATURES:0.000000=4=4
;
#TICKCOUNTS:0.000000=4
;
#COMBOS:0.000000=1
;
#SPEEDS:0.000000=1.000000=0.000000=0
;
#SCROLLS:0.000000=1.000000
;
#FAKES:;
#LABELS:0.000000=Song Start
;
#NOTES:
// measure 0
0000
0000
0000
0000
,  // measure 1
0000
0000
0000
0000
,  // measure 2
0000
0000
0000
0000
,  // measure 3
0000
0000
0000
0000
,  // measure 4
0001
0010
0000
0001
0010
0000
0100
1000
0000
0100
1000
0000
0001
0000
0100
0000
,  // measure 5
0010
1000
0010
1000
0010
0000
0100
0000
0001
0000
0001
0000
0002
0000
0000
0000
,  // measure 6
1003
0100
0000
0010
0000
0001
0000
1000
0000
0100
0000
0010
0000
0001
0100
0000
,  // measure 7
0010
0000
0000
0000
1000
0000
0020
0000
0032
0000
0023
0000
1000
0000
0000
1000
,  // measure 8
0000
0000
1000
0000
0130
0000
0000
0000
0110
0000
0001
0000
1000
0100
0000
1000
,  // measure 9
0000
0100
0010
0000
0001
0000
0200
0000
2300
0000
3200
0000
0001
0000
0000
0001
,  // measure 10
0000
0000
0320
0000
2030
0000
0000
0000
3002
0000
2003
0000
0100
0000
0000
0100
,  // measure 11
0000
0000
3001
0000
0011
0000
0000
0000
0011
0000
0000
0000
0020
0000
0000
0001
,  // measure 12
0000
0000
0001
0000
0130
0000
0000
0000
0110
0000
1000
0000
0001
0100
0000
0001
,  // measure 13
0000
0100
0010
0000
1000
0000
0200
0000
0302
0000
0203
0000
1000
0000
0000
0000
,  // measure 14
0310
0000
0002
0000
0203
0000
0000
0000
0320
0000
2030
0000
3100
0010
0200
0000
,  // measure 15
0000
0000
1300
0000
1100
0000
0020
0000
0032
0000
0203
0000
0010
0000
0000
1000
,  // measure 16
0000
0000
0001
0000
0301
0000
0000
0000
0101
0000
0100
0000
0001
1000
0000
0100
,  // measure 17
0000
0010
0100
0000
1000
0000
0002
0000
0203
0000
0320
0000
1000
0000
0000
0100
,  // measure 18
0000
0000
0032
0000
0023
0000
0000
0000
2030
0000
3200
0000
0001
0000
0000
0010
,  // measure 19
0000
0000
1300
0000
1001
0000
0000
0000
1001
0000
0000
0000
2000
0000
0000
0010
,  // measure 20
0000
0000
0001
0000
3001
0000
0000
0000
1100
0000
0100
0000
1000
0010
0000
0100
,  // measure 21
0000
0010
0100
0000
0001
0000
2000
0000
3200
0000
0320
0000
0100
0000
0000
0000
,  // measure 22
0130
0000
1000
0000
0010
0100
0010
0000
0100
0000
0002
0000
0000
0000
0103
0000
,  // measure 23
0001
0000
0100
0000
1001
0000
0000
0000
1000
0001
1000
0001
1000
0000
0001
0010
,  // measure 24
0001
0010
0001
1000
0000
0001
0100
0000
1001
0000
0000
0000
1000
0000
0001
0100
,  // measure 25
0001
0100
0001
1000
0000
0001
0010
0000
1100
0000
0000
0000
1000
0000
0010
0000
,  // measure 26
0001
0010
0100
1000
0100
0001
0000
0001
,  // measure 27
1000
0000
0100
0000
0012
0000
0000
0000
2003
0000
0000
0000
3001
0000
1000
0010
,  // measure 28
1000
0010
1000
0001
0000
1000
0100
0000
1001
0000
0000
0000
0001
0000
0010
0001
,  // measure 29
0010
0001
0010
0200
0000
0000
1300
0000
0010
0000
0100
0000
0001
1000
0002
0000
,  // measure 30
0000
1003
0000
0011
0000
1010
0001
0001
,  // measure 31
0010
0000
0010
0000
0100
0000
0100
0000
1000
0000
1000
0000
0001
0000
0100
0001
,  // measure 32
0100
0001
0100
0010
0000
0100
0001
0000
1001
0000
0000
0000
1000
0000
0100
1000
,  // measure 33
0100
1000
0100
0020
0000
0000
0130
0000
1001
0000
0000
0000
0001
0000
0100
0000
,  // measure 34
1000
0100
0010
0001
0010
1000
0000
1000
,  // measure 35
0100
0000
0010
0000
1002
0000
0000
0000
1003
0000
1000
0000
0001
0000
1000
0010
,  // measure 36
1000
0010
1000
0100
0000
0010
0001
0000
0100
0000
0001
1000
0100
0000
0000
0000
,  // measure 37
1001
0000
1100
0101
0000
1001
0000
0011
,  // measure 38
1010
0000
0000
0000
0002
0000
0000
0000
0013
0100
0010
0100
0010
0000
0000
0011
,  // measure 39
0000
0000
1001
0000
0101
0000
0000
0000
0010
1000
0010
1000
0001
0010
0001
0000
,  // measure 40
0000
1010
0000
0000
0011
0000
0000
0000
1010
0000
0000
0000
0110
0000
0000
1010
,  // measure 41
0000
0000
1001
0000
1100
0000
0000
0010
0001
0000
1000
0000
0001
0100
0001
0000
,  // measure 42
0000
0110
0000
0000
1001
0000
0000
0000
1001
0000
0000
0000
0011
0000
0000
1010
,  // measure 43
0000
0000
1100
0000
0101
0000
0000
0000
0001
0000
0010
0001
1000
0010
1000
0000
,  // measure 44
0000
0011
0000
0000
1010
0000
0000
0000
1001
0000
0000
0000
0011
0000
0000
0000
,  // measure 45
1100
0000
0011
0000
1000
1000
1000
0000
,  // measure 46
0011
0000
0000
0000
1000
0000
0000
0000
0001
0100
0000
0001
0100
0000
0010
1000
,  // measure 47
0000
0010
1000
0000
0100
0000
0010
0000
0001
1000
0001
1000
0001
0000
1000
0000
,  // measure 48
0002
0000
0000
1003
0001
0000
0100
0000
0001
0010
0000
0100
0010
0000
0100
1000
,  // measure 49
0000
0000
0000
0001
0000
0000
0100
0000
0000
0000
0000
0000
0010
0000
0000
0000
0000
0000
1000
0000
0000
0000
0000
0000
0001
0000
0000
0000
0100
0000
0000
0000
0001
0000
0000
0000
1000
0000
0000
0000
0100
0000
0000
0000
1000
0000
0000
0000
,  // measure 50
0001
0000
0001
0000
0002
0000
0000
0000
0013
0001
0000
0001
0100
0000
0010
1000
,  // measure 51
0000
1000
0100
0000
0001
0000
0100
0000
1000
0001
1000
0001
1000
0000
0010
0000
,  // measure 52
0100
0000
0100
0000
0200
0000
0000
0000
0301
0100
0000
1000
0000
0001
0000
0010
,  // measure 53
0000
1000
0000
0001
0000
1000
0100
0000
0010
0000
0000
0000
2002
0000
0000
0000
,  // measure 54
3003
0002
2003
3020
0001
0000
0000
0001
0000
0000
0001
0000
0130
0000
0000
0000
,  // measure 55
0110
0000
1000
0000
0001
0100
0000
0001
0000
0100
0010
0000
1000
0000
0200
0000
,  // measure 56
0302
0000
0203
0000
1000
0000
0000
1000
0000
0000
0320
0000
0032
0000
0000
0000
,  // measure 57
2003
0000
3002
0000
0100
0000
0000
0100
0000
0000
1003
0000
1001
0000
0000
0000
,  // measure 58
1001
0000
0000
0000
0002
0000
0000
0010
0000
0000
1000
0000
0103
0000
0000
0000
,  // measure 59
0101
0000
0100
0000
0001
0010
0000
0100
0000
0010
0100
0000
1000
0000
0002
0000
,  // measure 60
0203
0000
0320
0000
0100
0000
0000
0000
0130
0000
0001
0000
0010
0100
0010
0000
,  // measure 61
0100
2000
0000
3100
1000
0100
1001
0000
,  // measure 62
0001
1000
0001
1000
0001
0000
0000
0000
0000
0000
0000
0000
0000
0000
0000
0000
;

//---------------dance-single - ----------------
#NOTEDATA:;
#CHARTNAME:06-08;
#STEPSTYPE:dance-single;
#DESCRIPTION:;
#CHARTSTYLE:;
#DIFFICULTY:Hard;
#METER:6;
#RADARVALUES:0.392332,0.405908,0.444935,0.230139,0.030685,358.000000,300.000000,58.000000,30.000000,0.000000,0.000000,0.000000,0.000000,0.000000,0.392332,0.405908,0.444935,0.230139,0.030685,358.000000,300.000000,58.000000,30.000000,0.000000,0.000000,0.000000,0.000000,0.000000;
#CREDIT:;
#OFFSET:0.000480;
#BPMS:0.000000=128.000000
,215.000000=64.000000
,217.000000=128.000000
;
#STOPS:28.000000=0.468750
,185.000000=0.468748
,214.000000=0.468748
;
#DELAYS:;
#WARPS:;
#TIMESIGNATURES:0.000000=4=4
;
#TICKCOUNTS:0.000000=4
;
#COMBOS:0.000000=1
;
#SPEEDS:0.000000=1.000000=0.000000=0
;
#SCROLLS:0.000000=1.000000
;
#FAKES:;
#LABELS:0.000000=Song Start
;
#NOTES:
// measure 0
0000
0000
0000
0000
,  // measure 1
0000
0000
0000
0000
,  // measure 2
0000
0000
0000
0000
,  // measure 3
0000
0000
0000
0000
,  // measure 4
0001
0011
1000
1100
,  // measure 5
0001
0100
0001
0100
0001
1000
0200
0000
,  // measure 6
1300
1010
0001
0101
,  // measure 7
1000
0000
0001
0010
0100
0020
0001
0000
,  // measure 8
0001
0130
1001
0010
,  // measure 9
1001
0000
0001
0100
0010
0200
0001
0000
,  // measure 10
0310
1000
0200
0000
0310
0002
0100
0000
,  // measure 11
1003
1100
1100
0002
,  // measure 12
0010
1003
1001
0010
,  // measure 13
1001
0000
1000
0100
0010
0002
1000
0000
,  // measure 14
1003
0100
0001
0000
0001
0100
0010
0200
,  // measure 15
1000
0000
0310
0001
0100
0020
1000
0000
,  // measure 16
0100
0031
0110
1000
,  // measure 17
0110
0000
0001
0100
0010
2000
0100
0000
,  // measure 18
3001
0010
2000
0000
3010
0002
0100
0000
,  // measure 19
0013
1001
1001
2000
,  // measure 20
0010
3001
0110
1000
,  // measure 21
0110
0000
0001
0100
1000
0200
0001
0000
,  // measure 22
0010
0000
0301
0100
0010
2000
0100
0000
,  // measure 23
3001
0000
1001
0000
0000
0000
1000
0100
,  // measure 24
1000
0000
0010
0000
1010
0000
0001
0100
,  // measure 25
0001
0000
0010
0000
0011
0000
1000
0010
,  // measure 26
1000
0000
0001
0010
0001
0000
1000
0100
,  // measure 27
1000
0100
0002
0000
0203
0000
1300
0100
,  // measure 28
0010
0000
0001
0000
0110
0000
0001
0100
,  // measure 29
0010
0000
1000
0000
1001
0000
1000
0200
,  // measure 30
0000
0001
0000
0010
0000
1300
0100
0000
,  // measure 31
0010
0100
0010
0100
0010
0000
0100
1000
,  // measure 32
0010
0000
0100
0000
0101
0000
0100
0001
,  // measure 33
0010
0000
0100
0000
1100
0000
0001
0010
,  // measure 34
0001
0000
1000
0010
1000
0000
0010
0001
,  // measure 35
0010
1000
0010
0000
0101
0000
1000
0010
,  // measure 36
0100
0000
0001
0010
0100
0000
1100
0000
,  // measure 37
0011
0000
0001
1001
0000
1010
0000
1000
,  // measure 38
1001
0000
0000
0000
0110
0000
0000
0000
0000
0000
0000
0000
1000
0000
0000
1000
,  // measure 39
0000
1000
0010
0000
1010
0000
0001
0010
,  // measure 40
0000
0001
0000
0000
0110
0000
0000
0000
0110
0000
0000
0000
0001
0000
0000
0001
,  // measure 41
0000
0001
0010
0000
0001
1000
0000
0010
,  // measure 42
0000
0010
0000
0000
1001
0000
0000
0000
1001
0000
0000
0000
1000
0000
0000
1000
,  // measure 43
0000
1000
0100
0000
1001
0000
0100
0001
,  // measure 44
0000
0001
0000
0000
0101
0000
0000
0000
1001
0000
0000
0000
1100
0000
0000
0000
,  // measure 45
1100
0000
1100
0000
0001
0010
0001
0000
,  // measure 46
1100
0001
1000
1010
,  // measure 47
0001
0000
0101
0000
1000
0010
1000
0010
,  // measure 48
0200
0301
1000
1100
,  // measure 49
0001
0011
1000
1000
,  // measure 50
0010
1000
0200
0000
0310
0000
1001
0000
,  // measure 51
0100
0000
1001
0000
0001
0100
0010
1000
,  // measure 52
0100
0010
0002
0000
1003
0000
0110
0000
,  // measure 53
0001
0110
1000
2002
,  // measure 54
3003
0001
0100
0020
1000
0000
0000
0000
1000
0000
0000
0000
0130
0000
0000
0000
,  // measure 55
1001
0000
0010
0000
1001
0000
1000
0100
,  // measure 56
0010
0200
1000
0000
0310
0001
0200
0000
,  // measure 57
0310
2000
0100
0000
3001
0000
1100
0000
,  // measure 58
1100
0002
0010
1003
,  // measure 59
0110
0000
0001
0000
0110
0000
1000
0100
,  // measure 60
0001
0200
1000
0000
0010
0000
1300
0100
,  // measure 61
0010
0002
0100
0000
1003
0000
1001
0000
,  // measure 62
0100
0010
0100
0000
0000
0000
0000
0000
;

//---------------dance-single - ----------------
#NOTEDATA:;
#CHARTNAME:04-06;
#STEPSTYPE:dance-single;
#DESCRIPTION:;
#CHARTSTYLE:;
#DIFFICULTY:Medium;
#METER:4;
#RADARVALUES:0.288222,0.334277,0.253153,0.207125,0.000000,263.000000,230.000000,33.000000,27.000000,0.000000,0.000000,0.000000,0.000000,0.000000,0.288222,0.334277,0.253153,0.207125,0.000000,263.000000,230.000000,33.000000,27.000000,0.000000,0.000000,0.000000,0.000000,0.000000;
#CREDIT:;
#OFFSET:0.000480;
#BPMS:0.000000=128.000000
,215.000000=64.000000
,217.000000=128.000000
;
#STOPS:28.000000=0.468750
,185.000000=0.468748
,214.000000=0.468748
;
#DELAYS:;
#WARPS:;
#TIMESIGNATURES:0.000000=4=4
;
#TICKCOUNTS:0.000000=4
;
#COMBOS:0.000000=1
;
#SPEEDS:0.000000=1.000000=0.000000=0
;
#SCROLLS:0.000000=1.000000
;
#FAKES:;
#LABELS:0.000000=Song Start
;
#NOTES:
// measure 0
0000
0000
0000
0000
,  // measure 1
0000
0000
0000
0000
,  // measure 2
0000
0000
0000
0000
,  // measure 3
0000
0000
0000
0000
,  // measure 4
0001
0010
0100
1000
,  // measure 5
0001
0000
0001
0000
0100
0001
0200
0000
,  // measure 6
0301
0001
1000
0100
,  // measure 7
0010
0000
0000
0001
0010
0002
0000
0000
,  // measure 8
1000
0000
1003
0000
,  // measure 9
1001
0000
0000
1000
0010
2000
0000
0000
,  // measure 10
3001
1000
0200
0000
0310
0200
0000
0000
,  // measure 11
0310
1001
1001
2000
,  // measure 12
0010
0000
3010
0000
,  // measure 13
1001
0000
0000
0001
0100
0002
0000
0000
,  // measure 14
1003
0001
0010
0000
0100
0000
1000
0100
,  // measure 15
1000
0000
0001
1000
0010
2000
0000
0000
,  // measure 16
0010
0000
3001
0000
,  // measure 17
1100
0000
0000
0001
0010
0002
0000
0000
,  // measure 18
1003
0010
0200
0000
0301
2000
0000
0000
,  // measure 19
3100
1001
1001
0002
,  // measure 20
0010
0000
1003
0000
,  // measure 21
0101
0000
0000
0001
1000
0200
0000
0000
,  // measure 22
1300
0000
0000
1000
0001
0200
0000
0000
,  // measure 23
0301
1001
0000
1000
,  // measure 24
0010
0100
0100
0001
,  // measure 25
0010
0100
0100
1000
,  // measure 26
0010
0100
0010
1000
,  // measure 27
0100
0011
1100
0001
,  // measure 28
0010
0100
0100
1000
,  // measure 29
0010
0100
0001
2000
,  // measure 30
0001
0001
3001
1001
,  // measure 31
0100
0100
0100
0001
,  // measure 32
0010
0100
1000
1000
,  // measure 33
0010
0100
0001
0001
,  // measure 34
0010
1000
0010
0001
,  // measure 35
0100
1010
0101
1000
,  // measure 36
1000
0100
0100
1001
,  // measure 37
1001
0000
0100
0010
0000
1001
0000
0100
,  // measure 38
0010
1001
0000
1000
,  // measure 39
0010
0000
1000
0000
1010
0000
0000
0001
,  // measure 40
0000
0001
0010
0000
0010
0000
0001
0000
,  // measure 41
0100
0000
0001
0000
0101
0000
0000
0001
,  // measure 42
0000
1000
0100
0000
0110
0000
0001
0000
,  // measure 43
0010
0000
0001
0000
0011
0000
0000
1000
,  // measure 44
0000
1000
0010
0000
1000
0000
1001
0000
,  // measure 45
1001
0000
1001
0000
0100
0010
0100
0000
,  // measure 46
1001
0100
0001
0010
,  // measure 47
0100
0000
1000
0000
0001
0100
0001
0000
,  // measure 48
2000
3001
1000
0100
,  // measure 49
0010
0001
0100
0100
,  // measure 50
0010
0100
0020
0000
1030
0000
0010
0000
,  // measure 51
0100
0001
1000
1000
,  // measure 52
0100
1000
0200
0000
1300
0000
1000
0000
,  // measure 53
0001
0100
0010
2002
,  // measure 54
3003
2000
0001
0000
,  // measure 55
3001
0000
0000
0000
1001
0000
0000
0001
,  // measure 56
0010
0002
0000
0000
1003
0001
0200
0000
,  // measure 57
0310
0200
0000
0000
0310
0000
1001
0000
,  // measure 58
1001
2000
0010
0000
,  // measure 59
3001
0000
0000
0000
1100
0000
0000
1000
,  // measure 60
0001
0200
0000
0000
0301
0000
0000
0001
,  // measure 61
1000
0200
0000
0000
1300
0000
1001
0000
,  // measure 62
0000
0110
0000
0000
;

//---------------dance-single - ----------------
#NOTEDATA:;
#CHARTNAME:03-04;
#STEPSTYPE:dance-single;
#DESCRIPTION:;
#CHARTSTYLE:;
#DIFFICULTY:Easy;
#METER:3;
#RADARVALUES:0.213701,0.262646,0.191783,0.230139,0.000000,195.000000,170.000000,25.000000,30.000000,0.000000,0.000000,0.000000,0.000000,0.000000,0.213701,0.262646,0.191783,0.230139,0.000000,195.000000,170.000000,25.000000,30.000000,0.000000,0.000000,0.000000,0.000000,0.000000;
#CREDIT:;
#OFFSET:0.000480;
#BPMS:0.000000=128.000000
,215.000000=64.000000
,217.000000=128.000000
;
#STOPS:28.000000=0.468750
,185.000000=0.468748
,214.000000=0.468748
;
#DELAYS:;
#WARPS:;
#TIMESIGNATURES:0.000000=4=4
;
#TICKCOUNTS:0.000000=4
;
#COMBOS:0.000000=1
;
#SPEEDS:0.000000=1.000000=0.000000=0
;
#SCROLLS:0.000000=1.000000
;
#FAKES:;
#LABELS:0.000000=Song Start
;
#NOTES:
// measure 0
0000
0000
0000
0000
,  // measure 1
0000
0000
0000
0000
,  // measure 2
0000
0000
0000
0000
,  // measure 3
0000
0000
0000
0000
,  // measure 4
0001
0000
0010
0000
,  // measure 5
0100
0010
0100
0000
,  // measure 6
1000
0000
0010
0000
,  // measure 7
1000
0100
0100
1002
,  // measure 8
0010
0000
0013
0000
,  // measure 9
0011
0000
1000
2000
,  // measure 10
0010
3002
0010
2000
,  // measure 11
3003
1001
1001
2000
,  // measure 12
0010
0000
3010
0000
,  // measure 13
1010
0000
0001
0010
,  // measure 14
0001
1000
0010
2000
,  // measure 15
3000
1001
0000
2000
,  // measure 16
0010
0000
3100
0000
,  // measure 17
1010
0000
1000
0020
,  // measure 18
1000
0230
0001
0020
,  // measure 19
0330
1001
1001
0002
,  // measure 20
0010
0000
0103
0000
,  // measure 21
0011
0000
1000
0200
,  // measure 22
1300
0000
0001
0200
,  // measure 23
0301
2002
3003
0000
,  // measure 24
1000
0010
0100
0000
,  // measure 25
0100
0010
1000
0000
,  // measure 26
1000
0100
0010
0000
,  // measure 27
0100
1001
1001
0000
,  // measure 28
0001
0010
0100
0000
,  // measure 29
1000
0010
0100
0002
,  // measure 30
0000
1000
0000
1003
,  // measure 31
0001
1000
0001
0000
,  // measure 32
0001
0010
0100
0000
,  // measure 33
0100
0010
0001
0000
,  // measure 34
0001
0100
0010
0000
,  // measure 35
0100
1001
1001
0000
,  // measure 36
1000
0100
0010
0001
,  // measure 37
0001
0001
0000
1001
,  // measure 38
1001
0220
0330
1000
,  // measure 39
1000
1000
0000
0100
,  // measure 40
1000
0100
1000
0001
,  // measure 41
0001
0001
0000
0100
,  // measure 42
0001
2002
3003
0010
,  // measure 43
0010
0010
0000
0001
,  // measure 44
0001
1000
1000
0010
,  // measure 45
0010
0010
0000
0010
,  // measure 46
0100
0010
1000
0000
,  // measure 47
0010
0000
0100
0010
,  // measure 48
0100
0000
0001
0000
,  // measure 49
0010
0000
0100
0010
,  // measure 50
0100
0000
1000
0000
,  // measure 51
0001
0000
0100
0010
,  // measure 52
0100
0000
0001
0000
,  // measure 53
1000
0000
0100
0200
,  // measure 54
0300
2001
0010
0000
,  // measure 55
3010
0000
1010
0000
,  // measure 56
0001
0002
0010
2003
,  // measure 57
0010
0002
3003
1001
,  // measure 58
1001
2000
0010
0000
,  // measure 59
3100
0000
1010
0000
,  // measure 60
0001
0200
0301
0000
,  // measure 61
1000
0200
1300
2002
,  // measure 62
3003
0100
0000
0000
;

//---------------dance-single - ----------------
#NOTEDATA:;
#CHARTNAME:01-01;
#STEPSTYPE:dance-single;
#DESCRIPTION:;
#CHARTSTYLE:;
#DIFFICULTY:Beginner;
#METER:1;
#RADARVALUES:0.078905,0.121782,0.046028,0.145755,0.000000,72.000000,66.000000,6.000000,19.000000,0.000000,0.000000,0.000000,0.000000,0.000000,0.078905,0.121782,0.046028,0.145755,0.000000,72.000000,66.000000,6.000000,19.000000,0.000000,0.000000,0.000000,0.000000,0.000000;
#CREDIT:;
#OFFSET:0.000480;
#BPMS:0.000000=128.000000
;
#STOPS:;
#DELAYS:;
#WARPS:;
#TIMESIGNATURES:0.000000=4=4
;
#TICKCOUNTS:0.000000=4
;
#COMBOS:0.000000=1
;
#SPEEDS:0.000000=1.000000=0.000000=0
;
#SCROLLS:0.000000=1.000000
;
#FAKES:;
#LABELS:0.000000=Song Start
;
#NOTES:
// measure 0
0000
0000
0000
0000
,  // measure 1
0000
0000
0000
0000
,  // measure 2
0000
0000
0000
0000
,  // measure 3
0000
0000
0000
0000
,  // measure 4
0001
0000
0000
0000
,  // measure 5
0010
0000
0000
0000
,  // measure 6
0100
0000
0000
0000
,  // measure 7
1000
0000
0000
0000
,  // measure 8
2002
0000
0000
0000
,  // measure 9
3003
0000
0000
0000
,  // measure 10
1000
0000
0010
0000
,  // measure 11
2000
0000
3000
0000
,  // measure 12
2002
0000
0000
0000
,  // measure 13
3003
0000
0000
0000
,  // measure 14
0001
0000
0010
0000
,  // measure 15
0002
0000
0003
0000
,  // measure 16
0220
0000
0000
0000
,  // measure 17
0330
0000
0000
0000
,  // measure 18
0001
0000
0100
0000
,  // measure 19
0002
0000
0003
0000
,  // measure 20
0220
0000
0000
0000
,  // measure 21
0330
0000
0000
0000
,  // measure 22
1000
0000
0100
0000
,  // measure 23
2000
0000
3000
0000
,  // measure 24
1000
0000
0000
0000
,  // measure 25
0010
0000
0000
0000
,  // measure 26
0100
0000
0000
0000
,  // measure 27
0001
0000
1000
0000
,  // measure 28
0001
0000
0000
0000
,  // measure 29
0010
0000
0000
0000
,  // measure 30
0100
0000
0000
0000
,  // measure 31
1000
0000
0001
0000
,  // measure 32
1000
0000
0000
0000
,  // measure 33
0010
0000
0000
0000
,  // measure 34
1000
0000
0000
0000
,  // measure 35
0001
0000
1000
0000
,  // measure 36
0001
0000
0000
0000
,  // measure 37
0010
0000
0010
0000
,  // measure 38
0020
0000
0030
0000
,  // measure 39
0001
0000
0000
0000
,  // measure 40
0100
0000
0000
0000
,  // measure 41
1000
0000
0000
0000
,  // measure 42
0010
0000
0000
0000
,  // measure 43
0001
0000
0000
0000
,  // measure 44
0100
0000
0000
0000
,  // measure 45
0010
0000
0010
0000
,  // measure 46
0010
0000
0010
0000
,  // measure 47
0010
0000
0000
0000
,  // measure 48
1000
0000
0000
0000
,  // measure 49
0001
0000
0000
0000
,  // measure 50
1000
0000
0000
0000
,  // measure 51
0100
0000
0000
0000
,  // measure 52
0010
0000
0000
0000
,  // measure 53
0001
0000
0000
0000
,  // measure 54
0100
0000
0000
0000
,  // measure 55
0000
0000
2002
0000
,  // measure 56
0000
0000
3003
0000
,  // measure 57
0000
0000
0001
0000
,  // measure 58
1000
0000
0002
0000
,  // measure 59
0003
0000
0220
0000
,  // measure 60
0000
0000
0330
0000
,  // measure 61
0000
0000
1000
0000
,  // measure 62
0001
0000
2000
0000
,  // measure 63
3000
0000
0100
0000
;
