#TITLE:Такого как Путин;
#SUBTITLE:;
#ARTIST:Поющие вместе;
#TITLETRANSLIT:A Man Like Putin;
#SUBTITLETRANSLIT:;
#ARTISTTRANSLIT:Singing Together;
#GENRE:;
#CREDIT:;
#MUSIC:A Man Like Putin.ogg;
#BANNER:A Man Like Putin -- banner.png;
#BACKGROUND:A Man Like Putin -- background.png;
#CDTITLE:;
#SAMPLESTART:54.070;
#SAMPLELENGTH:14.784;
#SELECTABLE:YES;
#OFFSET:-0.544;
#BPMS:0.000=145.000;
#STOPS:;
#BGCHANGES:;
#FGCHANGES:;

//--------------- dance-single - forcednature ----------------
#NOTES:
     dance-single:
     forcednature:
     Beginner:
     1:
     0,0,0,0,0:
0000
0000
0000
0000
,
0000
0000
0000
0000
,
0000
0000
0000
0000
,
0000
0000
0000
0000
,
0010
0000
0010
0000
,
0100
0000
1000
0000
,
0010
0000
0010
0000
,
1001
0000
0000
0000
,
0100
0000
0001
0000
,
0010
0000
0001
0000
,
0100
0000
1000
0000
,
0010
0000
1000
0000
,
0100
0000
0001
0000
,
0100
0000
1000
0000
,
0010
0000
0001
0000
,
1001
0000
0000
0000
,
0010
0000
0000
0000
,
0100
0000
0000
0000
,
0001
0000
0000
0000
,
1000
0000
0000
0000
,
0100
0000
0000
0000
,
0010
0000
0000
0000
,
0001
0000
0000
0000
,
1000
0000
0000
0000
,
0010
0000
0000
0000
,
0000
0000
0000
0000
,
0100
0000
0000
0000
,
0000
0000
0000
0000
,
0001
0000
1000
0000
,
0001
0000
1000
0000
,
0010
0000
0100
0000
,
0010
0000
0100
0100
,
0000
0000
0000
0000
,
0110
0000
1000
0000
,
0001
0000
0000
0000
,
0110
0000
0001
0000
,
1000
0000
0000
0000
,
1001
0000
0010
0000
,
0100
0000
0000
0000
,
1001
0000
0100
0000
,
0010
0000
0000
0000
,
1001
0000
0100
0000
,
0010
0000
0000
0000
,
1001
0000
0010
0000
,
0100
0000
0000
0000
,
0110
0000
0001
0000
,
1000
0000
0000
0000
,
0110
0000
1000
0000
,
0001
0000
0000
0000
,
0100
0000
0001
0000
,
1000
0000
0100
0000
,
0010
0000
0001
0000
,
1000
0000
0010
0000
,
1000
0000
0100
0000
,
0010
0000
0001
0000
,
0100
0000
0001
0000
,
1000
0000
0010
0000
,
1000
0000
0001
0000
,
0010
0000
0100
0000
,
1000
0000
0001
0000
,
0100
0000
0010
0000
,
1000
0000
0001
0000
,
0010
0000
0100
0000
,
1000
0000
0100
0000
,
0010
0000
0000
0000
,
0100
0100
0000
0000
0000
0000
0000
0000
;

//--------------- dance-single - forcednature ----------------
#NOTES:
     dance-single:
     forcednature:
     Easy:
     4:
     0,0,0,0,0:
0000
0000
0000
0000
,
0000
0000
0000
0000
,
0000
0000
0000
0000
,
0000
0000
0000
0000
,
0100
0001
1000
0010
,
0100
0001
1000
0010
,
1000
0100
0010
0001
,
2002
0000
0000
3003
,
0001
0100
1000
0100
,
0001
0100
1000
0100
,
0001
0010
1000
0010
,
0001
0010
1000
0010
,
0001
1000
0001
1000
,
0001
1000
0001
1000
,
0100
0010
0100
0010
,
0220
0000
0000
0330
,
0100
0100
1000
0001
,
0100
0100
1000
0001
,
0010
0010
1000
0001
,
0010
0000
0100
0100
,
1000
0001
0100
0100
,
1000
0001
0100
0100
,
1000
0001
0010
0010
,
1000
0000
0000
0000
,
0010
0000
0100
0000
,
1000
0001
0100
0000
,
0010
0000
1000
0000
,
0001
0010
0100
0000
,
1000
0100
0001
0100
,
1000
0100
0001
0100
,
1000
0010
0001
0010
,
0100
0100
1001
0110
,
0010
0000
0100
0100
,
0010
0010
0000
0000
1000
0000
0001
0000
,
1001
0000
0001
0100
,
0010
0010
0000
0000
1000
0000
0001
0000
,
1001
0000
0100
1000
,
0010
0010
0000
0000
0100
0000
0001
0000
,
1001
0000
0001
1000
,
0010
0010
0000
0000
1000
0000
0001
0000
,
1001
0000
0100
1000
,
0010
0010
0000
0000
0100
0000
0001
0000
,
1001
0000
0001
0100
,
0010
0010
0000
0000
1000
0000
0001
0000
,
1001
0000
0001
0100
,
0010
0010
0000
0000
1000
0000
0001
0000
,
1001
0000
0001
1000
,
0010
0010
0000
0000
1000
0000
0001
0000
,
1001
0000
0010
0010
,
0100
0001
0010
0010
,
0100
1000
0010
0010
,
0100
0001
1000
0100
,
0010
0000
0010
0010
,
0100
0001
0010
0010
,
0100
1000
0010
0010
,
0100
0001
0010
0010
,
0100
0000
0010
0010
,
0001
0100
0010
0010
,
1000
0100
0010
0010
,
0001
0100
0010
0010
,
1000
0000
0010
0010
,
1000
0100
0010
0010
,
0001
0100
0010
0010
,
1000
0001
0010
0010
,
0001
0000
0100
0100
,
0010
0010
0000
0000
0000
0000
0000
0000
;

//--------------- dance-single - forcednature ----------------
#NOTES:
     dance-single:
     forcednature:
     Medium:
     6:
     0,0,0,0,0:
0000
0000
0000
0000
,
0000
0000
0000
0000
,
0000
0000
0000
0000
,
0000
0000
0000
0000
,
0010
0100
0010
0100
,
1000
0001
1000
0001
,
0010
0100
0010
0100
,
2002
0000
0000
0000
3003
0000
0010
0010
,
0100
0000
0001
0000
1000
0100
0100
0000
,
0010
0000
0001
0000
1000
0001
0001
0000
,
0100
0000
0001
0000
0010
0100
0100
0000
,
1000
0000
0010
0000
0100
0001
0001
0000
,
1000
0000
0100
0000
0010
0001
0001
0000
,
1000
0000
0001
0000
0010
0100
0100
0000
,
1000
0000
0001
0000
1000
0010
0010
0000
,
2002
0000
3003
0010
0010
0010
0010
0000
,
1000
0000
0000
0001
0000
0000
1000
0000
0010
0000
0000
0000
0100
0000
0000
0000
,
0001
0000
0000
1000
0000
0000
0100
0000
0010
0000
0000
0000
0100
0000
0000
0000
,
1000
0000
0000
0001
0000
0000
0010
0000
0000
0001
0000
0000
0100
0000
0000
0000
,
0010
1000
0001
0100
,
0010
0000
0000
1000
0000
0000
0001
0000
1000
0000
0000
0000
0100
0000
0000
0000
,
0010
0000
0000
0001
0000
0000
1000
0000
0100
0000
0000
0000
1000
0000
0000
0000
,
0001
0000
0000
0100
0000
0000
0010
0000
1000
0000
0000
0000
0001
0000
0000
0000
,
0010
0000
0100
0000
1000
0000
0001
0010
,
0001
1000
0010
0100
0001
0000
1000
0100
,
0000
0000
0010
0000
0001
0000
0000
1000
,
0001
0100
0001
1000
0010
0000
1000
0100
,
0010
0000
0100
1000
0000
0001
0000
0010
,
0100
1000
0100
0010
0100
0000
1000
0001
,
0100
0001
1000
0001
0000
0000
0000
1000
,
0001
0010
0001
1000
0010
0000
1000
0001
,
0000
0100
0010
0000
0110
0000
1001
0000
,
0110
0000
0000
0001
1000
0001
1000
0000
,
0010
0100
0000
0001
0000
1000
0100
0000
,
0011
0000
0000
1000
0001
0100
0001
0000
,
1000
0010
0000
1000
0000
0001
0010
0000
,
1100
0000
0000
0001
0010
0100
1000
0000
,
0001
1000
0000
0010
0000
0100
0001
0100
,
1000
0000
0000
0100
0001
1000
0010
0000
,
1000
0001
0000
0010
0000
0100
1000
0100
,
0001
0000
0000
0100
1000
0001
0010
0000
,
0100
1000
0000
0001
0000
1000
0010
0000
,
1001
0000
0000
0010
0001
1000
0100
0000
,
0010
0100
0000
1000
0000
0001
0100
0000
,
1001
0000
0000
0010
1000
0001
0010
0000
,
0100
1000
0000
0001
0000
0010
0100
1000
,
0100
0000
0000
1000
0001
0100
0010
0000
,
1000
0001
0000
0100
0000
0010
0100
0001
,
0100
0000
0000
0010
1000
0000
0001
0000
,
1000
0000
0000
0100
0000
0000
1000
0000
0001
0000
0000
0000
0010
0000
0000
0000
,
0100
0000
0000
1000
0000
0000
0001
0000
0010
0000
0000
0000
0100
0000
0000
0000
,
1000
0000
0000
0010
0000
0000
0100
0000
0000
0001
0000
0000
1000
0000
0000
0000
,
0100
1000
0001
0010
,
0100
0000
0000
1000
0000
0000
0001
0000
1000
0000
0000
0000
0010
0000
0000
0000
,
0100
0000
0000
0001
0000
0000
1000
0000
0001
0000
0000
0000
0010
0000
0000
0000
,
0100
0000
0000
1000
0000
0000
0010
0000
0100
0000
0000
0000
0001
0000
0000
0000
,
1000
0001
0010
0100
,
1000
0000
0000
0100
0000
0000
1000
0000
0001
0000
0000
0000
0100
0000
0000
0000
,
0001
0000
0000
1000
0000
0000
0010
0000
1000
0000
0000
0000
0001
0000
0000
0000
,
0010
0000
0000
0001
0000
0000
0100
0000
0000
0010
0000
0000
1000
0000
0000
0000
,
0100
1000
0001
0010
,
0100
0000
0000
1000
0000
0000
0001
0000
1000
0000
0000
0000
0010
0000
0000
0000
,
0100
0000
0000
0001
0000
0000
1000
0000
0001
0000
0000
0000
0010
0000
0000
0000
,
0100
0000
0000
1000
0000
0000
0001
0000
1000
0000
0000
0000
0010
0000
0000
0000
,
0100
0000
0000
0001
0100
0001
1000
0000
,
0010
0010
0000
0000
0000
0000
0000
0000
;

//--------------- dance-single - forcednature ----------------
#NOTES:
     dance-single:
     forcednature:
     Hard:
     7:
     0,0,0,0,0:
0000
0000
0000
0000
,
0000
0000
0000
0000
,
0000
0000
0000
0000
,
0000
0000
0000
0000
,
0010
1001
0100
1001
,
0010
1001
0100
1001
,
0100
1010
0100
0011
,
2002
0000
0000
3003
,
1000
0001
1000
0100
0010
0100
1000
0000
,
0001
0100
0010
1000
0001
0010
0100
0000
,
1000
0100
1000
0001
1000
0010
0100
0000
,
0001
1000
0100
0010
0100
1000
0001
0000
,
0010
0100
0010
0001
1000
0001
0010
0000
,
0100
1000
0001
0100
0001
1000
0100
0000
,
1000
0010
0100
0001
0010
0100
1000
0000
,
2002
0000
3003
0001
1000
0010
0100
0001
,
1000
0000
0000
0100
0000
0000
1000
0000
0001
0000
0010
0000
0001
0000
0100
0000
,
0010
0000
0000
1000
0000
0000
0001
0000
1000
0000
0010
0000
0100
0000
0001
0000
,
1000
0000
0000
0100
0000
0000
1000
0000
0000
0001
0000
0000
0100
0000
0010
0000
,
1000
0000
0000
0001
0010
0100
1000
0001
,
0010
0000
0000
0001
0000
0000
1000
0000
0010
0000
0100
0000
0001
0000
1000
0000
,
0010
0000
0000
1000
0000
0000
0001
0000
1000
0000
0100
0000
1000
0000
0001
0000
,
0100
0000
0000
0001
0000
0000
1000
0000
0010
0000
1000
0000
0001
0000
0010
0000
,
0100
0000
0100
0000
0100
0000
0100
0010
,
0001
1000
0010
0100
0001
0000
1000
0100
,
0000
0000
0010
0000
0001
0000
0000
0100
,
0001
1000
0010
1000
0001
0000
1000
0100
,
0010
0000
0100
1000
0000
0001
0000
0010
,
0100
0010
0001
0100
0010
0000
1000
0100
,
0010
0100
1000
0001
0000
0000
0000
0100
,
0001
1000
0010
1000
0001
0000
1000
0100
,
0000
0010
0001
0000
1001
0000
0110
0000
,
1001
0000
0000
0010
1000
0001
0100
0000
,
0010
0100
0000
0001
0000
1000
0100
0000
,
0011
0000
0000
0100
1000
0001
0010
0000
,
0100
1000
0000
0001
0000
1000
0010
0000
,
0101
0000
0000
1000
0001
0100
0001
0000
,
0100
0010
0000
1000
0000
0001
0010
0100
,
1000
0000
0000
0001
1000
0010
0100
0000
,
0001
1000
0000
0010
0000
1000
0100
0010
,
0100
0000
0000
1000
0001
0010
0100
0000
,
1000
0001
0000
0100
0000
0010
1000
0000
,
0011
0000
0000
0100
1000
0001
0010
0000
,
0100
1000
0000
0001
0000
1000
0010
0000
,
0101
0000
0000
0001
1000
0001
0100
0000
,
0010
1000
0000
0001
0000
0010
0100
1000
,
0100
0000
0000
1000
0001
0100
0001
0000
,
1000
0010
0000
1000
0000
0001
0010
0100
,
1000
0000
0000
0001
1000
0001
0100
0001
,
1000
0000
0000
0010
0000
0000
1000
0000
0100
0000
0010
0000
0001
0000
1000
0000
,
0010
0000
0000
1000
0000
0000
0001
0000
0010
0000
0100
0000
1000
0000
0001
0000
,
0100
0000
0000
0010
0000
0000
0100
0000
0000
0001
0000
0000
0100
0000
0010
0000
,
1000
0000
0000
0001
0010
0100
1000
0100
,
0010
0000
0000
0001
0000
0000
1000
0000
0010
0000
0100
0000
0001
0000
1000
0000
,
0001
0000
0000
0100
0000
0000
0010
0000
1000
0000
0100
0000
0010
0000
0100
0000
,
1000
0000
0000
0001
0000
0000
0010
0000
0100
0000
1000
0000
0001
0000
1000
0000
,
0010
0000
0000
0100
0001
1000
0100
1000
,
0001
0000
0000
0010
0000
0000
0100
0000
1000
0000
0001
0000
1000
0000
0010
0000
,
0100
0000
0000
0001
0000
0000
1000
0000
0100
0000
0010
0000
0100
0000
1000
0000
,
0001
0000
0000
0010
0000
0000
0100
0000
0000
1000
0000
0000
0100
0000
1000
0000
,
0001
0000
0000
1000
0010
0100
0001
1000
,
0001
0000
0000
0010
0000
0000
0100
0000
1000
0000
0001
0000
1000
0000
0010
0000
,
0100
0000
0000
0001
0000
0000
1000
0000
0100
0000
0010
0000
0100
0000
1000
0000
,
0001
0000
0000
0010
0000
0000
0100
0000
1000
0000
0001
0000
0010
0000
0100
0000
,
1000
0000
0000
0001
1000
0010
0100
0000
,
0010
1000
0000
0000
0000
0000
0000
0000
;

//--------------- dance-single - forcednature ----------------
#NOTES:
     dance-single:
     forcednature:
     Challenge:
     8:
     0,0,0,0,0:
0000
0000
0000
0000
,
0000
0000
0000
0000
,
0000
0000
0000
0000
,
0000
0000
0000
0000
,
1000
0010
1000
0001
1000
0100
1000
0001
,
0010
0001
1000
0001
0100
0001
1000
0001
,
0100
0010
1000
0001
0100
0010
1000
0001
,
2002
0000
0000
0000
0000
3003
0001
0000
1000
0000
0010
0000
0100
0000
0100
0000
,
0001
1000
0010
1000
0100
0010
0100
1000
,
0001
0010
0100
1000
0001
0010
0001
1000
,
0001
0100
0010
1000
0100
0010
0100
1000
,
0001
0010
0100
1000
0001
0100
0001
1000
,
0010
1000
0001
1000
0100
0010
0100
1000
,
0001
0010
0100
1000
0001
0100
0001
1000
,
0010
1000
0001
0010
0001
1000
0100
1000
,
2002
0000
0000
0000
3003
0000
0001
0000
1000
0100
1000
0000
0001
0000
1000
0000
,
0010
0000
0000
0100
0000
0000
0001
0000
1000
0100
1000
0000
0001
0000
0010
0000
,
0001
0000
0000
1000
0000
0000
0010
0000
0100
0001
0100
0000
0010
0000
1000
0000
,
0001
0000
0000
0010
0000
0000
0100
0000
0000
1000
0001
0000
0100
0000
0010
0000
,
1000
0000
0000
0000
0000
0000
0001
0000
1000
0010
1000
0000
0001
0000
0010
0000
,
0100
0000
0000
1000
0000
0000
0001
0000
1000
0010
1000
0000
0001
0000
0100
0000
,
0010
0000
0000
1000
0000
0000
0100
0000
1000
0001
1000
0000
0100
0000
0010
0000
,
0001
0000
0000
1000
0000
0000
0010
0000
0100
0001
0100
0000
0010
0000
1000
0000
,
1001
0000
1001
0000
1001
0000
1001
1000
,
0001
0100
0001
1000
0010
0000
1000
0100
,
0000
0000
0010
0000
0110
0000
0000
0100
,
1000
0001
0010
0100
1000
0000
0001
1000
,
0010
0000
0100
0001
0000
1100
0000
0001
,
0010
0100
1000
0100
0010
0000
0001
1000
,
0010
0100
0001
1000
0010
0000
1000
0100
,
0010
0001
1000
0001
0100
0000
0010
1000
,
0001
0010
0100
0000
0220
0330
2002
3003
,
1001
0000
0000
1000
0001
0100
0010
0000
,
2000
3000
2020
3030
0000
0000
0001
0000
0000
0000
0010
0000
0100
0000
0000
0000
,
1001
0000
0000
0100
0001
1000
0010
0000
,
0200
0300
0220
0330
0000
0000
0010
0000
0000
0000
1000
0000
0001
0000
0000
0000
,
1001
0000
0000
0001
0010
0100
1000
0000
,
0200
0300
2200
3300
0000
0000
1000
0000
0000
0000
0001
0000
0100
0000
0001
0000
,
1000
0000
0000
0010
1000
0001
0010
0000
,
0200
0300
0220
0330
0000
0000
0100
0000
0000
0000
1000
0000
0001
0000
0010
0000
,
0100
0000
0000
1000
0001
0100
0010
0000
,
2000
3000
2020
3030
0000
0000
1000
0000
0000
0000
0001
0000
0010
0000
0000
0000
,
0011
0000
0000
0100
1000
0001
0010
0000
,
0200
0300
2200
3300
0000
0000
1000
0000
0000
0000
0001
0000
0100
0000
0000
0000
,
0110
0000
0000
0010
1000
0001
0010
0000
,
0200
0300
0220
0330
0000
0000
0100
0000
0000
0000
1000
0000
0001
0000
0100
0000
,
0001
0000
0000
1000
0100
0010
0100
0000
,
2000
3000
2002
3003
0000
0000
0001
0000
0000
0000
1000
0000
0010
0000
0100
0000
,
0001
0000
0000
0000
0000
0000
1000
0000
0001
0010
0001
0000
1000
0000
0010
0000
,
0100
0000
0000
0001
0000
0000
1000
0000
0001
0100
0001
0000
1000
0000
0010
0000
,
0100
0000
0000
0001
0000
0000
1000
0000
0001
0010
0001
0000
1000
0000
0100
0000
,
0010
0000
0000
0100
0000
0000
1000
0000
0000
0001
0100
0000
0010
0000
1000
0000
,
0001
0000
0000
0000
0000
0000
1000
0000
0001
0100
0001
0000
1000
0000
0100
0000
,
0010
0000
0000
0001
0000
0000
1000
0000
0001
0100
0001
0000
1000
0000
0100
0000
,
0010
0000
0000
0001
0000
0000
1000
0000
0001
0100
0001
0000
1000
0000
0010
0000
,
1000
0000
0000
0001
0000
0000
0010
0000
0100
1000
0100
0000
0010
0000
0001
0000
,
0100
0000
0000
0000
0000
0000
0010
0000
1000
0001
1000
0000
0010
0000
1000
0000
,
0001
0000
0000
0010
0000
0000
0100
0000
1000
0001
1000
0000
0010
0000
0100
0000
,
0001
0000
0000
1000
0000
0000
0100
0000
0010
0001
0010
0000
0100
0000
1000
0000
,
0001
0000
0000
1000
0000
0000
0010
0000
0000
0100
0001
0000
1000
0000
0010
0000
,
1000
0000
0000
0000
0000
0000
0100
0000
0010
0001
0010
0000
0100
0000
1000
0000
,
0001
0000
0000
1000
0000
0000
0010
0000
0100
0001
0100
0000
0010
0000
1000
0000
,
0001
0000
0000
0010
0000
0000
0100
0000
1000
0001
1000
0000
0010
0000
0100
0000
,
0001
0000
0000
1000
0000
0000
0100
0000
0010
0001
0010
0000
0100
0000
1000
0000
,
0001
0000
0000
1000
0010
0100
0001
0000
,
0200
0300
2002
3003
0000
0000
0000
0000
0000
0000
0000
0000
0000
0000
0000
0000
;

//--------------- dance-double - forcednature ----------------
#NOTES:
     dance-double:
     forcednature:
     Easy:
     3:
     0,0,0,0,0:
00000000
00000000
00000000
00000000
,
00000000
00000000
00000000
00000000
,
00000000
00000000
00000000
00000000
,
00000000
00000000
00000000
00000000
,
00010000
01000000
00010000
00001000
,
00010000
01000000
00010000
00001000
,
00001000
00010000
00001000
00000100
,
00022000
00000000
00000000
00000000
00000000
00033000
00000000
00000000
,
00001000
00001000
00000000
00000000
00010000
00000000
01000000
00000000
,
00001000
00001000
00000000
00000000
00010000
00000000
00000100
00000000
,
00010000
00010000
00000000
00000000
00001000
00000000
01000000
00000000
,
00010000
00010000
00000000
00000000
00001000
00000000
00000100
00000000
,
00100000
00100000
00000000
00000000
01000000
00000000
00010000
00000000
,
00100000
00100000
00000000
00000000
01000000
00000000
00010000
00000000
,
00000100
00000100
00000000
00000000
00000010
00000000
00001000
00000000
,
00002002
00000000
00003003
00000000
,
00000010
00001000
00000100
00000001
,
00000010
00001000
00000100
00000001
,
00000010
00001000
00000100
00000001
,
00000010
00001000
00010000
01000000
,
10000000
00100000
00010000
01000000
,
10000000
00100000
00010000
01000000
,
10000000
00100000
00010000
01000000
,
10000000
00100000
00010000
01000000
,
00100000
00000000
10000000
00000000
,
00010000
00000000
00000000
00000000
,
00100000
00000000
00001000
00000000
,
00010000
00000000
00000000
00000000
,
00000100
00001000
00000001
00000010
,
00000100
00001000
00010000
00100000
,
01000000
10000000
00010000
00000000
,
01000000
00001000
00011000
00011000
,
00011000
00000000
00010000
00001000
,
01000000
01000000
00000000
00000000
00100000
00000000
10000000
00000000
,
00010000
00000000
00100000
00001000
,
00010000
00010000
00000000
00000000
00000100
00000000
00001000
00000000
,
00000001
00000000
00000100
00000010
,
00001000
00001000
00000000
00000000
00000100
00000000
00010000
00000000
,
00001000
00000000
01000000
00010000
,
00100000
00100000
00000000
00000000
01000000
00000000
10000000
00000000
,
00010000
00000000
10000000
00100000
,
01000000
01000000
00000000
00000000
00010000
00000000
00100000
00000000
,
00001000
00000000
00010000
00000100
,
00000010
00000010
00000000
00000000
00000001
00000000
00001000
00000000
,
00000010
00000000
00000100
00000001
,
00001000
00001000
00000000
00000000
00000100
00000000
00010000
00000000
,
00001000
00000000
01000000
00010000
,
00100000
00100000
00000000
00000000
01000000
00000000
10000000
00000000
,
00100000
00000000
01000000
00010000
,
10000000
01000000
01000000
00010000
,
10000000
01000000
00010000
00001000
,
00000100
00000100
00000001
00001000
,
00000100
00000100
00000001
00001000
,
00000100
00000100
00001000
00000001
,
00000100
00000100
00001000
00010000
,
01000000
01000000
10000000
00010000
,
01000000
01000000
10000000
00010000
,
01000000
01000000
00010000
10000000
,
01000000
01000000
00010000
00001000
,
00000100
00000100
00000001
00001000
,
00000100
00000100
00001000
00000001
,
00000100
00000100
00001000
00010000
,
01000000
01000000
00010000
00001000
,
00000100
00000100
00001000
00010000
,
01000000
00000000
00100000
00010000
,
00001000
00001000
00000000
00000000
00000000
00000000
00000000
00000000
;

//--------------- dance-double - forcednature ----------------
#NOTES:
     dance-double:
     forcednature:
     Medium:
     5:
     0,0,0,0,0:
00000000
00000000
00000000
00000000
,
00000000
00000000
00000000
00000000
,
00000000
00000000
00000000
00000000
,
00000000
00000000
00000000
00000000
,
00010000
00001000
01000000
00010000
,
10000000
01000000
00100000
01000000
,
10000000
00010000
00100000
00001000
,
00022000
00000000
00000000
00033000
,
00001000
00000000
00010000
00000000
00000010
00001000
00000010
00000000
,
00000100
00000000
00000001
00000000
00001000
00000100
00001000
00000000
,
00000100
00000000
00010000
00000000
00001000
01000000
00001000
00000000
,
10000000
00000000
00010000
00000000
00100000
01000000
00100000
00000000
,
10000000
00000000
01000000
00000000
00100000
00010000
00100000
00000000
,
00001000
00000000
00010000
00000000
00000010
00001000
00000010
00000000
,
00000100
00000000
00000001
00000000
00001000
00000100
00001000
00000000
,
00022000
00000000
00033000
00001000
00010000
00010000
00010000
00000000
,
00001000
00000000
00000000
01000000
00000000
00000000
00010000
00000000
10000000
00000000
00000000
00000000
00100000
00000000
00000000
00000000
,
10000000
00000000
00000000
01000000
00000000
00000000
00100000
00000000
01000000
00000000
00000000
00000000
10000000
00000000
00000000
00000000
,
00010000
00000000
00000000
00100000
00000000
00000000
00001000
00000000
00000000
00010000
00000000
00000000
00000010
00000000
00000000
00000000
,
00001000
00000001
00000100
00000010
,
00001000
00000000
00000000
00000100
00000000
00000000
00010000
00000000
00001000
00000000
00000000
00000000
01000000
00000000
00000000
00000000
,
00010000
00000000
00000000
10000000
00000000
00000000
00100000
00000000
01000000
00000000
00000000
00000000
00001000
00000000
00000000
00000000
,
00010000
00000000
00000000
00000100
00000000
00000000
00001000
00000000
00000010
00000000
00000000
00000000
00000100
00000000
00000000
00000000
,
00000001
00001000
00000001
00001000
,
00000010
00000000
00010000
00000000
00001000
00000000
01000000
00020000
,
00000000
00000000
10030000
00000000
01000000
00000000
00000000
00100000
,
01000000
10000000
00010000
00100000
,
00001000
00000000
00010000
00000010
00000000
00001000
00000000
00000000
,
00000001
00000100
00000010
00010000
,
00001000
00100000
00010000
00100000
00000000
00000000
01000000
00000000
,
10000000
00000000
00010000
00000000
00100000
00000000
00001000
00010000
,
00000000
00000010
00001000
00000000
00000200
00000300
00000020
00000030
,
00001001
00000000
00000000
00010000
00001000
01000000
00010000
00000000
,
01000000
00100000
00000000
10000000
00000000
00010000
00100000
00000000
,
11000000
00000000
00000000
00010000
00100000
00001000
00010000
00000000
,
00000010
00001000
00000000
00000001
00000000
00000100
00000010
00000000
,
00011000
00000000
00000000
00100000
00010000
10000000
01000000
00000000
,
00100000
01000000
00000000
10000000
00000000
00010000
01000000
00001000
,
01000000
00000000
00000000
00001000
00010000
00000100
00001000
00000000
,
00000001
00001000
00000000
00000010
00000000
00010000
00001000
00100000
,
00010000
00000000
00000000
10000000
01000000
00100000
01000000
00000000
,
10000000
00010000
00000000
01000000
00000000
00001000
00010000
00000000
,
00001100
00000000
00000000
00000010
00001000
00000001
00000100
00000000
,
00000001
00000010
00000000
00000100
00000000
00010000
00001000
00000000
,
01010000
00000000
00000000
10000000
00100000
01000000
00010000
00000000
,
00100000
00001000
00000000
00010000
00000000
00000100
00001000
00000100
,
00000010
00000000
00000000
00000001
00001000
00000010
00001000
00000000
,
00000100
00010000
00000000
00001000
00000000
01000000
00010000
10000000
,
00100000
00000000
00000000
10000000
00010000
00000000
10000000
00000000
,
00100000
00000000
00000000
01000000
00000000
00000000
00010000
00000000
00100000
00000000
00000000
00000000
00001000
00000000
00000000
00000000
,
00010000
00000000
00000000
00000100
00000000
00000000
00001000
00000000
00000001
00000000
00000000
00000000
00001000
00000000
00000000
00000000
,
00000010
00000000
00000000
00010000
00000000
00000000
00001000
00000000
00000000
01000000
00000000
00000000
00010000
00000000
00000000
00000000
,
10000000
01000000
00100000
01000000
,
10000000
00000000
00000000
00010000
00000000
00000000
00100000
00000000
00001000
00000000
00000000
00000000
00010000
00000000
00000000
00000000
,
00000010
00000000
00000000
00001000
00000000
00000000
00000001
00000000
00000100
00000000
00000000
00000000
00000010
00000000
00000000
00000000
,
00001000
00000000
00000000
00000100
00000000
00000000
00000010
00000000
00000100
00000000
00000000
00000000
00010000
00000000
00000000
00000000
,
00001000
01000000
00010000
10000000
,
00100000
00000000
00000000
10000000
00000000
00000000
00010000
00000000
00100000
00000000
00000000
00000000
01000000
00000000
00000000
00000000
,
10000000
00000000
00000000
00010000
00000000
00000000
01000000
00000000
00001000
00000000
00000000
00000000
00010000
00000000
00000000
00000000
,
00000100
00000000
00000000
00001000
00000000
00000000
00000001
00000000
00000000
00001000
00000000
00000000
00000010
00000000
00000000
00000000
,
00000100
00000001
00001000
00000100
,
00010000
00000000
00000000
00001000
00000000
00000000
01000000
00000000
00010000
00000000
00000000
00000000
10000000
00000000
00000000
00000000
,
01000000
00000000
00000000
00100000
00000000
00000000
01000000
00000000
10000000
00000000
00000000
00000000
00010000
00000000
00000000
00000000
,
00100000
00000000
00000000
00001000
00000000
00000000
00010000
00000000
00000100
00000000
00000000
00000000
00001000
00000000
00000000
00000000
,
00000001
00000000
00001000
00000010
00001000
00000100
00010000
00000000
,
00001000
01000000
00000000
00000000
00000000
00000000
00000000
00000000
;

//--------------- dance-double - forcednature ----------------
#NOTES:
     dance-double:
     forcednature:
     Hard:
     7:
     0,0,0,0,0:
00000000
00000000
00000000
00000000
,
00000000
00000000
00000000
00000000
,
00000000
00000000
00000000
00000000
,
00000000
00000000
00000000
00000000
,
00010000
00001000
01000000
00010000
10000000
01000000
00100000
00000000
,
01000000
10000000
00010000
00100000
00001000
00010000
00000100
00000000
,
00001000
00000100
00000010
00000001
00001000
00000010
00000100
00000000
,
00002002
00000000
00003000
00000010
00000010
00000010
00000013
00000000
,
00010000
00001000
01000000
00010000
10000000
01000000
00100000
00000000
,
01000000
10000000
00010000
00100000
00001000
00010000
00000010
00000000
,
00001000
00000001
00000100
00000010
00001000
00000100
00010000
00000000
,
00001000
01000000
00010000
10000000
00100000
01000000
00010000
00000000
,
10000000
01000000
00100000
01000000
10000000
00010000
00100000
00000000
,
00001000
00010000
00000010
00001000
00000001
00000100
00000010
00000000
,
00001000
00000001
00000100
00000010
00001000
00000100
00000010
00000000
,
00002002
00000000
00003003
00000001
00001000
00000010
00000100
00000001
,
00001000
00000000
00000000
00000010
00000000
00000000
00010000
00000000
00001000
00000000
01000000
00000000
00010000
00000000
10000000
00000000
,
00100000
00000000
00000000
10000000
00000000
00000000
00010000
00000000
00100000
00000000
01000000
00000000
10000000
00000000
00010000
00000000
,
00100000
00000000
00000000
00001000
00000000
00000000
00010000
00000000
00000000
00000010
00000000
00000000
00001000
00000000
00000001
00000000
,
00000100
00000000
00000000
00000010
00001000
00000100
00010000
00001000
,
01000000
00000000
00000000
00010000
00000000
00000000
10000000
00000000
01000000
00000000
00100000
00000000
01000000
00000000
10000000
00000000
,
00010000
00000000
00000000
00100000
00000000
00000000
00001000
00000000
00010000
00000000
00000100
00000000
00001000
00000000
00000001
00000000
,
00001000
00000000
00000000
00000010
00000000
00000000
00010000
00000000
00001000
00000000
01000000
00000000
00010000
00000000
10000000
00000000
,
00200000
00300000
00200000
00300000
00200000
00300000
00200000
00310000
,
00100000
01000000
10000000
00010000
00100000
00000000
00001000
00010000
,
00000000
00000000
00000010
00000000
00001000
00000000
00000000
00000001
,
00000100
00000010
00000100
00000001
00001000
00000000
00000100
00010000
,
00001000
00000000
01000000
00010000
00000000
10000000
00000000
01000000
,
10000000
00010000
00100000
01000000
10000000
00000000
00010000
00100000
,
00001000
00010000
00000010
00001000
00000000
00000000
00000000
00000001
,
00000100
00000010
00000100
00000001
00001000
00000000
00000100
00010000
,
00000000
00001000
01000000
00000000
01010000
00000000
00001100
00000000
,
00022000
00000000
00033000
00010000
00001000
01000000
00010000
00000000
,
10000000
00010000
00000000
00100000
00000000
01000000
10000000
00000000
,
10010000
00000000
00000000
10000000
00010000
01000000
00001000
00000000
,
00010000
00000100
00000000
00001000
00000000
00000001
00000010
00000000
,
00001100
00000000
00000000
00010000
00001000
00100000
00010000
00000000
,
00100000
01000000
00000000
10000000
00000000
00010000
01000000
00100000
,
01000000
00000000
00000000
00010000
00100000
00001000
00010000
00000000
,
00000010
00001000
00000000
00000001
00000000
00000100
00000010
00001000
,
00000100
00000000
00000000
00010000
00001000
01000000
00010000
00000000
,
10000000
01000000
00000000
00100000
00000000
01000000
10000000
00000000
,
00110000
00000000
00000000
00100000
00001000
00010000
00000010
00000000
,
00001000
00000001
00000000
00000010
00000000
00000100
00001000
00000000
,
00010100
00000000
00000000
00010000
00001000
01000000
00010000
00000000
,
10000000
01000000
00000000
00100000
00000000
01000000
10000000
01000000
,
00100000
00000000
00000000
00010000
00100000
00001000
00010000
00000000
,
00000010
00001000
00000000
00000001
00000000
00000100
00000001
00000100
,
00000010
00000000
00000000
00001000
00000001
00000100
00000010
00001000
,
00000100
00000000
00000000
00010000
00000000
00000000
00001000
00000000
01000000
00000000
00010000
00000000
10000000
00000000
00100000
00000000
,
01000000
00000000
00000000
00010000
00000000
00000000
10000000
00000000
01000000
00000000
00100000
00000000
01000000
00000000
10000000
00000000
,
00010000
00000000
00000000
00100000
00000000
00000000
00001000
00000000
00000000
00010000
00000000
00000000
00000010
00000000
00001000
00000000
,
00000001
00000000
00000000
00000100
00000010
00001000
00000100
00010000
,
00001000
00000000
00000000
01000000
00000000
00000000
00010000
00000000
10000000
00000000
01000000
00000000
00100000
00000000
01000000
00000000
,
10000000
00000000
00000000
00010000
00000000
00000000
00100000
00000000
00001000
00000000
00010000
00000000
00000010
00000000
00001000
00000000
,
00000001
00000000
00000000
00000100
00000000
00000000
00000010
00000000
00001000
00000000
00000100
00000000
00010000
00000000
00001000
00000000
,
01000000
00000000
00000000
00010000
10000000
01000000
00100000
01000000
,
10000000
00000000
00000000
00010000
00000000
00000000
00100000
00000000
00001000
00000000
00010000
00000000
00000010
00000000
00001000
00000000
,
00000001
00000000
00000000
00000100
00000000
00000000
00000010
00000000
00001000
00000000
00000100
00000000
00010000
00000000
00001000
00000000
,
01000000
00000000
00000000
00010000
00000000
00000000
10000000
00000000
00000000
01000000
00000000
00000000
00100000
00000000
01000000
00000000
,
10000000
00000000
00000000
00010000
00100000
00001000
00010000
00000010
,
00001000
00000000
00000000
00000001
00000000
00000000
00000010
00000000
00000100
00000000
00001000
00000000
00000100
00000000
00010000
00000000
,
00001000
00000000
00000000
01000000
00000000
00000000
00010000
00000000
10000000
00000000
00100000
00000000
01000000
00000000
00010000
00000000
,
10000000
00000000
00000000
01000000
00000000
00000000
00100000
00000000
01000000
00000000
10000000
00000000
00010000
00000000
00100000
00000000
,
00001000
00000000
00000000
00010000
00000010
00001000
00000001
00000000
,
00000100
00000100
00000000
00000000
00000000
00000000
00000000
00000000
;

//--------------- dance-double - forcednature ----------------
#NOTES:
     dance-double:
     forcednature:
     Challenge:
     8:
     0,0,0,0,0:
00000000
00000000
00000000
00000000
,
00000000
00000000
00000000
00000000
,
00000000
00000000
00000000
00000000
,
00000000
00000000
00000000
00000000
,
00001000
00010000
00001000
01000000
00001000
00010000
00001000
01000000
,
00001000
00010000
00000100
00010000
00001000
00010000
00000100
00010000
,
00001000
00100000
00001000
00010000
00001000
00010000
00000010
00010000
,
00022000
00000000
00000000
00000000
00033000
00000000
00001000
00010000
,
00001000
01000000
00010000
00100000
01000000
10000000
00010000
00100000
,
00001000
00010000
00000100
00001000
00000001
00001000
00000010
00001000
,
00000100
00010000
00001000
01000000
00010000
01000000
00100000
01000000
,
10000000
01000000
00100000
10000000
01000000
00100000
00010000
00100000
,
00001000
00010000
00000010
00001000
00000001
00000100
00000010
00001000
,
00000100
00010000
00001000
01000000
00010000
10000000
01000000
00100000
,
01000000
10000000
00010000
00100000
00001000
00010000
00000010
00001000
,
00002002
00000000
00000000
00000000
00000000
00003003
00000001
00000000
00000100
00000001
00000100
00000000
00000010
00000000
00001000
00000000
,
00000100
00000000
00000000
00010000
00000000
00000000
00001000
00000000
01000000
00010000
01000000
00000000
00010000
00000000
10000000
00000000
,
00100000
00000000
00000000
01000000
00000000
00000000
00010000
00000000
10000000
01000000
10000000
00000000
00010000
00000000
00100000
00000000
,
00001000
00000000
00000000
00010000
00000000
00000000
00000010
00000000
00000000
00001000
00000001
00000000
00000100
00000000
00000010
00000000
,
00001000
00000000
00000000
00000000
00000000
00000000
00000100
00000000
00010000
00001000
00010000
00000000
00001000
00000000
01000000
00000000
,
00010000
00000000
00000000
10000000
00000000
00000000
01000000
00000000
00100000
01000000
00100000
00000000
01000000
00000000
10000000
00000000
,
00010000
00000000
00000000
00100000
00000000
00000000
00001000
00000000
00010000
00000010
00010000
00000000
00000100
00000000
00001000
00000000
,
00000001
00000000
00000000
00000010
00000000
00000000
00000100
00000000
00001000
00000100
00001000
00000000
00000100
00000000
00010000
00000000
,
00011000
00000000
00011000
00000000
00011000
00000000
00011000
00001000
,
00010000
00001000
01000000
00010000
10000000
00000000
00010000
10000000
,
00000000
00000000
01000000
00000000
00011000
00000000
00000000
00000100
,
00001000
00000001
00000010
00000100
00010000
00000000
00001000
01000000
,
00010000
00000000
10000000
01000000
00000000
00100000
00000000
01000000
,
10000000
01000000
00100000
01000000
10000000
00010000
00100000
00001000
,
00010000
00000010
00001000
00000001
00001000
00000100
00010000
00001000
,
01000000
00010000
10000000
00100000
01000000
00010000
10000000
00100000
,
01000000
00010000
00100000
00001000
02002000
03003000
00020200
00030300
,
00011000
00000000
00000000
00010000
00001000
01000000
00010000
00000000
,
20000000
30000000
20200000
30300000
00000000
00000000
01000000
00000000
00000000
00000000
00010000
00000000
00100000
00000000
00000000
00000000
,
10010000
00000000
00000000
01000000
00010000
01000000
00001000
00000000
,
00020000
00030000
00022000
00033000
00000000
00000000
00001000
00000000
00000000
00000000
00010000
00000000
00000100
00000000
00000000
00000000
,
00001001
00000000
00000000
00000001
00000010
00000100
00001000
00000000
,
00000200
00000300
00002200
00003300
00000000
00000000
00000100
00000000
00000000
00000000
00010000
00000000
00001000
00000000
01000000
00000000
,
00010000
00000000
00000000
10000000
00100000
01000000
00010000
00000000
,
00200000
00300000
02200000
03300000
00000000
00000000
01000000
00000000
00000000
00000000
10000000
00000000
00010000
00000000
00100000
00000000
,
00001000
00000000
00000000
00010000
00001000
00010000
00000100
00000000
,
00002000
00003000
00002200
00003300
00000000
00000000
00001000
00000000
00000000
00000000
00000001
00000000
00000100
00000000
00000000
00000000
,
00000110
00000000
00000000
00000010
00001000
00000100
00010000
00000000
,
00002000
00003000
00022000
00033000
00000000
00000000
00001000
00000000
00000000
00000000
01000000
00000000
00010000
00000000
00000000
00000000
,
10010000
00000000
00000000
01000000
10000000
00010000
00100000
00000000
,
02000000
03000000
02200000
03300000
00000000
00000000
00100000
00000000
00000000
00000000
00001000
00000000
00010000
00000000
00000100
00000000
,
00001000
00000000
00000000
00000001
00001000
00000010
00000100
00000000
,
00000002
00000003
00002002
00003003
00000000
00000000
00001000
00000000
00000000
00000000
00000010
00000000
00010000
00000000
00001000
00000000
,
01000000
00000000
00000000
00000000
00000000
00000000
00100000
00000000
10000000
00010000
10000000
00000000
00100000
00000000
01000000
00000000
,
00010000
00000000
00000000
00100000
00000000
00000000
00001000
00000000
00010000
00000100
00010000
00000000
00000010
00000000
00001000
00000000
,
00000001
00000000
00000000
00000100
00000000
00000000
00000010
00000000
00001000
00000100
00001000
00000000
00000010
00000000
00010000
00000000
,
00001000
00000000
00000000
01000000
00000000
00000000
00010000
00000000
00000000
10000000
00100000
00000000
01000000
00000000
00010000
00000000
,
10000000
00000000
00000000
00000000
00000000
00000000
00100000
00000000
01000000
00001000
01000000
00000000
00100000
00000000
10000000
00000000
,
01000000
00000000
00000000
00100000
00000000
00000000
00010000
00000000
00100000
00001000
00100000
00000000
01000000
00000000
00100000
00000000
,
00001000
00000000
00000000
00010000
00000000
00000000
00000100
00000000
00001000
00000010
00001000
00000000
00000001
00000000
00000100
00000000
,
00000010
00000000
00000000
00001000
00000000
00000000
00000100
00000000
00010000
00000010
00010000
00000000
00001000
00000000
01000000
00000000
,
00010000
00000000
00000000
00000000
00000000
00000000
10000000
00000000
00100000
01000000
00100000
00000000
10000000
00000000
00010000
00000000
,
00100000
00000000
00000000
01000000
00000000
00000000
10000000
00000000
00010000
01000000
00010000
00000000
00100000
00000000
00001000
00000000
,
00010000
00000000
00000000
00000100
00000000
00000000
00001000
00000000
00000001
00000010
00000001
00000000
00000100
00000000
00000010
00000000
,
00001000
00000000
00000000
00000100
00000000
00000000
00010000
00000000
00000000
00001000
01000000
00000000
00100000
00000000
10000000
00000000
,
00010000
00000000
00000000
00000000
00000000
00000000
10000000
00000000
00010000
00100000
00010000
00000000
01000000
00000000
00001000
00000000
,
00010000
00000000
00000000
00000100
00000000
00000000
00001000
00000000
00000001
00000100
00000001
00000000
00001000
00000000
00000010
00000000
,
00010000
00000000
00000000
00001000
00000000
00000000
01000000
00000000
00010000
00100000
00010000
00000000
10000000
00000000
01000000
00000000
,
00100000
00000000
00000000
01000000
00000000
00000000
10000000
00000000
00010000
00100000
00010000
00000000
01000000
00000000
00001000
00000000
,
00010000
00000000
00000000
00001000
00010000
00000100
00001000
00000000
,
00000020
00000030
00002002
00003003
00000000
00000000
00000000
00000000
00000000
00000000
00000000
00000000
00000000
00000000
00000000
00000000
;
