#TITLE:YATTA!;
#SUBTITLE:;
#ARTIST:はっぱ隊;
#TITLETRANSLIT:;
#SUBTITLETRANSLIT:;
#ARTISTTRANSLIT:Happatai;
#GENRE:Disco;
#CREDIT:;
#BANNER:;
#BACKGROUND:;
#LYRICSPATH:;
#CDTITLE:;
#MUSIC:[ROUND B] - YATTA.ogg;
#OFFSET:-0.084000;
#SAMPLESTART:32.560001;
#SAMPLELENGTH:28.884001;
#SELECTABLE:YES;
#BPMS:0.000000=132.945007
,165.000000=66.473000
,181.000000=132.945007
;
#STOPS:68.000000=1.354000
;
#BGCHANGES:;
#KEYSOUNDS:;
#ATTACKS:;

//---------------dance-single - ----------------
#NOTES:
     dance-single:
     :
     Hard:
     7:
     0.344262,0.430661,0.516393,0.311475,0.040984,294.000000,231.000000,63.000000,38.000000,0.000000,0.000000,0.344262,0.430661,0.516393,0.311475,0.040984,294.000000,231.000000,63.000000,38.000000,0.000000,0.000000:
0000
0000
0000
0000
,
0000
0000
0000
0000
,
0000
0000
0000
0000
,
0000
0000
0000
0000
,
0011
0000
0000
0000
,
0101
0000
0000
0000
0000
0000
0000
0000
0000
0000
0000
0000
0000
0000
1000
0001
,
1000
0000
1100
0000
,
1001
1001
1001
1001
,
0110
1000
0002
0013
,
0200
0000
1300
0000
0010
0000
1000
0001
,
1000
0000
0100
0000
1000
0010
0100
0010
,
2000
0000
3001
0000
0010
0000
0001
0100
,
0001
0000
0000
0000
1000
0000
0000
0000
0100
0000
0000
1000
0000
0000
0010
0000
,
0200
0000
0301
0010
0100
0000
0010
0000
,
0001
0200
0000
0000
0310
1000
0010
0000
,
0101
1010
0101
1010
,
1001
0110
1001
0110
,
0000
0102
0010
0100
,
1003
2100
0010
0100
,
3001
0102
0010
0100
,
1003
2100
0010
0100
,
3001
0000
1000
0001
0000
1000
0010
0001
,
0010
0100
0010
1000
0001
2000
0000
0000
,
0000
3000
0000
0010
0100
0010
1000
0001
,
0010
0000
0000
0000
0100
0000
0000
0100
0000
0000
0200
0000
0000
0000
0000
0000
,
0300
2010
0100
0010
,
3001
0012
0100
0010
,
1003
2010
0100
0010
,
3001
0012
0100
0010
,
1003
0000
0010
1000
0010
1000
0001
0010
,
0001
0000
0010
0000
0001
0000
0000
0001
0000
0000
0200
0000
0000
0000
0000
0000
,
0300
0000
0000
0010
1000
0010
0100
0001
,
0010
0000
0200
0000
,
0300
0000
1000
0100
0010
0001
1000
0100
,
0010
0001
1001
0000
1001
0000
1001
0000
,
1001
0000
0000
0001
0010
0100
1000
0001
,
0010
0100
0110
0000
0110
0000
0110
0000
,
0110
0000
0000
0100
0010
0001
0100
0010
,
1000
0001
1001
0000
1001
0000
1001
0000
,
1001
0000
0000
0001
1000
0010
0100
0010
,
1000
0001
0011
0000
0011
0000
0011
0000
,
0011
2001
0000
0200
,
3300
0000
0000
0010
0002
0000
0000
0000
0000
0000
0000
0000
0200
0000
0000
0000
,
0303
0000
0000
0001
2000
0000
0000
0000
0000
0000
0000
0000
0002
0000
0000
0000
,
3003
0000
0000
1000
0200
0000
0000
0000
0000
0000
0000
0000
0020
0000
0000
0000
,
0330
2010
3100
2010
,
3100
2010
3100
2010
,
3100
0012
0103
0012
,
0103
0012
0103
0012
,
0103
0000
0001
0010
0001
0100
1000
0100
,
0001
0000
1000
0000
0010
0000
0000
0010
0000
0000
0020
0000
0000
0000
0000
0000
,
0030
0000
0000
0100
0000
0010
0100
0001
,
1000
0000
0000
1001
2002
0000
0000
0000
,
3003
0101
0000
0000
,
0000
1100
0000
0000
,
0000
0000
1000
0001
1000
0000
0000
0000
0000
0000
0000
0000
0110
0000
0000
0000
,
0000
1001
0000
0000
,
0000
0011
0000
0000
,
0000
1100
0000
0000
,
0000
0000
0001
1000
0001
0000
0000
0000
0000
0000
0000
0000
0101
0000
0000
0000
,
0000
1001
0110
1001
,
0110
0000
0000
0000
2002
0000
0000
0000
0000
0000
0003
0000
0000
3000
0000
0000
;

//---------------dance-single - ----------------
#NOTES:
     dance-single:
     :
     Medium:
     5:
     0.297424,0.426742,0.590164,0.163934,0.008197,254.000000,182.000000,72.000000,20.000000,0.000000,0.000000,0.297424,0.426742,0.590164,0.163934,0.008197,254.000000,182.000000,72.000000,20.000000,0.000000,0.000000:
0000
0000
0000
0000
,
0000
0000
0000
0000
,
0000
0000
0000
0000
,
0000
0000
0000
0000
,
1001
0000
0000
0000
,
0110
0000
0000
0000
0000
0000
0000
1000
,
1001
0000
0110
0000
,
1001
1001
1001
1001
,
0110
0000
0100
0001
,
2000
0002
0000
3003
,
0110
0000
0000
0000
0100
0001
0100
0000
,
0020
2000
0000
3030
,
0000
0000
0001
0010
,
0001
1000
0200
0000
,
1300
0010
0100
0001
,
1001
0110
1001
0110
,
1010
0101
1010
0101
,
0000
0001
0011
0010
,
0011
0001
0011
0010
,
0011
1000
1100
0100
,
1100
1000
1100
0100
,
1100
1000
0010
0100
,
0001
0000
1000
0000
0001
0200
0000
0000
,
0300
0010
1000
0001
,
0010
0000
0000
0000
0100
0000
0000
0010
0000
0000
0002
0000
0000
0000
0000
0000
,
0003
1000
1010
0010
,
1010
1000
1010
0010
,
1010
0001
0101
0100
,
0101
0001
0101
0100
,
0101
0001
1000
0100
,
1000
0000
0000
0000
0010
0000
0000
0100
0000
0000
0002
0000
0000
0000
0000
0000
,
0003
0000
0000
1000
0100
0010
0001
1000
,
0001
0000
0220
0000
,
0330
1000
0100
0010
,
0001
1001
0110
1001
,
0110
0001
0010
0100
,
1000
1001
0110
1001
,
0110
1000
0010
0100
,
0001
1001
0110
1001
,
0110
0001
0100
0010
,
1000
1001
0110
1001
,
0110
0002
0000
2000
,
3003
2000
0000
0002
,
3003
0200
0000
0020
,
0330
0020
0000
0200
,
0000
0330
0001
0000
1001
0000
1000
0000
,
1001
0001
1001
1000
,
1001
0010
0110
0100
,
0110
0010
0110
0100
,
0110
0010
1000
0010
,
0100
0001
0000
1000
,
0000
0000
0000
0001
0000
0100
0010
1000
,
0001
0000
0000
0020
0200
0000
0000
0000
,
0330
1001
0000
0000
,
0000
1010
0000
0000
,
0000
0001
1001
0000
0000
0000
0110
0000
,
0000
1001
0000
0000
,
0000
0011
0000
0000
,
0000
0101
0000
0000
,
0000
1000
1001
0000
0000
0000
0110
0000
,
0000
1001
1001
0110
,
0110
0010
0000
0000
;

//---------------dance-single - ----------------
#NOTES:
     dance-single:
     :
     Easy:
     3:
     0.201405,0.426742,0.188525,0.098361,0.000000,172.000000,149.000000,23.000000,12.000000,0.000000,0.000000,0.201405,0.426742,0.188525,0.098361,0.000000,172.000000,149.000000,23.000000,12.000000,0.000000,0.000000:
0000
0000
0000
0000
,
0000
0000
0000
0000
,
0000
0000
0000
0000
,
0000
0000
0000
0000
,
1001
0000
0000
0000
,
0001
0000
0000
0000
,
0110
0000
1001
0000
,
0110
0010
0010
0010
,
1001
0000
1000
0001
,
0100
0002
0000
0003
,
0000
0000
1000
0010
,
0100
0020
0000
0030
,
0000
0000
0100
0010
,
1000
1000
2000
3000
,
0000
0001
1000
0010
,
1001
1001
1001
1001
,
0110
0110
0110
0110
,
0000
1000
0001
1000
,
0001
1000
0001
1000
,
0001
0100
0010
0100
,
0010
0100
0010
0100
,
0010
1000
0000
0001
,
0000
0100
0010
0200
,
0300
0010
0000
1000
,
0000
0001
0010
0002
,
0003
1000
0001
1000
,
0001
1000
0001
1000
,
0001
0100
0010
0100
,
0010
0100
0010
0100
,
0010
1000
0000
0010
,
0000
0100
0001
0020
,
0030
0100
0000
0010
,
0000
0000
1001
0000
,
0000
1000
0000
0001
,
0000
0100
0100
0100
,
0100
0001
0000
1000
,
0000
0010
0010
0010
,
0010
1000
0000
0001
,
0000
0100
0100
0100
,
0100
0010
0000
1000
,
0000
0010
0010
0010
,
0010
2000
0000
0000
,
3000
0002
0000
0000
,
0003
0200
0000
0000
,
0300
0020
0000
0000
,
0030
1000
0001
1000
,
0001
1000
0001
1000
,
0001
0100
0010
0100
,
0010
0100
0010
0100
,
0010
1000
0000
0010
,
0000
0100
0010
2000
,
3000
0001
0000
1000
,
0000
0000
0200
0000
,
0300
1001
0000
0000
,
0000
0010
0000
0000
,
0000
0110
0000
1001
,
0000
0110
0000
0000
,
0000
1001
0000
0000
,
0000
0010
0000
0000
,
0000
1001
0000
0110
,
0000
1001
0010
0010
,
0010
1001
0000
0000
;

//---------------dance-single - ----------------
#NOTES:
     dance-single:
     :
     Beginner:
     1:
     0.092506,0.150615,0.098361,0.000000,0.000000,79.000000,67.000000,12.000000,0.000000,0.000000,0.000000,0.092506,0.150615,0.098361,0.000000,0.000000,79.000000,67.000000,12.000000,0.000000,0.000000,0.000000:
// measure 0
0000
0000
0000
0000
,  // measure 1
0000
0000
0000
0000
,  // measure 2
0000
0000
0000
0000
,  // measure 3
0000
0000
0000
0000
,  // measure 4
1000
0000
0000
0000
,  // measure 5
0001
0000
0000
0000
,  // measure 6
1000
0000
0001
0000
,  // measure 7
0110
0000
0000
0000
,  // measure 8
1000
0000
0000
0000
,  // measure 9
0001
0000
0000
0000
,  // measure 10
0100
0000
0000
0000
,  // measure 11
0010
0000
0000
0000
,  // measure 12
1000
0000
0000
0000
,  // measure 13
0100
0000
0000
0000
,  // measure 14
1000
0000
0000
0000
,  // measure 15
1001
0000
0000
0000
,  // measure 16
0110
0000
0000
0000
,  // measure 17
0000
0010
0000
0000
,  // measure 18
0000
1000
0000
0000
,  // measure 19
0000
0001
0000
0000
,  // measure 20
0000
0010
0000
0000
,  // measure 21
0000
0001
0000
1000
,  // measure 22
0000
0001
0000
0000
,  // measure 23
0000
0100
0000
0010
,  // measure 24
0000
0100
0000
0000
,  // measure 25
0000
0001
0000
0000
,  // measure 26
0000
1000
0000
0000
,  // measure 27
0000
0010
0000
0000
,  // measure 28
0000
0100
0000
0000
,  // measure 29
0000
0001
0000
1000
,  // measure 30
0000
0001
0000
0000
,  // measure 31
0000
0100
0000
0010
,  // measure 32
0000
1001
0000
0000
,  // measure 33
0000
1000
0000
0000
,  // measure 34
0000
1001
0000
0000
,  // measure 35
0000
0001
0000
0000
,  // measure 36
0000
0110
0000
0000
,  // measure 37
0000
0100
0000
0000
,  // measure 38
0000
1001
0000
0000
,  // measure 39
0000
0001
0000
0000
,  // measure 40
0000
0110
0000
0000
,  // measure 41
0000
0001
0000
0000
,  // measure 42
0000
1000
0000
0000
,  // measure 43
0000
0010
0000
0000
,  // measure 44
0000
0100
0000
0000
,  // measure 45
0000
0010
0000
0000
,  // measure 46
0000
1000
0000
0000
,  // measure 47
0000
0001
0000
0000
,  // measure 48
0000
0010
0000
0000
,  // measure 49
0000
0001
0000
1000
,  // measure 50
0000
0001
0000
0000
,  // measure 51
0000
0100
0000
0010
,  // measure 52
0000
0000
1001
0000
,  // measure 53
0000
0100
0000
0000
,  // measure 54
0000
0010
0000
0000
,  // measure 55
0000
1000
0000
0001
,  // measure 56
0000
1001
0000
0000
,  // measure 57
0000
0100
0000
0000
,  // measure 58
0000
0010
0000
0000
,  // measure 59
0000
1000
0000
0001
,  // measure 60
0000
0110
0000
0000
,  // measure 61
0000
1001
0000
0000
;
