#TITLE:War;
#SUBTITLE:;
#ARTIST:Edwin Starr;
#TITLETRANSLIT:;
#SUBTITLETRANSLIT:;
#ARTISTTRANSLIT:;
#CREDIT:;
#BANNER:War.png;
#BACKGROUND:War-bg.png;
#LYRICSPATH:;
#CDTITLE:;
#MUSIC:War.ogg;
#OFFSET:-0.120;
#SAMPLESTART:54.989;
#SAMPLELENGTH:12.000;
#SELECTABLE:YES;
#BPMS:0.000=108.844,7.000=103.903,8.000=100.110,9.000=107.727,10.000=111.957,11.000=113.958,12.000=108.911,13.000=107.644,14.000=111.712,15.000=111.378,16.000=105.819,17.000=116.139,18.000=108.947,19.000=121.778,20.000=106.887,21.000=108.172,22.000=108.598,23.000=115.647,24.000=110.190,25.000=119.875,26.000=104.296,27.000=118.025,28.000=107.386,29.000=113.149,30.000=100.992,31.000=114.057,32.000=111.443,33.000=116.200,34.000=111.443,35.000=119.593,36.000=113.587,37.000=106.201,38.000=117.183,39.000=105.096,40.000=109.316,41.000=111.293,42.000=113.587,43.000=112.195,44.000=110.425,45.000=111.139,46.000=109.724,47.000=119.528,48.000=107.443,49.000=106.974,50.000=112.500,51.000=123.047,52.000=111.867,53.000=113.582,54.000=116.037,55.000=96.983,56.000=112.500,57.000=110.485,58.000=108.741,59.000=106.857,60.000=105.418,61.000=111.078,62.000=106.698,63.000=115.839,64.000=102.618,65.000=100.788,66.000=110.693,67.000=115.875,68.000=98.364,69.000=109.902,70.000=108.741,71.000=109.028,72.000=97.833,73.000=109.028,74.000=104.428,75.000=111.981,76.000=111.683,77.000=103.748,78.000=103.408,79.000=107.143,80.000=105.603,81.000=103.981,82.000=106.918,83.000=108.031,84.000=101.981,85.000=110.781,86.000=111.350,87.000=106.586,88.000=106.171,89.000=98.931,90.000=117.023,91.000=117.720,92.000=103.440,93.000=113.831,94.000=103.489,95.000=113.548,96.000=105.334,97.000=107.417,98.000=109.633,99.000=120.536,100.000=103.700,101.000=107.890,102.000=111.740,103.000=115.743,104.000=106.638,105.000=112.319,106.000=103.074,107.000=112.903,108.000=110.250,109.000=105.819,110.000=104.165,111.000=121.958,112.000=111.139,113.000=105.954,114.000=107.417,115.000=124.606,116.000=109.779,117.000=108.943,118.000=113.895,119.000=108.031,120.000=105.334,121.000=106.944,122.000=113.426,123.000=110.841,124.000=110.902,125.000=108.714,126.000=109.140,127.000=114.402,128.000=105.334,129.000=109.028,130.000=117.956,131.000=107.330,132.000=110.370,133.000=116.002,134.000=103.618,135.000=110.190,136.000=112.653,137.000=103.517,138.000=106.775,139.000=111.289,140.000=105.225,141.000=111.083,142.000=107.386,143.000=105.225,144.000=107.469,145.000=105.768,146.000=106.913,147.000=109.461,148.000=100.448,149.000=109.957,150.000=110.748,151.000=105.200,152.000=106.970,153.000=103.206,154.000=107.469,155.000=107.221,156.000=103.748,157.000=109.925,158.000=110.457,159.000=107.526,160.000=101.185,161.000=107.191,162.000=104.009,163.000=109.402,164.000=111.382,165.000=102.308,166.000=109.203,167.000=110.103,168.000=98.625,169.000=109.783,170.000=108.540,171.000=110.573,172.000=108.318,173.000=106.857,174.000=100.326,175.000=110.512,176.000=110.190,177.000=108.799,178.000=110.934,179.000=103.279,180.000=114.209,181.000=111.683,182.000=107.386,183.000=109.488,184.000=103.307,185.000=112.625,186.000=103.724,187.000=115.870,188.000=108.916,189.000=104.535,190.000=112.500,191.000=109.434,192.000=109.316,193.000=108.146,194.000=107.052,195.000=110.841,196.000=112.104,197.000=108.340,198.000=107.640,199.000=97.855,200.000=117.189,202.000=117.194;
#STOPS:;
#BGCHANGES:;

//---------------dance-single - ----------------
#NOTES:
     dance-single:
     :
     Hard:
     8:
     0.548,0.666,0.347,0.134,0.405: // measure 1
0000
0000
0000
0000
,  // measure 2
0000
0000
0000
0000
,  // measure 3
1100
1000
0001
0000
0000
0010
0010
0000
,  // measure 4
0100
0000
1000
0000
0100
0010
0010
0001
,  // measure 5
0011
0001
1000
0000
0000
0010
0010
0100
,  // measure 6
0001
0000
1000
0000
0000
0000
0100
0000
0000
0000
0000
0000
0100
0000
0000
2002
0000
0000
0000
0000
0000
3003
0000
0000
,  // measure 7
1010
0010
0100
0000
0000
0001
0001
0000
,  // measure 8
0010
0000
0100
0000
1000
0100
0100
0010
,  // measure 9
0011
0001
1000
0000
0010
0100
0100
0001
,  // measure 10
1000
0000
0000
0000
0001
0000
0000
0000
0000
0000
0000
0000
1000
0000
0000
0000
0000
0000
0000
0000
0000
0100
0000
0000
0010
0000
0000
0000
0000
0000
2002
0000
0000
0000
0000
0000
0000
0000
0000
0000
0000
0000
3003
0000
0000
0000
0000
0000
,  // measure 11
0101
0001
1000
0100
1100
0001
0101
0000
,  // measure 12
0100
0000
0010
0000
1000
0100
0100
0010
,  // measure 13
0001
0001
0100
0000
0100
0010
1000
0100
,  // measure 14
1000
0000
0001
0000
0000
0000
0000
0000
0000
0000
0000
0000
0012
0000
0000
2000
0000
0000
0000
0000
0000
3003
0000
0000
,  // measure 15
1000
0000
0000
1000
0100
0000
0010
0000
0001
0000
0000
0001
1000
0000
0000
0000
,  // measure 16
1001
0000
0000
0001
0100
0000
0010
0000
1000
0000
0001
0000
1001
0000
1000
0000
,  // measure 17
0100
0000
0000
0100
0010
0000
0001
0000
0100
0000
0000
0100
0010
0000
0000
0000
,  // measure 18
1000
0000
0000
0010
0100
0000
0001
0000
1001
0000
1000
0000
0001
0000
0100
0000
,  // measure 19
0001
0000
0000
0001
0010
0000
0100
0000
1000
0000
0000
1000
0010
0000
0010
0100
,  // measure 20
0000
0100
0001
0000
0001
0000
0001
0010
0000
0100
0000
0000
1100
0000
1000
0000
,  // measure 21
0001
0000
0000
0001
0010
0000
0100
0000
1000
0000
0000
1000
0010
0000
0000
0000
,  // measure 22
0100
0000
0000
0100
0001
0000
0100
0000
0010
0000
1000
0000
1001
0000
0001
0000
,  // measure 23
0010
0000
0000
0100
0000
0000
1100
0000
0000
0100
0010
0100
0010
0000
0000
0001
0000
0000
0101
0000
0000
0100
0000
0000
,  // measure 24
0010
1000
0010
0000
0100
0000
0000
0000
0001
0000
0010
0000
1000
0000
0010
0000
,  // measure 25
0001
0000
0000
0001
0000
0000
1001
0000
0000
1000
0001
1000
0001
0000
0000
0100
0000
0000
0010
0000
0000
1000
0000
0000
,  // measure 26
0001
0000
0000
0000
1000
0000
0000
0000
0000
0000
0000
0000
0100
0000
0000
0010
0000
0000
0100
0000
0000
1000
0000
0000
0000
0000
0000
0000
0000
0000
1020
0000
0000
0000
0000
0000
0000
0000
0000
0000
0000
0000
0130
0000
0000
0000
0000
0000
,  // measure 27
0100
0000
0000
0000
0000
0000
0001
0000
0000
0000
0000
0000
1001
0000
0000
0000
0000
0000
1000
0000
0100
0000
1000
0000
0100
0000
0000
0000
0000
0000
0010
0000
0000
0000
0000
0000
0010
0000
0000
0000
0000
0000
0001
0000
0000
0100
0000
0000
,  // measure 28
0001
0100
0001
0000
0001
1000
0001
1000
0100
0000
0001
0000
0100
0000
0010
0000
,  // measure 29
0001
0000
0000
0001
0000
0000
0101
0000
0000
0100
0010
0100
0010
0000
0000
1000
0000
0000
0100
0000
0000
0010
0000
0000
,  // measure 30
0001
0000
0000
0000
0100
0000
0000
0000
0000
0000
0000
0000
0001
0000
0000
0100
0000
0000
0001
0000
0000
0000
0000
0000
1000
0000
0000
0001
0000
0000
2002
0000
0000
0000
0000
0000
0000
0000
0000
0000
0000
0000
0003
0000
0000
0000
0000
0000
,  // measure 31
3001
0000
0000
0001
0000
0000
1000
0000
0000
0100
1000
0100
1000
0000
0000
0001
0000
0000
0001
0000
0000
0100
0000
0000
,  // measure 32
0010
1000
0010
0000
1000
0001
1000
0001
0000
0001
0020
0000
0000
0000
0030
0000
,  // measure 33
0100
0000
0000
0000
0000
0000
0100
0000
0000
0000
0000
0000
1001
0000
0000
0000
0000
0000
0001
0000
0100
0000
0001
0000
0100
0000
0000
0000
0000
0000
0110
0000
0000
0000
0000
0000
1010
0000
0000
0000
0000
0000
1000
0000
0000
0100
0000
0000
,  // measure 34
0010
0001
0010
0001
1000
0010
1000
0010
0100
0001
0100
0001
1000
0100
1000
0100
,  // measure 35
0010
0000
0000
0010
0001
0000
0100
0000
0010
0000
0000
0010
1000
0000
0000
0000
,  // measure 36
1000
0000
0000
1000
0100
0000
0110
0000
0100
0000
1000
0000
0010
0000
0100
0000
,  // measure 37
0001
0000
0000
0001
0010
0000
0100
0000
1000
0000
0000
1000
0010
0000
0000
0000
,  // measure 38
0010
0000
0000
0010
0100
0000
1001
0000
0001
0000
0010
0000
1000
0000
0010
0000
,  // measure 39
0001
0100
0000
0010
0000
1000
0000
0200
0000
0300
0000
0000
0000
0100
0010
0100
,  // measure 40
1000
0000
0010
0100
0001
2000
0000
0000
0002
0000
3003
0000
0000
0000
1000
0000
,  // measure 41
0100
0000
0000
0001
0000
0000
0000
0000
0001
0000
0100
0000
1000
0000
0000
0001
0000
0000
0000
0000
0100
0000
0010
0000
,  // measure 42
1000
0000
0010
0000
0000
0000
0000
0000
0000
0110
0000
0000
0001
0000
0000
0010
0000
0000
0100
0000
0000
1000
0000
0000
,  // measure 43
1100
0000
0000
0000
0000
0000
0001
0000
0000
0000
0000
0000
1001
0000
0000
0000
0000
0000
0001
0000
0100
0000
0001
0000
0100
0000
0000
0000
0000
0000
0001
0000
0000
0000
0000
0000
1001
0000
0000
0000
0000
0000
1000
0000
0000
0001
0000
0000
,  // measure 44
1000
0000
0100
0000
0001
0100
0001
0100
1000
0000
0010
0000
0110
0000
0100
0000
,  // measure 45
0001
0000
0000
0000
0000
0000
0001
0000
0000
0000
0000
0000
0011
0000
0000
0000
0000
0000
0010
0000
0100
0000
0010
0000
0100
0000
0000
0000
0000
0000
1000
0000
0000
0000
0000
0000
1100
0000
0000
0000
0000
0000
1000
0000
0000
0010
0000
0000
,  // measure 46
1000
0000
0100
0000
1000
0000
0100
0000
0010
0000
0001
0000
0000
0000
0000
2002
0000
0000
0000
0000
0000
3003
0000
0000
,  // measure 47
0011
0000
0000
0000
0000
0000
0001
0000
0000
0000
0000
0000
1001
0000
0000
0000
0000
0000
1000
0000
0010
0000
1000
0000
0010
0000
0000
0000
0000
0000
0100
0000
0000
0000
0000
0000
0101
0000
0000
0000
0000
0000
0001
0000
0000
1000
0000
0000
,  // measure 48
0001
1000
0001
0000
1000
0000
1000
0001
1000
0000
0100
0000
0010
0000
0001
0000
,  // measure 49
1000
0001
1001
0000
0000
0000
0000
0000
;

//---------------dance-single - ----------------
#NOTES:
     dance-single:
     :
     Medium:
     6:
     0.368,0.365,0.134,0.151,0.062:
0000
0000
0000
0000
,
0000
0000
0000
0000
,
1000
0001
0001
0000
0000
0010
0010
0000
,
0100
0000
0000
0000
1000
0001
1000
0100
,
0010
0010
0001
0000
0001
1000
0001
0000
,
0010
0000
0100
0000
0000
0000
0000
0000
0000
0000
0000
0000
0000
0000
0000
2002
0000
0000
3000
0000
0000
1003
0000
0000
,
0100
0100
0100
0000
0010
0001
0001
0000
,
0100
0000
0100
0000
0100
0010
0010
0100
,
0001
0001
1000
0000
1000
0001
1000
0000
,
0100
0000
0010
0000
0000
0000
0000
0000
0000
0000
0000
0000
0000
0000
0000
1001
0000
0000
0000
0000
0000
0001
0000
0000
,
0100
0100
0100
0010
1000
0001
0001
0000
,
0010
0000
0000
0000
0100
1000
0100
0010
,
0001
0001
0100
0000
0100
0010
0100
0000
,
0001
0000
1000
0000
0000
0000
0000
0000
0000
0000
0000
0000
0000
0000
0000
2200
0000
0000
3000
0000
0000
1300
0000
0000
,
0001
0000
0001
0100
0001
0000
0001
0000
,
1000
0000
1000
0100
1000
0000
1000
0001
,
2000
0000
3100
0020
0000
0031
0000
0001
,
0100
0001
1000
0000
0100
0000
0010
0000
,
0001
0010
0100
2000
0000
3000
0000
0000
,
0010
0000
0010
0100
0001
0000
1001
0000
,
1000
0000
0100
0001
0100
0000
1000
0010
,
0100
0020
0000
1030
1000
0100
0001
0000
,
0100
0100
0100
0000
0000
1000
1000
0010
,
0100
0000
0001
0000
0001
0010
0001
0100
,
0001
0001
0001
0000
1000
0010
1000
0000
,
0001
0000
0000
0000
0010
0000
0000
0000
0000
0000
0000
0000
0100
0000
0000
0000
0000
0000
0000
0000
0000
1000
0000
0000
0000
0000
0000
0000
0000
0000
2002
0000
0000
0000
0000
0000
0000
0000
0000
0000
0000
0000
3003
0000
0000
0000
0000
0000
,
0001
0001
0001
0000
0000
0100
0100
0000
,
0010
0010
0010
0000
1000
0001
1000
0100
,
0001
0001
0001
0000
0100
1000
0010
0000
,
0100
0000
1000
0000
0000
0000
0100
0000
0000
0000
0000
0000
0001
0000
0000
0022
0000
0000
0000
0000
0000
0033
0000
0000
,
0001
0001
0001
0000
0000
1000
1000
0000
,
0010
0000
0100
0000
0000
0202
0000
0303
,
0001
0001
0001
0000
0000
0010
0010
0000
,
0100
0000
0100
0000
0000
2002
0000
3003
,
0001
0000
0000
0001
0100
0000
0010
0000
1000
0000
0000
0000
1001
0000
0000
0000
,
1000
0000
0000
1000
0100
0000
0010
0000
0001
0000
0000
0000
1000
0000
0000
0000
,
1001
0001
0100
1000
0100
0010
0000
0010
,
1000
0100
0010
0001
1000
0000
1000
0000
,
0001
0010
1000
0010
0001
0200
0000
0300
,
1000
0100
0001
0010
0100
0000
1100
0000
,
1000
0000
0000
0100
0000
0000
0000
0000
0001
0000
0100
0000
1000
0000
0000
0100
0000
0000
0000
0000
0000
0010
0000
0000
,
0001
0010
0000
0110
1000
0001
1000
0100
,
0010
0010
0010
0000
0000
0001
0001
0000
,
0100
0000
0000
0000
0100
1000
0100
0001
,
1000
1000
1100
0000
0100
0010
0100
0000
,
1000
0000
0001
0000
1000
0000
0001
0000
1000
0000
0001
0000
0000
0000
0000
1001
0000
0000
0000
0000
0000
1000
0000
0000
,
0100
0100
0100
0000
0000
0010
0010
0000
,
0001
0000
0100
0000
0010
1000
0100
1000
,
0010
0100
1001
0000
0000
0000
0000
0000
;

//---------------dance-single - ----------------
#NOTES:
     dance-single:
     :
     Easy:
     3:
     0.192,0.172,0.071,0.009,0.000:
0000
0000
0000
0000
,
0000
0000
0000
0000
,
1000
1000
0000
0010
,
0000
0000
0100
0001
,
0100
0100
0010
1000
,
1001
0000
0000
0000
0000
0001
0000
0000
,
0100
0100
0000
0010
,
1000
0000
0001
1000
,
0100
0100
0010
0001
,
1001
0000
0000
0000
0000
1000
0000
0000
,
1000
1000
0000
0010
,
0100
0000
0001
1000
,
0100
1000
0001
0100
,
0101
0000
0000
0000
0000
0001
0000
0000
,
1000
0100
1000
0100
,
0010
0001
0100
0000
,
0001
0100
0001
0100
,
0010
1000
0100
0000
,
0010
0001
0100
0001
,
0010
0100
1000
0000
,
1000
0001
1000
0000
,
0001
0100
0001
0000
,
1001
1000
0000
0010
,
0100
0000
0001
1000
,
0001
0010
0100
1000
,
1001
0000
0000
0000
0000
0001
0000
0000
,
1000
1000
0000
0010
,
0100
0000
0001
0010
,
0100
1000
0100
0010
,
0011
0000
0000
0000
0000
1000
0000
0000
,
1000
1000
0000
0010
,
0100
0000
0000
0000
0000
1001
0000
0000
,
1000
1000
0000
0001
,
0020
0000
0000
0000
0000
0130
0000
0000
,
1000
0001
1000
0001
,
0100
0010
1000
0000
,
0100
0010
0100
0010
,
0001
1000
0001
0000
,
0010
0001
0100
1000
,
0100
0001
0010
0000
,
0100
0000
1000
0000
,
0010
0000
0100
0000
,
0001
0001
0000
0010
,
0100
0000
1000
0001
,
0100
0100
0010
1000
,
0001
0000
0000
0000
0000
1001
0000
0000
,
0001
0001
0100
0010
,
1000
0000
1000
0001
,
0010
0100
0000
0000
;

//---------------dance-single - ----------------
#NOTES:
     dance-single:
     :
     Beginner:
     1:
     0.103,0.129,0.027,0.009,0.000:
0000
0000
0000
0000
,
0000
0000
0000
0000
,
1000
0000
0000
0010
,
0000
0000
0000
0000
,
0001
0001
0000
0000
,
1000
0000
0000
0000
,
1000
0000
0000
0000
,
0100
0000
0010
0000
,
0010
0010
0000
0000
,
0001
0000
0000
0000
,
0100
0000
0000
0010
,
0000
0000
0000
0000
,
1000
1000
0000
0000
,
0001
0000
0000
0000
,
0010
0000
0100
0000
,
1000
0000
0100
0000
,
0010
0000
0001
0000
,
0100
0000
0010
0000
,
0100
0000
0001
0000
,
1000
0000
0100
0000
,
0010
0000
0001
0000
,
0100
0000
0010
0000
,
1001
0000
0000
1000
,
0000
0000
0000
0000
,
0100
0100
0000
0000
,
0110
0000
0000
0000
,
0001
0000
0000
0100
,
0000
0000
0000
0000
,
0010
0010
0000
0000
,
1000
0000
0000
0000
,
0100
0000
0000
0010
,
0000
0000
0000
0000
,
0001
0000
0000
0100
,
0000
0000
0000
0010
,
0010
0000
1000
0000
,
0100
0000
0001
0000
,
0100
0000
1000
0000
,
0010
0000
0001
0000
,
0010
0000
1000
0000
,
0001
0000
1000
0000
,
0100
0000
0010
0000
,
0001
0000
2000
0000
,
3000
1000
0000
0001
,
0000
0000
1000
1000
,
1000
1000
0000
0000
,
1001
0000
0000
0000
,
0001
0001
0000
1000
,
0000
0000
0001
0001
,
0001
0001
0000
0000
;
