#TITLE:リリリピート;
#SUBTITLE:;
#ARTIST:フレデリック;
#TITLETRANSLIT:Rererepeat;
#SUBTITLETRANSLIT:;
#ARTISTTRANSLIT:frederic;
#GENRE:J-Pop Rock;
#CREDIT:;
#BANNER:Rererepeat-bn.png;
#BACKGROUND:Rererepeat-bg.png;
#LYRICSPATH:;
#CDTITLE:cdtitle.png;
#MUSIC:Rererepeat.ogg;
#OFFSET:0.000000;
#SAMPLESTART:43.618999;
#SAMPLELENGTH:21.381001;
#SELECTABLE:YES;
#BPMS:0.000000=180.000000
;
#STOPS:
;
#BGCHANGES:4.000=Rererepeat.mp4=1.000=1=0=1===CrossFade==,
99999=-nosongbg-=1.000=0=0=0 // don't automatically add -songbackground-
;
#KEYSOUNDS:;
#ATTACKS:;

//---------------dance-single - ----------------
#NOTES:
     dance-single:
     X-Scale 13:
     Hard:
     9:
     0.652270,0.625969,0.170543,0.139535,0.007752,589.000000,567.000000,22.000000,18.000000,7.000000,0.000000,0.652270,0.625969,0.170543,0.139535,0.007752,589.000000,567.000000,22.000000,18.000000,7.000000,0.000000:
// measure 0
0000
0000
0000
0000
,  // measure 1
0000
0000
0000
0000
,  // measure 2
0000
0000
0000
0000
,  // measure 3
0000
0000
0000
0000
,  // measure 4
0000
0000
0000
0000
,  // measure 5
1000
0000
1000
0010
0100
0000
0002
0000
,  // measure 6
0013
0000
0001
0100
1000
0001
0010
1000
,  // measure 7
0001
0000
0001
0010
0100
0000
2000
0000
,  // measure 8
3001
0110
1001
0200
,  // measure 9
0301
0100
0001
0100
0001
0000
1000
0100
,  // measure 10
00M0
0100
0001
1000
0001
0000
0010
0100
,  // measure 11
1000
0000
0001
0000
2000
0000
3010
0100
,  // measure 12
0000
0100
0001
0000
2000
0000
3010
0100
,  // measure 13
0001
1000
0001
1000
0001
0000
1000
0100
,  // measure 14
00M0
0100
0001
0010
0001
0000
1000
0010
,  // measure 15
1000
0000
0001
0000
2000
0000
3010
1000
,  // measure 16
1010
0000
0011
0000
1010
0000
0001
0100
,  // measure 17
0001
0000
1000
0010
0001
0010
1000
0100
,  // measure 18
0010
0001
0100
0001
0010
0100
2000
0000
,  // measure 19
3010
1000
0001
0000
1000
0010
0100
0001
,  // measure 20
0000
0001
1000
0000
0010
0100
1000
0100
,  // measure 21
0010
0000
1000
0001
0000
0100
0001
0000
,  // measure 22
1000
0010
0100
0010
1000
0001
1000
0100
,  // measure 23
0010
0100
1000
0000
1000
0010
0100
0001
,  // measure 24
0000
1000
0010
0000
1000
0100
0001
0100
,  // measure 25
1000
0000
0001
1000
0100
0010
0001
1000
,  // measure 26
0001
0000
0100
0010
1000
0010
0100
0001
,  // measure 27
1000
0000
0001
0010
1000
0001
0100
1000
,  // measure 28
0000
0010
1000
0001
1000
0010
0100
0001
,  // measure 29
1000
0000
1000
0100
0010
0010
0001
1000
,  // measure 30
0001
0000
1000
0100
0010
0010
0001
1000
,  // measure 31
0001
0000
0010
0100
2000
0000
3001
1000
,  // measure 32
0000
0100
0010
0100
0110
0000
1001
0000
,  // measure 33
0110
0010
0000
0100
0010
1000
0001
0100
,  // measure 34
0000
0010
0000
0100
0010
1000
0001
0100
,  // measure 35
0000
0010
0000
0100
0010
1000
0001
1000
,  // measure 36
0001
0010
0100
0010
0100
1000
0001
0100
,  // measure 37
0000
0010
0000
0100
0010
1000
0001
0100
,  // measure 38
0000
0010
0000
0100
0010
1000
0001
0100
,  // measure 39
0000
0010
0000
0100
0010
1000
0001
0100
,  // measure 40
1000
0000
0100
0000
0001
0000
0010
0000
0100
0000
0000
0000
1000
0000
1000
0100
,  // measure 41
1000
0000
0100
1000
0000
0001
0000
1000
,  // measure 42
0000
0100
0010
0000
0001
0000
1000
0100
,  // measure 43
0001
0000
0001
0100
1000
0010
1000
0100
,  // measure 44
0010
0001
0100
0001
0010
0100
2000
0000
,  // measure 45
0000
0001
3001
1000
0010
0000
1000
0100
,  // measure 46
0010
0010
0001
0000
1000
0010
1000
0001
,  // measure 47
0000
0100
0001
0010
0100
1000
0010
1000
,  // measure 48
0001
1000
0001
0100
0010
0100
0010
0000
,  // measure 49
1001
1000
0100
0010
0001
0000
1000
0100
,  // measure 50
00M0
0100
0001
0000
1001
1000
0100
0010
,  // measure 51
0001
0000
1000
0010
0M00
0010
0001
0000
,  // measure 52
1001
1000
0100
0010
0001
0000
1000
0100
,  // measure 53
00M0
0100
0001
0000
1001
1000
0100
0010
,  // measure 54
0001
0000
1000
0010
0M00
0010
0001
0100
,  // measure 55
0101
0001
0000
1000
0001
0000
1000
0100
,  // measure 56
0000
0010
0001
1000
0001
0000
0100
0010
,  // measure 57
1000
0010
0000
0100
0001
0000
1000
0100
,  // measure 58
0000
1000
0010
0100
0001
0000
1000
0010
,  // measure 59
1000
0001
0000
0001
1000
0000
0100
0010
,  // measure 60
0000
0001
0100
0010
1000
0000
0001
0100
,  // measure 61
0001
1000
0000
0100
0010
0000
0001
1000
,  // measure 62
0010
1000
0000
0100
0010
0000
0001
1000
,  // measure 63
1001
0001
0000
1000
0100
0010
0001
1000
,  // measure 64
0000
0001
0000
1000
0100
0010
0001
0100
,  // measure 65
0010
0100
0001
1000
0010
1000
0100
0001
,  // measure 66
0000
0001
0100
1000
0000
1000
0010
0100
,  // measure 67
0102
0000
2003
0000
3002
0000
1003
0100
,  // measure 68
0000
0010
0001
1000
0001
0010
0200
0000
,  // measure 69
2300
0000
3010
0000
1010
0000
0001
0010
,  // measure 70
1000
0010
0001
0001
0000
0000
0001
0100
,  // measure 71
0110
0010
0000
0100
0010
1000
0001
0100
,  // measure 72
0000
0010
0000
0100
0010
1000
0001
0100
,  // measure 73
0000
0010
0000
0100
0010
1000
0001
1000
,  // measure 74
0001
0010
0100
0010
0100
1000
0001
0100
,  // measure 75
0000
0010
0000
0100
0010
1000
0001
0100
,  // measure 76
0000
0010
0000
0100
0010
1000
0001
0100
,  // measure 77
0000
0010
0000
0100
0010
1000
0001
0100
,  // measure 78
1000
0000
0100
0000
0001
0000
0010
0000
0100
0000
0000
0000
1000
0000
1000
0100
,  // measure 79
1000
0000
0100
1000
0010
1000
0100
0010
,  // measure 80
0000
0001
1000
0000
0001
0010
0001
0010
,  // measure 81
1000
0000
1000
0010
0001
0100
0001
0010
,  // measure 82
0100
1000
0001
1000
0100
0010
0002
0000
,  // measure 83
0000
1000
1003
0001
0100
0000
0010
0000
,  // measure 84
1000
0100
0001
0100
0010
0001
0000
1000
,  // measure 85
0010
0000
1000
0000
0010
0100
0001
1000
,  // measure 86
0001
1000
0001
0010
0100
0010
0100
0000
,  // measure 87
1100
0100
1000
0100
1000
0000
1000
0100
,  // measure 88
00M0
0100
0001
0010
0001
0100
0001
0010
,  // measure 89
0100
0000
2000
0000
3001
0100
0010
1000
,  // measure 90
0000
0010
1000
0000
0001
0010
0100
0010
,  // measure 91
0011
0001
1000
0001
0010
0001
2000
0000
,  // measure 92
3001
1000
0100
0010
0001
0100
0001
0000
,  // measure 93
1000
0000
0001
0100
0010
0100
0001
0100
,  // measure 94
0101
1001
1100
2000
,  // measure 95
3000
0000
0000
0000
;

//---------------dance-single - ----------------
#NOTES:
     dance-single:
     X-Scale 10:
     Medium:
     7:
     0.550388,0.589147,0.162791,0.286822,0.000000,497.000000,476.000000,21.000000,37.000000,0.000000,0.000000,0.550388,0.589147,0.162791,0.286822,0.000000,497.000000,476.000000,21.000000,37.000000,0.000000,0.000000:
// measure 0
0000
0000
0000
0000
,  // measure 1
0000
0000
0000
0000
,  // measure 2
0000
0000
0000
0000
,  // measure 3
0000
0000
0000
0000
,  // measure 4
0000
0000
0000
0000
,  // measure 5
1000
0000
0001
0100
0001
0000
0002
0000
,  // measure 6
1003
0000
0001
0100
0001
0010
0100
0010
,  // measure 7
0001
0000
1000
0100
1000
0000
0002
0000
,  // measure 8
1003
1001
1001
2000
,  // measure 9
3100
0000
1000
0000
0010
0000
1000
0010
,  // measure 10
0000
0100
0001
1000
0001
0000
0010
0000
,  // measure 11
0100
0000
2000
3000
2000
0000
3001
1000
,  // measure 12
0000
1000
0002
0003
0002
0000
0103
0001
,  // measure 13
1000
0000
0001
0000
1000
0000
0001
0010
,  // measure 14
0000
0100
1000
0010
1000
0000
0001
0000
,  // measure 15
1000
0000
0002
0003
0002
0000
1003
0001
,  // measure 16
1001
0000
2001
3000
2001
0000
3010
1000
,  // measure 17
1010
0000
0001
0000
0100
0001
0100
0000
,  // measure 18
0001
1000
0010
1000
0001
0000
1000
0100
,  // measure 19
0010
0000
0002
0003
0002
0000
1003
0001
,  // measure 20
0000
0001
2000
3000
2000
0000
3010
1000
,  // measure 21
0001
0000
1000
0000
0001
1000
0010
0000
,  // measure 22
1000
0100
0010
0100
1000
0000
0001
0100
,  // measure 23
0010
0000
2000
3000
2000
0000
3001
1000
,  // measure 24
0000
0100
0000
1000
0100
0010
0100
0010
,  // measure 25
0001
0000
1000
0000
0010
0100
0010
0000
,  // measure 26
1000
0010
0001
0010
1000
0000
0100
0010
,  // measure 27
0100
0000
1000
0100
0001
0100
0010
0001
,  // measure 28
0000
1000
0002
0003
0002
0000
1003
0001
,  // measure 29
1000
0000
1000
0100
1000
0000
1000
0100
,  // measure 30
1000
0000
0001
0100
0001
0000
0001
0100
,  // measure 31
0001
0000
1000
0010
0100
0010
1000
0001
,  // measure 32
0000
0001
1000
0000
1100
0000
1100
0000
,  // measure 33
1100
0000
0010
0000
1000
0100
0010
0000
,  // measure 34
0001
0000
1000
0000
0001
0100
0010
0000
,  // measure 35
1000
0000
0001
0000
1000
0100
0010
0100
,  // measure 36
1000
0000
0001
0000
0100
0001
0100
0000
,  // measure 37
0001
0000
0100
0000
0001
0100
0010
0000
,  // measure 38
1000
0000
0001
0000
1000
0100
0010
0000
,  // measure 39
0001
0000
1000
0000
0001
0100
0010
0100
,  // measure 40
0001
0000
1000
0100
1000
0000
0001
0000
,  // measure 41
1001
0000
1000
0001
0000
1000
0000
0001
,  // measure 42
0000
1000
0100
0000
1000
0010
1000
0000
,  // measure 43
0001
0000
1000
0001
0000
1000
0000
0001
,  // measure 44
0000
1000
0001
0100
0001
0100
0020
0000
,  // measure 45
0000
0000
1030
0010
1000
0000
0100
0000
,  // measure 46
0010
0001
0010
0001
1000
0100
1000
0100
,  // measure 47
0000
0010
0001
0000
1000
0010
1000
0000
,  // measure 48
0001
0100
0001
0100
0010
1000
0010
0000
,  // measure 49
1010
0000
0001
0010
0001
0100
0001
0010
,  // measure 50
0000
0100
1000
0000
1010
0000
0001
0010
,  // measure 51
0001
0100
0001
0010
0000
0100
1000
0000
,  // measure 52
1010
0000
0001
0010
0001
0100
0001
0010
,  // measure 53
0000
0100
1000
0000
1010
0000
0001
0010
,  // measure 54
0001
0100
0001
0010
0000
0100
1000
0000
,  // measure 55
1010
0001
0100
0001
,  // measure 56
0010
0100
0000
0100
1000
0000
0001
0000
,  // measure 57
0100
0001
1000
0001
,  // measure 58
1000
0010
0000
0010
0100
0000
0001
0000
,  // measure 59
1000
0010
1000
0001
,  // measure 60
0100
0010
0000
0010
1000
0000
0100
0000
,  // measure 61
0010
0001
1000
0001
,  // measure 62
0010
0100
0000
0100
1000
0000
0001
1000
,  // measure 63
0001
0100
0000
0010
1000
0000
0001
1000
,  // measure 64
0001
0100
0000
0010
1000
0000
0001
1000
,  // measure 65
0001
0100
0010
1000
0000
0001
1000
0100
,  // measure 66
0000
0020
0000
0030
0002
0000
0203
0000
,  // measure 67
0320
0000
1030
0000
0100
0000
1000
0001
,  // measure 68
0000
0001
0100
0000
0100
0001
2000
0000
,  // measure 69
3020
0000
1030
0000
0100
0000
1000
0100
,  // measure 70
0020
0000
0030
0000
,  // measure 71
1001
0000
1000
0000
0001
0100
0010
0000
,  // measure 72
1000
0000
0001
0000
1000
0100
0010
0000
,  // measure 73
0001
0000
1000
0000
0001
0100
0010
0100
,  // measure 74
0001
0000
1000
0100
0001
0100
1000
0000
,  // measure 75
0001
0000
1000
0100
0010
0000
0001
0000
,  // measure 76
1000
0000
0001
0100
0010
0000
1000
0000
,  // measure 77
0001
0000
1000
0100
0010
0000
0001
0100
,  // measure 78
1000
0001
0010
1000
0010
0000
1000
0000
,  // measure 79
1001
0000
1000
0001
0000
1000
0000
0001
,  // measure 80
0000
0010
0100
0000
1000
0000
0001
0100
,  // measure 81
0001
0000
1000
0100
0010
0001
1000
0010
,  // measure 82
0100
0001
0100
0010
1000
0000
0002
0000
,  // measure 83
0000
0000
1003
0001
1000
0000
0010
0000
,  // measure 84
0100
0001
0100
0000
0001
1000
0000
1000
,  // measure 85
0100
0000
0010
0000
0001
0000
1000
0001
,  // measure 86
1000
0001
0010
0100
0010
0100
0000
0000
,  // measure 87
1001
0000
0100
0000
1000
0000
0010
1000
,  // measure 88
0000
0001
0100
0010
1000
0000
0100
0000
,  // measure 89
0010
0000
0002
0003
0002
0000
1003
0001
,  // measure 90
0000
0001
2000
3000
2000
0000
3010
1000
,  // measure 91
0001
0000
1000
0000
0100
0000
0010
0001
,  // measure 92
0000
1000
0010
0100
0001
0000
1000
0000
,  // measure 93
0010
0000
2000
3000
2000
0000
3000
0000
,  // measure 94
1001
0000
1002
0003
1002
0000
0023
0000
,  // measure 95
0030
0000
0000
0000
;

//---------------dance-single - ----------------
#NOTES:
     dance-single:
     X-Scale 7:
     Easy:
     5:
     0.352159,0.440698,0.046512,0.100775,0.000000,318.000000,312.000000,6.000000,13.000000,0.000000,0.000000,0.352159,0.440698,0.046512,0.100775,0.000000,318.000000,312.000000,6.000000,13.000000,0.000000,0.000000:
// measure 0
0000
0000
0000
0000
,  // measure 1
0000
0000
0000
0000
,  // measure 2
0000
0000
0000
0000
,  // measure 3
0000
0000
0000
0000
,  // measure 4
0000
0000
0000
0000
,  // measure 5
0001
0000
1000
0010
0000
1000
0020
0000
,  // measure 6
0130
0000
0001
1000
0000
0001
0010
0100
,  // measure 7
1000
0000
0001
0100
0000
0001
0200
0000
,  // measure 8
0310
0010
0010
0000
,  // measure 9
0011
0000
0010
0000
0001
0000
0000
1000
,  // measure 10
0000
0001
0010
0100
,  // measure 11
1000
0000
0010
0000
0010
0000
0000
1000
,  // measure 12
0000
0010
0010
0100
,  // measure 13
0001
0000
1000
0000
0010
0000
0000
0100
,  // measure 14
0000
0001
0010
0100
,  // measure 15
0010
0000
0001
0000
0001
0000
0000
0100
,  // measure 16
0000
0001
0001
1000
,  // measure 17
1001
0000
0001
0000
0100
0000
0000
0001
,  // measure 18
0000
0100
0000
0001
0000
0000
0100
0000
,  // measure 19
0001
0000
1000
0000
1000
0000
0000
0010
,  // measure 20
0000
1000
1000
0010
,  // measure 21
0100
0000
0001
0000
1000
0000
0000
0100
,  // measure 22
0000
0010
0000
0100
0000
0000
1000
0000
,  // measure 23
0001
0000
0010
0000
0010
0000
0000
0001
,  // measure 24
0000
0010
0010
0100
,  // measure 25
1000
0000
0001
0000
1000
0000
0000
0010
,  // measure 26
0000
0100
0000
0010
0000
0000
1000
0000
,  // measure 27
0001
0000
1000
0000
1000
0000
0000
0010
,  // measure 28
0000
1000
1000
0001
,  // measure 29
1000
0000
0100
0000
0010
0000
0000
0001
,  // measure 30
0000
0010
0000
0001
0000
0000
0010
0000
,  // measure 31
0100
0000
1000
0000
1000
0000
0000
0001
,  // measure 32
0000
1000
1000
0001
,  // measure 33
1001
0100
0001
1000
,  // measure 34
0001
0010
0100
0010
,  // measure 35
0001
0100
0010
1000
,  // measure 36
0010
1000
0100
0010
,  // measure 37
0001
0100
0001
0010
,  // measure 38
0100
0010
0001
1000
,  // measure 39
0010
0100
0001
1000
,  // measure 40
0100
0010
0001
1000
,  // measure 41
0010
0000
0000
0100
0000
0010
0000
0100
,  // measure 42
0000
0001
1000
0001
,  // measure 43
1000
0000
0000
0100
0000
0010
0000
0100
,  // measure 44
0000
1000
0001
2000
,  // measure 45
0000
3001
0010
0100
,  // measure 46
1000
0001
0100
0010
,  // measure 47
1000
0001
1000
0100
,  // measure 48
0020
0000
0000
0030
,  // measure 49
0011
0000
0001
0000
1000
0000
0000
0001
,  // measure 50
0000
1000
0100
0010
,  // measure 51
0001
0000
0000
1000
0000
0000
0001
0000
,  // measure 52
0100
0000
0010
0000
1000
0000
0000
0001
,  // measure 53
0000
1000
0100
0010
,  // measure 54
0001
0000
0000
1000
0000
0000
0001
0000
,  // measure 55
1000
0000
0100
0000
,  // measure 56
0010
0000
0001
0000
,  // measure 57
1000
0000
0010
0000
,  // measure 58
0100
0000
0001
0000
,  // measure 59
1000
0000
0100
0000
,  // measure 60
0010
0000
0001
0000
,  // measure 61
1000
0000
0010
0000
,  // measure 62
0100
0000
0001
0000
,  // measure 63
0101
0100
0001
1000
,  // measure 64
0001
0100
0010
1000
,  // measure 65
0100
0010
0100
1000
,  // measure 66
0001
0100
0001
1000
,  // measure 67
0020
1000
0000
1000
,  // measure 68
2030
0001
0000
0001
,  // measure 69
3002
0100
0000
0100
,  // measure 70
0203
0000
0300
0000
,  // measure 71
1001
1000
0010
0100
,  // measure 72
0001
1000
0100
0010
,  // measure 73
0001
1000
0010
0100
,  // measure 74
0010
1000
0001
0100
,  // measure 75
0001
0010
0100
0010
,  // measure 76
0001
1000
0010
0100
,  // measure 77
0010
1000
0001
1000
,  // measure 78
0100
0010
0001
1000
,  // measure 79
0001
0000
0000
0100
0000
0010
0000
0100
,  // measure 80
0000
0001
1000
0001
,  // measure 81
0010
0000
0000
0001
0000
1000
0000
0001
,  // measure 82
0000
0100
0010
0200
,  // measure 83
0000
0310
1000
0010
,  // measure 84
0100
0001
0100
0010
,  // measure 85
1000
0001
0010
0100
,  // measure 86
1000
0000
0100
0000
0010
0001
0010
0000
,  // measure 87
0001
0000
1000
0000
0001
0000
0000
0010
,  // measure 88
0000
0100
0010
0001
,  // measure 89
1000
0000
0100
0000
0100
0000
0000
0010
,  // measure 90
0000
0100
0100
1000
,  // measure 91
0010
0000
0100
0000
0001
0000
0000
0010
,  // measure 92
0000
0001
1000
0100
,  // measure 93
1000
0000
0002
0003
0002
0000
0003
0000
,  // measure 94
1000
0000
0002
0003
0002
0000
0003
0000
;

//---------------dance-single - ----------------
#NOTES:
     dance-single:
     X-Scale 3:
     Beginner:
     2:
     0.178295,0.219767,0.000000,0.000000,0.000000,161.000000,161.000000,0.000000,0.000000,0.000000,0.000000,0.178295,0.219767,0.000000,0.000000,0.000000,161.000000,161.000000,0.000000,0.000000,0.000000,0.000000:
// measure 0
0000
0000
0000
0000
,  // measure 1
0000
0000
0000
0000
,  // measure 2
0000
0000
0000
0000
,  // measure 3
0000
0000
0000
0000
,  // measure 4
0000
0000
0000
0000
,  // measure 5
1000
0000
0000
0000
,  // measure 6
0100
0000
0000
0000
,  // measure 7
0010
0000
0000
0000
,  // measure 8
0001
0000
0000
0000
,  // measure 9
0000
1000
0000
0001
,  // measure 10
0000
1000
0000
0100
,  // measure 11
0000
0010
0010
0000
,  // measure 12
0000
0001
0001
0000
,  // measure 13
0000
1000
0000
0010
,  // measure 14
0000
1000
0000
0100
,  // measure 15
0000
0010
0010
0000
,  // measure 16
0000
0001
0001
0000
,  // measure 17
0000
1000
0000
0010
,  // measure 18
0000
1000
0000
0001
,  // measure 19
0000
0100
0100
0000
,  // measure 20
0000
0010
0010
0000
,  // measure 21
0000
1000
0000
0010
,  // measure 22
0000
1000
0000
0001
,  // measure 23
0000
0100
0100
0000
,  // measure 24
0000
0010
0010
0000
,  // measure 25
0000
1000
0000
0001
,  // measure 26
0000
1000
0000
0100
,  // measure 27
0000
0010
0010
0000
,  // measure 28
0000
0001
0001
0000
,  // measure 29
0000
1000
0000
0001
,  // measure 30
0000
1000
0000
0100
,  // measure 31
0000
0010
0010
0000
,  // measure 32
0000
0001
0001
0000
,  // measure 33
1000
0000
0010
0000
,  // measure 34
1000
0000
0010
0000
,  // measure 35
0100
0000
0001
0000
,  // measure 36
0100
0000
0001
0000
,  // measure 37
0010
0000
0100
0000
,  // measure 38
0010
0000
0100
0000
,  // measure 39
1000
0000
0001
0000
,  // measure 40
1000
0000
0001
0000
,  // measure 41
0100
0100
0000
0010
,  // measure 42
0000
1000
0000
0001
,  // measure 43
0000
1000
0000
0100
,  // measure 44
0000
0010
0001
0010
,  // measure 45
0000
0001
0000
1000
,  // measure 46
0000
0001
0000
0010
,  // measure 47
0000
0100
0000
1000
,  // measure 48
1000
0000
0000
0000
,  // measure 49
0001
0000
0000
0000
,  // measure 50
0000
0000
0010
0000
,  // measure 51
0000
0000
0000
0000
,  // measure 52
0100
0000
0000
0000
,  // measure 53
0000
0000
1000
0000
,  // measure 54
0000
0000
0000
0000
,  // measure 55
0001
0000
0000
0000
,  // measure 56
0000
0000
0000
0000
,  // measure 57
0010
0000
0000
0000
,  // measure 58
0100
0000
0000
0000
,  // measure 59
1000
0000
0000
0000
,  // measure 60
0001
0000
0000
0000
,  // measure 61
0100
0000
0000
0000
,  // measure 62
0010
0000
0000
0000
,  // measure 63
1000
0000
0010
0000
,  // measure 64
1000
0000
0100
0000
,  // measure 65
0010
0000
0001
0000
,  // measure 66
0100
0000
0001
0000
,  // measure 67
0010
0000
0100
0000
,  // measure 68
1000
0000
0010
0000
,  // measure 69
1000
0000
0100
0000
,  // measure 70
0010
0000
0000
0000
,  // measure 71
0001
0000
0100
0000
,  // measure 72
0010
0000
0100
0000
,  // measure 73
0001
0000
1000
0000
,  // measure 74
0001
0000
0010
0000
,  // measure 75
0100
0000
1000
0000
,  // measure 76
0010
0000
1000
0000
,  // measure 77
0001
0000
1000
0000
,  // measure 78
0010
0000
0100
0000
,  // measure 79
0010
0010
0000
1000
,  // measure 80
0000
0001
0000
1000
,  // measure 81
0000
0100
0000
0010
,  // measure 82
0000
0001
0100
0001
,  // measure 83
0000
0010
0000
0100
,  // measure 84
0000
1000
0000
0010
,  // measure 85
0000
1000
0000
0100
,  // measure 86
0000
1000
0000
0000
,  // measure 87
0000
0001
0000
0010
,  // measure 88
0000
0100
0000
1000
,  // measure 89
0000
0001
0000
0100
,  // measure 90
0000
0010
0000
1000
,  // measure 91
0001
1000
0000
0010
,  // measure 92
0000
0100
0000
0001
,  // measure 93
0000
1000
1000
0000
,  // measure 94
0000
1000
1000
0000
;
