#TITLE:Rain Maker;
#SUBTITLE:;
#ARTIST:Yonosuke Kitamura;
#TITLETRANSLIT:;
#SUBTITLETRANSLIT:;
#ARTISTTRANSLIT:;
#GENRE:Rock;
#CREDIT:;
#MUSIC:Rain Maker.ogg;
#BANNER:Rain Maker-bn.png;
#BACKGROUND:Rain Maker-bg.png;
#CDTITLE:;
#SAMPLESTART:36.359;
#SAMPLELENGTH:11.417;
#SELECTABLE:YES;
#OFFSET:-0.003;
#BPMS:0.000=41.250
,1.000=165.000
,161.000=82.500
,193.000=165.000
;
#STOPS:;
#DISPLAYBPM:82.000:165.000;
#BGCHANGES:;
#FGCHANGES:;

//--------------- dance-single - forcednature ----------------
#NOTES:
     dance-single:
     forcednature:
     Beginner:
     1:
     0,0,0,0,0:
0000
0000
0000
0000
,
0000
0000
0000
0000
,
0000
0000
0000
0000
,
0000
0000
0000
0000
,
0000
0000
0010
0000
,
0000
0000
0010
0000
,
0000
0000
0010
0000
,
0000
0000
0000
0000
,
0000
0010
0000
0100
,
0000
0010
0000
0000
,
0000
1000
0000
0001
,
0000
1000
0000
0000
,
0000
0001
0000
0010
,
0000
0001
0000
0000
,
0000
1000
0000
0100
,
0000
1000
0000
0000
,
0000
0010
0000
0000
,
0000
0100
0000
0000
,
0000
0001
0000
0000
,
0000
1000
0000
0000
,
0000
0100
0000
0000
,
0000
0010
0000
0000
,
0000
0100
0000
0000
,
0000
1000
0000
0000
,
0000
0010
0000
0100
,
0000
0001
0000
0000
,
0000
1000
0000
0100
,
0000
0010
0000
0000
,
0000
0100
0000
1000
,
0000
0001
0000
0000
,
0000
0010
0000
0100
,
0000
1000
0000
0000
,
0000
0001
0000
0000
,
0000
0010
0000
0000
,
0000
0100
0000
0000
,
0000
1000
0000
0000
,
0000
0010
0000
0100
,
0000
0001
0000
1000
,
0000
0010
0000
1000
,
0000
0001
0000
0000
,
0000
0010
0000
0100
,
1000
0001
0000
0010
,
0001
1000
0000
0010
,
0100
0001
0000
1000
,
0100
1000
0000
0010
,
0000
0100
0000
0001
,
0000
0100
0000
0010
,
0000
1000
0001
1000
,
0001
0010
0000
0000
,
0000
0010
0000
0100
,
0000
1000
0000
0000
,
0000
0010
0000
0100
,
0000
0001
0000
0000
,
0000
1000
0000
0001
,
0000
0010
0000
0000
,
0000
0100
0000
1000
,
0000
0010
0000
0000
,
0000
0100
0000
0001
,
0000
0010
0000
0000
,
0000
0100
0000
1000
,
0000
0010
0000
0000
,
0000
0100
0000
0010
,
0000
1000
0000
0000
,
0000
0100
0000
0010
,
0000
1001
0000
0000
,
0000
0110
0000
0000
,
0000
1010
0000
0000
,
0000
0101
0000
0000
,
0000
1100
0000
0000
,
0000
0011
0000
0000
,
0000
0101
0000
0000
,
0000
1010
0000
0000
,
0000
1001
0000
0000
;

//--------------- dance-single - forcednature ----------------
#NOTES:
     dance-single:
     forcednature:
     Easy:
     4:
     0,0,0,0,0:
0000
0000
0000
0000
,
0000
0000
0000
0000
,
0000
0000
0000
0000
,
0000
0000
0000
0000
,
0000
1000
0100
0010
,
0100
1000
0100
0010
,
0100
1000
0001
0010
,
0001
1000
0001
2002
,
3003
0001
0100
0001
,
1000
0001
0010
0001
,
0000
1000
0100
1000
,
0001
1000
0010
1000
,
0000
0001
0010
0100
,
1000
0010
0100
0001
,
0000
1000
0100
0010
,
0100
1000
0001
0010
,
0000
0001
1100
0000
,
0000
0010
1001
0000
,
0000
0100
0011
0000
,
0000
1100
0000
0101
,
0000
0010
0100
1000
,
0001
0100
0010
1000
,
0001
0010
0100
1000
,
0001
0100
0010
2002
,
3003
1000
0001
1000
,
0010
1000
0001
0010
,
0000
0100
1000
0001
,
0010
0100
1000
0001
,
0000
0100
0001
1000
,
0010
0100
0010
1000
,
0000
0001
0010
0100
,
1000
0001
0010
0100
,
0000
0010
0010
0000
,
0000
0100
0100
0000
,
0000
1000
1000
0000
,
0000
0001
0001
0000
,
0000
0100
0001
1000
,
0010
1000
0001
0010
,
0100
1000
0001
0010
,
0100
0010
0010
0010
,
0000
0100
1000
0001
,
0010
0010
0001
0000
1000
0000
0010
0000
,
0100
0100
0001
0000
1000
0000
0100
0000
,
0010
0010
0001
0000
1000
0000
0010
0000
,
0100
0100
0001
0001
0000
0000
1000
1000
,
0000
0000
0100
0100
0000
0000
0010
0000
,
0010
0000
0001
1000
0010
0000
0100
0001
,
1000
0000
0100
1000
0001
0000
0010
0001
,
1000
0010
0100
0001
,
0100
0010
0100
0001
,
0000
1000
0100
0010
,
0100
1000
0001
0010
,
0000
0001
1000
0010
,
0100
0001
1000
0100
,
0000
0010
0010
0010
,
0000
1001
1001
1001
,
0000
0010
1000
0001
,
0100
0010
1000
0001
,
0000
1000
0100
0010
,
0100
1000
0001
0010
,
0000
0100
0010
0001
,
1000
0100
0010
0100
,
0000
1000
0001
0010
,
0000
0100
1000
0001
,
0000
0100
1001
0000
,
0000
0010
1001
0000
,
0000
1000
0110
0000
,
0000
0001
0110
0000
,
0000
1000
0011
0000
,
0000
0001
1100
0000
,
0000
0010
0101
0000
,
0000
0100
1010
0000
,
0010
1001
0000
0000
;

//--------------- dance-single - forcednature ----------------
#NOTES:
     dance-single:
     forcednature:
     Medium:
     6:
     0,0,0,0,0:
0000
0000
0000
0000
,
0000
0000
0000
0000
,
0000
0000
0000
0000
,
0000
0000
0000
0000
,
0000
0000
1001
0000
,
1001
0000
0110
0000
,
0110
0000
1001
0000
,
1001
0010
0010
2002
,
0000
3003
1000
0000
0010
0000
0100
0000
,
0010
0000
1000
0000
0010
0000
0100
0100
,
0100
0001
0010
0100
,
0010
0000
0001
0000
0010
0000
0100
0100
,
0100
1000
0001
1000
,
0010
0000
1000
0000
0001
0000
0100
0100
,
0100
0001
1000
0010
,
0100
0000
0001
0000
1000
0000
0010
0010
,
0010
1000
0101
0010
,
1000
0001
1100
0010
,
1000
0001
1010
0100
,
0010
1000
0101
0010
,
0001
1000
0011
0100
,
0010
1000
0101
0010
,
0001
0100
1100
0010
,
0001
0100
0010
2002
,
0000
3003
1000
0000
0001
0000
1000
0000
,
0100
0000
0010
0000
0001
0000
0100
0100
,
0100
0001
1000
0001
,
0010
0000
0100
0000
1000
0000
0010
0010
,
0010
1000
0001
1000
,
0010
0000
0100
0000
0001
0000
0100
0100
,
0100
0001
1000
0010
,
0100
0000
0001
0000
1000
0000
0010
0010
,
0010
0000
0100
0100
1001
0000
0000
0000
,
0000
0000
0010
0010
1001
0000
0000
0000
,
0000
0000
1000
1000
0011
0000
0000
0000
,
0000
0000
0001
0001
1100
0000
0000
0000
,
0000
0000
0100
0100
1001
0000
0010
0000
,
1001
0000
0100
0100
1001
0000
0010
0000
,
1001
0000
0010
0010
1001
0000
0100
0000
,
1001
0021
1000
0001
,
1000
0000
0030
0000
0010
0010
0010
0000
0001
0000
1000
0000
0010
0000
0100
0000
,
0001
0000
1000
0000
0100
0100
0100
0000
1000
0000
0001
0000
1000
0000
0010
0000
,
1000
0000
0001
0000
0010
0010
0010
0000
0100
0000
1000
0000
0001
0000
0010
0000
,
0100
0000
1000
0000
0001
0001
0001
0000
1000
0000
0010
0000
0100
0000
0001
0000
,
1000
0000
0010
0000
0100
0001
0100
0000
0000
0000
0000
0000
0010
1000
0010
0000
,
0000
0000
0000
0000
1000
0100
1000
0000
0000
0000
0000
0000
0001
0000
0000
0010
,
0001
0000
0000
1000
0100
0010
0001
0000
0100
0000
0010
0000
1000
0010
1000
0000
,
0010
0000
0100
0000
0001
1000
0001
0000
1000
0000
0100
0000
0010
0001
0000
1000
,
0010
0100
0000
0001
1000
0000
0001
0000
1000
0000
0000
0000
0010
0000
0000
0000
,
1001
0000
0100
0000
1001
0000
0010
0010
,
0010
0000
0001
1000
0001
0000
0100
0000
,
1010
0000
0100
0000
0011
0000
0100
0100
,
0100
0000
0010
1000
0001
0000
0100
0000
,
1010
0000
0100
0000
0011
0000
0100
1000
,
0001
0000
0010
0100
1000
0000
0010
0000
,
1001
0000
0100
0010
1000
0000
0110
0000
,
1001
0000
0010
0001
1000
0000
0100
0000
,
1000
0001
0010
0100
,
1001
0000
1000
0010
0100
0000
0001
0000
,
1000
0100
0010
0100
,
1001
0000
0010
1000
0001
0000
0010
0000
,
0100
1000
0001
0010
,
1100
0000
0010
1000
0001
0000
0100
0000
,
0010
1000
0001
0100
,
1010
0000
0001
0010
0011
0000
0000
0000
,
0100
0000
1000
0100
1100
0000
0000
0000
,
1001
0000
0010
0100
0110
0000
0000
0000
,
1001
0000
0010
1000
1010
0000
0000
0000
,
0100
0000
0001
0010
0011
0000
0000
0000
,
1100
0000
1000
0010
1010
0000
0000
0100
,
0100
0000
0001
0010
0011
0000
0000
1000
,
1000
0000
1000
0100
1100
0000
0000
0001
,
0001
1001
0000
0000
;

//--------------- dance-single - forcednature ----------------
#NOTES:
     dance-single:
     forcednature:
     Hard:
     8:
     0,0,0,0,0:
0000
0000
0000
0000
,
0000
0000
0000
0000
,
0000
0000
0000
0000
,
0000
0000
0000
0000
,
0000
0000
1000
0010
0100
0000
0001
0010
,
0100
0000
1000
0100
0010
0000
0001
0100
,
0010
0000
1000
0100
0010
0000
0001
0010
,
0100
0010
0100
1001
,
0000
0000
1000
0010
1000
0001
0010
0001
,
0100
0000
0010
1000
0100
0000
0010
0001
,
0100
0000
0010
1000
0001
1000
0100
0010
,
0001
0000
1000
0100
1000
0000
0001
0010
,
0001
0000
1000
0001
0100
0001
0010
0100
,
1000
0000
0010
0100
0001
0000
1000
0010
,
0100
0000
0001
1000
0010
1000
0001
0010
,
0001
0000
1000
0100
0010
0000
0100
1000
,
0001
0000
0010
0010
1001
0000
0100
0000
,
1010
0000
0100
0100
0011
0000
0100
0000
,
1010
0000
0001
0001
1010
0000
0100
0000
,
1010
0000
0001
0001
0110
0000
1000
0000
,
0110
0000
0001
1000
0010
0000
1000
0001
,
0010
0000
0100
1000
0001
0000
0010
0001
,
1000
0000
0010
0100
0001
0000
1000
0100
,
0010
0000
1000
0100
0001
0100
1000
0010
,
0100
0000
1001
0000
1010
0000
0001
0010
,
1000
0010
0001
0100
0010
1000
0100
0010
,
0100
0000
1010
0000
1001
0000
0001
0010
,
0001
0100
0010
1000
0100
0010
0100
1000
,
0001
0000
0101
0000
1001
0000
0100
1000
,
0001
0010
0100
1000
0001
1000
0010
1000
,
0001
0000
1100
0000
1001
0000
1000
0010
,
1000
0001
0010
0100
1000
0100
0010
0001
,
0100
0000
0010
0010
2002
0000
0000
0000
,
3003
0000
0100
0100
2002
0000
0000
0000
,
3003
0000
1000
1000
0022
0000
0000
0000
,
0033
0000
0001
0001
2200
0000
0000
0000
,
3300
0000
0010
0010
1001
0000
0100
0000
,
1010
0000
0010
0010
1001
0000
0100
0000
,
0011
0000
0100
0100
1001
0000
0010
0000
,
1001
0100
0100
0001
,
1000
0000
0020
1000
0100
0001
0100
1000
,
0100
0030
2000
0010
0001
0100
0001
0010
,
0001
3000
0002
0010
1000
0100
1000
0010
,
1000
0003
0200
1000
0010
0001
0010
1000
,
0010
0000
0300
0000
1000
0010
1000
0000
1001
0000
0000
0000
0001
0010
0001
0000
,
1001
0000
0000
0000
1000
0100
1000
0000
1001
0000
0000
0000
0001
0100
0000
0001
,
0010
0100
0000
1000
0100
1000
0100
1000
0001
0010
0001
0010
0100
1000
0100
1000
,
0001
0010
0001
0010
0001
1000
0001
1000
0010
1000
0010
1000
0001
0100
0001
0100
,
0001
1000
0001
1000
0001
0000
0100
0000
0010
0000
0100
0000
0001
0000
0100
0000
,
0010
0000
1000
0100
0010
0000
0100
0000
,
1001
0000
0010
0001
1000
0100
1000
0001
,
0010
0000
0001
1000
0010
0000
0100
0000
,
1001
0000
0010
1000
0001
1000
0100
0010
,
0001
0000
1000
0001
0100
0000
0010
0000
,
1001
0000
0001
0010
0100
0000
1000
0000
,
1001
0000
0010
0100
0010
0000
1001
0000
,
1001
0000
1000
0010
0100
0001
0010
0100
,
1000
0100
0010
0001
0100
0010
1000
0000
,
1001
0000
0001
1000
0010
1000
0001
0010
,
0100
1000
0100
0010
0100
1000
0001
0000
,
1001
0000
1000
0010
0100
0001
0100
0010
,
0100
0001
1000
0010
1000
0001
0100
0000
,
1001
0000
0001
0010
0100
1000
0100
0010
,
0100
1000
0001
0010
0100
1000
0001
0010
,
0001
1000
0001
0100
0202
0000
0000
0000
,
0303
0000
1000
0100
2200
0000
0000
3300
,
0011
0000
0001
1000
2002
0000
0000
0000
,
3003
0000
1000
0010
2020
0000
0000
0000
,
3030
0000
0000
0000
0001
0000
0100
0000
0101
0000
0000
0000
0000
0001
0000
0000
,
1000
0000
0000
0000
0001
0000
0010
0000
0011
0000
0000
0000
0000
1000
0100
0000
,
1000
0000
0100
1000
1100
0000
0000
0001
,
0100
0000
0000
0000
0001
0000
1000
0000
1001
0000
0000
0000
0000
0010
0000
1000
,
0000
0001
0000
0100
0010
0000
0000
0000
0000
0000
0000
0000
0000
0000
0000
0000
;

//--------------- dance-single - forcednature ----------------
#NOTES:
     dance-single:
     forcednature:
     Challenge:
     9:
     0,0,0,0,0:
0000
0000
0000
0000
,
0000
0000
0000
0000
,
0000
0000
0000
0000
,
0000
0000
0000
0000
,
0000
0000
1000
0001
0010
0010
0100
1000
,
0001
0001
1000
0010
0100
0100
0001
0010
,
0100
0100
1000
0010
0100
0100
0001
1000
,
0010
0010
1000
0100
0010
0010
2002
0000
,
0000
0000
0000
3003
0001
0000
0010
0000
0100
0000
1000
0000
0001
0000
0100
0000
,
0001
1000
0100
1000
0001
0010
0100
1000
,
2002
3003
0001
1000
0010
0100
0010
1000
,
0100
0010
0100
1000
0001
0010
0100
1000
,
2002
3003
0001
1000
0010
1000
0001
0010
,
0001
1000
0100
0010
0001
1000
0001
0100
,
2002
3003
0001
1000
0010
1000
0001
0010
,
0001
1000
0100
0010
0100
1000
0001
0100
,
0001
0000
0010
0000
0100
0000
0100
0000
0012
0000
0000
0000
0100
0000
0000
0003
,
1001
0000
0000
0000
1020
0000
1000
0000
0100
0000
0000
0000
0001
0000
0000
0030
,
1001
0000
0000
0000
0021
0000
0001
0000
0100
0000
0000
0000
1000
0000
0000
0030
,
1001
0000
1000
1000
0000
0100
0001
0001
,
0000
0100
1000
0001
0100
0001
1000
0100
,
1000
0001
1000
0010
1000
0001
0010
0001
,
1000
0001
1000
0100
0010
0001
1000
0010
,
0100
0000
0001
0000
1000
0000
0001
0000
0010
0000
0100
0000
2002
0000
0000
3003
,
1000
0001
1000
0001
1000
0000
0010
0000
0100
0000
0001
0000
1000
0000
0100
0000
,
0010
0100
1000
0001
0010
0100
1000
0001
,
2002
3003
1000
0010
1000
0001
0010
0001
,
1000
0100
0010
0100
1000
0010
0100
0001
,
2002
3003
0001
0010
0001
0100
0010
1000
,
0100
1000
0001
1000
0010
1000
0001
0010
,
2002
3003
1000
0010
1000
0001
0100
0001
,
1000
0001
0010
0100
1000
0100
0010
0001
,
1000
0000
0010
1000
0010
0000
0100
0000
2020
0000
0000
0000
0000
0000
0000
0000
,
0000
3030
0001
0010
2200
0000
0000
0000
,
0000
3300
0001
1000
0220
0000
0000
0000
,
0000
0330
0010
0100
2002
0000
0000
0000
,
0000
3003
0001
0001
0001
1000
0100
1000
,
0001
1000
0010
0010
0010
0100
0001
1000
,
0100
0010
0100
0100
0100
1000
0001
0010
,
0100
0000
1000
0000
0001
0000
0001
0000
0001
0000
0010
0000
2200
0000
0000
3300
,
0001
0010
0001
0010
0001
0001
1000
0010
0100
0100
0001
1000
0100
0100
0010
0001
,
1000
1000
0010
0100
0001
0001
1000
0010
0100
0100
0001
0010
0100
0100
1000
0010
,
1000
1000
0001
0010
0100
0100
1000
0001
1000
1000
0010
0100
0001
0001
0010
0100
,
1000
1000
0001
0100
0010
0010
1000
0001
0010
0010
0001
1000
0100
0100
1000
0001
,
0100
0100
0010
1000
0001
0001
0001
0000
0011
0000
1000
0000
0100
0100
0100
0000
,
1001
0000
0010
0000
1000
1000
1000
0000
0011
0000
0001
0000
1000
1000
0000
0010
,
0001
0001
0000
0010
1000
0100
1000
0001
1000
0010
1000
0001
0010
0001
1000
0100
,
0010
0001
1000
0001
1000
0001
0010
0100
1000
0001
1000
0010
0100
0001
0100
0010
,
0100
0001
0010
0100
1000
0000
0100
0000
0001
0000
0100
0000
1000
0000
0010
0000
,
0100
0001
0010
1000
0010
0001
0100
0010
,
2002
3003
0001
0010
1000
0010
0001
0100
,
0010
1000
0100
0001
0100
1000
0010
0100
,
2002
3003
1000
0010
1000
0100
1000
0001
,
0010
0001
0100
0001
1000
0100
0001
0100
,
2002
3003
0001
0010
0001
0100
1000
0100
,
2002
3003
1000
0100
2002
3003
2002
3003
,
2002
3003
0001
0010
0001
0100
0010
1000
,
0100
1000
0001
0010
0100
1000
0001
0010
,
2002
3003
1000
0100
0010
0100
1000
0010
,
0100
0001
1000
0100
0001
0100
1000
0010
,
2002
3003
0001
0010
1000
0010
0001
0100
,
0010
1000
0100
0001
0100
1000
0010
0100
,
2002
3003
1000
0010
1000
0010
0001
0010
,
1000
0100
0001
0100
1000
0001
1000
0010
,
1000
0001
0010
0010
1001
0000
0000
0000
,
0110
0000
1000
0001
1001
0000
0000
0000
,
0220
0330
0001
1000
1001
0000
0000
0000
,
0110
0000
1000
0010
1010
0000
0000
0000
,
0101
0000
0000
0000
0001
0000
0010
0000
0011
0000
0000
0000
0000
1000
0000
0000
,
0100
0000
0000
0000
1000
0000
0010
0000
1010
0000
0000
0000
0000
0001
0100
0000
,
0001
0000
1000
0100
1100
0000
0000
0001
,
0010
0000
0000
0000
0001
0000
1000
0000
1001
0000
0000
0000
0000
1000
0000
0001
,
0010
0001
0100
0010
1000
0000
0000
0000
0000
0000
0000
0000
0000
0000
0000
0000
;

//--------------- dance-double - forcednature ----------------
#NOTES:
     dance-double:
     forcednature:
     Easy:
     5:
     0,0,0,0,0:
00000000
00000000
00000000
00000000
,
00000000
00000000
00000000
00000000
,
00000000
00000000
00000000
00000000
,
00000000
00000000
00000000
00000000
,
00000000
00001000
00010000
01000000
,
00010000
00100000
10000000
01000000
,
10000000
01000000
00100000
00010000
,
00001000
00000100
00000001
00001001
,
00000000
00000001
00000010
00000100
,
00001000
00010000
00001000
00000100
,
00011000
01000000
00100000
00010000
,
10000000
01000000
00100000
01000000
,
10010000
00100000
00010000
00001000
,
00000010
00001000
00010000
00000100
,
00001001
00000010
00001000
00010000
,
01000000
00100000
01000000
00100000
,
10010000
01000000
01010000
00000000
,
00100000
00010000
00001100
00000000
,
00000010
00000100
00001001
00000000
,
00000001
00000010
00010100
00000000
,
00001000
00100000
01010000
00000000
,
10000000
01000000
00011000
00000000
,
00000100
00001000
00000011
00000000
,
00000100
00000010
00000010
00001001
,
00000000
00000010
00001000
00000100
,
00000001
00000100
00001000
00010000
,
10010000
00100000
10000000
01000000
,
00010000
00001000
00000010
00000001
,
00001001
00000001
00000100
00000010
,
00010000
00001000
00100000
01000000
,
10010000
01000000
10000000
00010000
,
00100000
00001000
00010000
00000010
,
00001000
00000010
00000110
00000000
,
00000000
00001000
00001001
00000000
,
00000000
00001000
00011000
00000000
,
00000000
01000000
10010000
00000000
,
00000000
10000000
00100000
01000000
,
00001000
00010000
00000100
00000010
,
00000001
00000100
00000001
00001000
,
00000100
00010000
00010000
01001000
,
00000000
00200000
01000000
10000000
,
00310000
02000000
00010000
10000000
,
03100000
00000200
00001000
00000001
,
00000310
00000020
00001000
00000001
,
00000130
00000000
00001001
00000010
00001000
00000000
01010000
00100000
,
00011000
00000000
11000000
00100000
00010000
00000000
00011000
00000100
,
00011000
00000000
00010000
00001000
00000100
00000001
00000100
00001000
,
00010000
01000000
10000000
01000000
00010000
00001000
00000100
00000010
,
00000001
00000100
00000010
00010000
,
00001000
00100000
01000000
00000000
,
10010000
01000000
00010000
00001000
,
00000100
00010000
00001000
00000000
,
00011000
00010000
01000000
10000000
,
00100000
00010000
00001000
00000000
,
00001001
00000010
00000100
00000000
,
00001001
00000000
00001001
00001001
,
00001001
00000001
00000010
00001000
,
00000100
00001000
00000010
00000000
,
00001010
00010000
00001000
01000000
,
00100000
00010000
00001000
00000000
,
00011000
00000100
00001000
00010000
,
10000000
10000000
00100000
00000000
,
10010000
01000000
00001000
00000000
,
00010000
00001000
00000100
00000010
,
00000100
00000010
00001001
00000000
,
00010000
01000000
00110000
00000000
,
01000000
10000000
00110000
00000000
,
01000000
00001000
00011000
00000000
,
00000100
00001000
00001001
00000000
,
00000010
00000001
00001001
00000000
,
00000010
00001000
00001100
00000000
,
00000100
00010000
00011000
00000000
,
00001000
01001000
00000000
00000000
;

//--------------- dance-double - forcednature ----------------
#NOTES:
     dance-double:
     forcednature:
     Medium:
     7:
     0,0,0,0,0:
00000000
00000000
00000000
00000000
,
00000000
00000000
00000000
00000000
,
00000000
00000000
00000000
00000000
,
00000000
00000000
00000000
00000000
,
00000000
00000000
00011000
00000000
,
01010000
00000000
10010000
00000000
,
00110000
00000000
00011000
00000000
,
00001100
00000010
00000010
00002002
,
00000000
00003003
00000001
00000000
00000100
00000000
00000010
00000000
,
00010000
00000000
00001000
00000000
01000000
00000000
00100000
00100000
,
00100000
10000000
01000000
00100000
,
00001000
00000000
00010000
00000000
00000100
00000000
00001000
00001000
,
00001000
00000001
00001000
00000010
,
00000100
00000000
00000001
00000000
00000010
00000000
00001000
00001000
,
00001000
00000000
00010000
00000000
01000000
00000000
10000000
10000000
,
10000000
00000000
00100000
00000000
01000000
00000000
00010000
00010000
,
00010000
01000000
00001000
00010000
,
00001000
00010000
00000100
00001000
,
00000001
00001000
00000010
00001000
,
00000100
00010000
00001000
01000000
,
00010000
00000000
10000000
00000000
01000000
01000000
10000000
00000000
,
00100000
00100000
01000000
00000000
00010000
00010000
00100000
00000000
,
00001000
00001000
00010000
00000000
00000100
00000100
00001000
00000000
,
00000001
00000001
00001000
00000000
01000000
00000000
20020000
00000000
,
00000000
30030000
10000000
00000000
00100000
00000000
01000000
01000000
,
01000000
00000000
00010000
00010000
00010000
00000000
00100000
00001000
,
00010000
00000000
00000100
00000000
00001000
00000000
00000001
00000001
,
00000001
00000000
00001000
00001000
00001000
00000000
00000010
00000010
,
00001000
00000000
00000100
00000000
00010000
00000000
00001000
00001000
,
00001000
00000000
01000000
01000000
01000000
00000000
00010000
00010000
,
00100000
00000000
01000000
00000000
10000000
00000000
00010000
00010000
,
00010000
00000000
01000000
01000000
01000000
00000000
00001000
00000000
,
00010000
00000000
00000100
00000100
00001100
00000000
00000000
00000000
,
00000000
00000000
00000010
00000010
00000011
00000000
00000000
00000000
,
00000000
00000000
00010000
00010000
00011000
00000000
00000000
00000000
,
00000000
00000000
00001000
00001000
00011000
00000000
00000000
00000000
,
00000000
00000000
10000000
10000000
10100000
00000000
01000000
00000000
,
01100000
00000000
00010000
00010000
00110000
00000000
00100000
00000000
,
00011000
00000000
00000100
00000100
00001100
00000000
00001000
00000000
,
00001001
00000110
00000110
00000110
,
00000110
00000000
00000000
00000000
00000010
00000000
00000000
00001000
00000001
00000001
00000000
00000000
00000010
00000010
00000000
00000000
,
00001000
00001000
00000000
00000000
00010000
00000000
00000000
01000000
00010000
00010000
00000000
00000000
10000000
10000000
00000000
00000000
,
00100000
00100000
00000000
00000000
10000000
00000000
00000000
01000000
00100000
00100000
00000000
00000000
00001000
00001000
00000000
00000000
,
00010000
00010000
00000000
00000000
00000100
00000000
00000000
00001000
00000001
00000001
00000000
00000000
00000100
00000100
00000000
00000000
,
00000010
00000010
00000000
00000000
00010000
00000000
00011000
00000000
00000000
00000000
00000000
00000000
00001000
00000000
01001000
00000000
,
00000000
00000000
01000000
01010000
00000000
00000000
00010000
00110000
,
01000000
10000000
00010000
10100000
00000000
01000000
00010000
00011000
,
00000000
00001000
00000100
00001001
00000000
00000010
00001001
00001001
,
00001001
00001001
00001000
00000001
00000010
00000000
00000100
00000000
,
00001001
00010000
01001000
00100000
,
10010000
00000000
01000000
00100000
00010000
00000000
01000000
00000000
,
00011000
00000100
00001001
00000100
,
00001010
00000000
00001000
00010000
01000000
00000000
00100000
00000000
,
10010000
01000000
00011000
00000100
,
00001001
00000000
00000010
00001000
00000001
00000000
00000100
00000000
,
00001001
00010000
01001000
00110000
,
01001000
00000000
00100000
00010000
10000000
00000000
01000000
00000000
,
00110000
00001000
00010100
00001000
,
00001001
00000000
00000010
00000100
00000001
00000000
00001000
00000000
,
00011000
01000000
10010000
00100000
,
10010000
00000000
01000000
00010000
00001000
00000000
00001000
00000000
,
00000101
00000010
00011000
01000000
,
00110000
00000000
10000000
01000000
00100000
00000000
01000000
00000000
,
00011000
00000000
00000100
00001000
00000001
00000000
00000100
00000000
,
00001001
00000000
00000010
00000010
00000010
00000000
00000000
00000000
,
00001100
00000000
00010000
00010000
00010000
00000000
00000000
00000000
,
01100000
00000000
10000000
10000000
10000000
00000000
00000000
00000000
,
00110000
00000000
00001000
01000000
00001000
00000000
00000000
00000000
,
00011000
00000000
00001000
00000100
00001000
00000000
00000000
00000000
,
00000011
00000000
00000100
00010000
00000100
00000000
00000000
00010000
,
00010000
00000000
01000000
00010000
01000000
00000000
00000000
00100000
,
00100000
00000000
10000000
01000000
10000000
00000000
00000000
00010000
,
00010000
01000000
01001000
00000000
00000000
00000000
00000000
00000000
;

//--------------- dance-double - forcednature ----------------
#NOTES:
     dance-double:
     forcednature:
     Hard:
     8:
     0,0,0,0,0:
00000000
00000000
00000000
00000000
,
00000000
00000000
00000000
00000000
,
00000000
00000000
00000000
00000000
,
00000000
00000000
00000000
00000000
,
00000000
00000000
00001000
00100000
00001000
00100000
00010000
00100000
,
00010000
00100000
01000000
00100000
01000000
00100000
01000000
10000000
,
01000000
10000000
00010000
10000000
00010000
10000000
00010000
01000000
,
00010000
01000000
00001000
01000000
00001000
01000000
01010000
00000000
,
00000000
00000000
00010000
00001000
00010000
00001000
00010000
00000100
,
00010000
00000100
00001000
00000100
00001000
00000100
00001000
00000001
,
00001000
00000000
00000001
00000010
00000001
00000010
00000100
00000010
,
00000100
00000010
00000100
00001000
00000100
00001000
00000100
00010000
,
00000100
00000000
00010000
00001000
00010000
00001000
00100000
00010000
,
00100000
00010000
10000000
00100000
10000000
00100000
01000000
00100000
,
01000000
00000000
00010000
00100000
00010000
00100000
00001000
00010000
,
00001000
00010000
00000010
00001000
00000010
00001000
00000100
00001000
,
00000100
00000000
00001000
00000010
00001010
00000000
00010000
00000000
,
01010000
00000000
00100000
01000000
01100000
00000000
10000000
00000000
,
10010000
00000000
00010000
01000000
01010000
00000000
00001000
00000000
,
00011000
00000000
00010000
00000100
00000000
00000100
00001000
00000001
,
00000000
00001000
00000010
00001000
00000010
00001000
00000100
00001000
,
00000100
00001000
00000100
00010000
00000100
00010000
00001000
00010000
,
00001000
00010000
00001000
01000000
00001000
01000000
00010000
00100000
,
00010000
00100000
01000000
10000000
01000000
10000000
00110000
00000000
,
00000000
00000000
10000000
01000000
10000000
01000000
00100000
00010000
,
00100000
00010000
00100000
00001000
00100000
00001000
00010000
00000100
,
00010000
00000000
00000100
00001000
00000100
00001000
00000001
00000010
,
00000001
00000010
00000100
00010000
00000100
00010000
00001000
00010000
,
00001000
00000000
01000000
00010000
01000000
00010000
10000000
00100000
,
10000000
00100000
10000000
00010000
10000000
00010000
00100000
01000000
,
00100000
00000000
01000000
10000000
01000000
10000000
00010000
00100000
,
00010000
00100000
00001000
00010000
00001000
00010000
00000010
00010000
,
00000010
00000000
00001000
00000100
00000001
00000000
00000000
00000000
,
00000000
00000000
00001000
00000100
00010000
00000000
00000000
00000000
,
00000000
00000000
00010000
00001000
00100000
00000000
00000000
00000000
,
00000000
00000000
01000000
00100000
10000000
00000000
00000000
00000000
,
00000000
00000000
01000000
00100000
00010000
00000000
01000000
00000000
,
10010000
00000000
00100000
00010000
00001000
00000000
00010000
00000000
,
00001100
00000000
00000001
00000010
00001000
00000000
00000100
00000000
,
00011000
00000000
01000000
00010000
00100000
00001000
01000000
00000000
,
00100000
00000000
00100000
00000000
10000000
00010000
10000000
00000000
00100000
10000000
00100000
00000000
01000000
00010000
01000000
00000000
,
00001000
00000000
00011000
00000000
00010000
00000100
00010000
00000000
00000001
00001000
00000001
00000000
00001000
00000010
00001000
00000000
,
00001000
00000000
00011000
00000000
01000000
00010000
01000000
00000000
00100000
10000000
00100000
00000000
10000000
01000000
10000000
00000000
,
00010000
00000000
00011000
00000000
00000100
00001000
00000100
00000000
00001000
00000001
00001000
00000000
00000010
00001000
00000010
00000000
,
00001000
00000000
00011000
00000000
01000000
00010000
01000000
00000000
01100000
00000000
10000000
00000000
00010000
00100000
00010000
00000000
,
00011000
00000000
00000100
00000000
00001000
00000001
00001000
00000000
00001010
00000000
00010000
00000000
01000000
00010000
00000000
00010000
,
01000000
00010000
00000000
01000000
00100000
01000000
00010000
01000000
00100000
10000000
00010000
01000000
00100000
10000000
00010000
01000000
,
00010000
00100000
00001000
00010000
00000100
00001000
00000001
00001000
00000010
00001000
00000001
00000100
00000010
00001000
00000100
00010000
,
00001000
01000000
00010000
00100000
01000000
00000000
10000000
00000000
00010000
00000000
00100000
00000000
01000000
00000000
10000000
00000000
,
00010000
00100000
00001000
00010000
00000100
00001000
00000001
00000000
,
00001001
00000000
00000001
00000010
00000100
00001000
00000100
00010000
,
00001000
01000000
00010000
10000000
00100000
01000000
00010000
00000000
,
10010000
00000000
01000000
10000000
00010000
00100000
00001000
00010000
,
00000100
00001000
00000001
00001000
00000010
00000100
00000001
00000000
,
00001001
00000000
00000001
00001000
00000010
00010000
00001000
00000000
,
00011000
01000000
00011000
00010100
,
00011000
00000000
00010000
00001000
00100000
00010000
10000000
01000000
,
00100000
00010000
00100000
01000000
10000000
00100000
01000000
00010000
,
01000000
00000000
00010000
00100000
00001000
00010000
00000100
00001000
,
00000001
00001000
00000010
00001000
00000100
00010000
00001000
01000000
,
00010000
00000000
10000000
01000000
00100000
01000000
10000000
00010000
,
00100000
00001000
00010000
00000010
00001000
00000010
00000100
00000001
,
00001000
00000000
00000100
00010000
00001000
01000000
00010000
01000000
,
00001000
00010000
00000100
00001000
00000100
00010000
00001000
01000000
,
00010000
00100000
01000000
10000000
10010000
00000000
00000000
00000000
,
01100000
00000000
01000000
00010000
00001000
00000000
00000000
00000000
,
00011000
00000000
00000010
00000100
00010000
00000000
00000000
00000000
,
00011000
00000000
00010000
00000100
00001000
00000000
00000000
00000000
,
00001001
00000000
00000001
00000010
00001000
00000000
00000000
00000000
,
00011000
00000000
00010000
01000000
10000000
00000000
00000000
00000000
,
10010000
00000000
10000000
01000000
00100000
00000000
00000000
00000000
,
01100000
00000000
00000000
00000000
00100000
00000000
00010000
00000000
01000000
00000000
00000000
00000000
00000000
00010000
00000000
00000000
,
00001000
00010000
00000100
00000000
00000000
00000000
00000000
00000000
;

//--------------- dance-double - forcednature ----------------
#NOTES:
     dance-double:
     forcednature:
     Challenge:
     9:
     0,0,0,0,0:
00000000
00000000
00000000
00000000
,
00000000
00000000
00000000
00000000
,
00000000
00000000
00000000
00000000
,
00000000
00000000
00000000
00000000
,
00000000
00000000
00001000
00010000
00001000
01000000
00010000
00100000
,
01000000
10000000
00010000
00100000
00001000
00010000
00000100
00001000
,
00000010
00001000
00000001
00000100
00000001
00000010
00000100
00001000
,
00000100
00000000
00000010
00000000
00001000
00000000
00000100
00000000
00010000
00000000
00001000
00000000
02000000
00000000
00000000
03000000
,
01100000
00000000
10010000
10000000
00010000
00000000
01000000
00010000
,
00100000
01000000
10000000
00010000
00100000
00001000
00010000
00000100
,
00001000
00000000
00001001
00001000
00000010
00000000
00000100
00000001
,
00000010
00000100
00010000
00001000
01000000
00010000
10000000
00100000
,
10000000
00000000
10010000
00010000
00100000
00000000
01000000
10000000
,
00010000
00100000
00001000
00010000
00000010
00001000
00000010
00000100
,
00000001
00000000
00001001
00001000
00000001
00000000
00001000
00000010
,
00010000
00001000
01000000
00010000
10000000
00100000
01000000
00010000
,
10000000
01000000
00100000
00100000
01100000
00000000
11000000
00000000
,
01010000
00000000
01000000
00010000
00001000
00000000
00011000
00000000
,
00010100
00000000
00000100
00001000
00000010
00000000
00000110
00000000
,
00001001
00000000
00000001
00000010
00000000
00000100
00010000
00001000
,
00000000
01000000
00010000
01000000
00100000
01000000
10000000
01000000
,
00010000
00100000
10000000
00100000
00010000
01000000
00001000
00010000
,
00000100
00001000
00000010
00000001
00000010
00001000
00000100
00000010
,
00000100
00001000
00010000
01000000
00100000
10000000
10010000
00000000
,
10000000
00100000
10000000
00100000
10000000
00000000
01000000
00000000
00010000
00000000
01000000
00000000
10000000
00000000
00100000
00000000
,
00010000
00001000
00000100
00000001
00000010
00000100
00001000
00000001
,
00001001
00000000
00001000
00000010
00010000
00001000
01000000
00010000
,
10000000
01000000
00010000
00001000
00000010
00000001
00000100
00001000
,
00001001
00000000
00000001
00000010
00001000
00010000
01000000
10000000
,
00100000
00010000
00001000
00000100
00000001
00000010
00001000
00000010
,
00001001
00000000
00000010
00010000
00001000
01000000
00010000
10000000
,
01000000
00100000
00010000
00001000
00000100
00000010
00000001
00000000
,
00001000
00000000
00000001
00000100
00000001
00000000
00000100
00000000
00000220
00000000
00000000
00000000
00000000
00000000
00000000
00000000
,
00000330
00000000
00001000
00010000
02020000
00000000
00000000
00000000
,
03030000
00000000
10000000
00100000
20020000
00000000
00000000
00000000
,
30030000
00000000
01000000
00010000
00202000
00000000
00000000
00000000
,
00303000
00000000
00001000
00010000
00010100
00000000
00001000
00000000
,
00001001
00000000
00000010
00001000
00011000
00000000
01000000
00000000
,
10010000
00000000
00100000
10000000
10100000
00000000
01000000
00000000
,
00011000
00000000
00000010
00001000
00000001
00000100
00000010
00000000
,
00001000
00000100
00001000
00000100
00001000
00000100
00010000
00000000
00001000
00010000
01000000
00010000
00001000
00100000
01000000
00100000
,
00001000
01000000
00010000
00100000
01000000
10000000
00100000
00000000
01000000
00010000
01000000
10000000
01000000
00010000
00100000
10000000
,
00100000
00010000
01000000
00001000
00010000
00000100
00001000
00000000
00000001
00000010
00001000
00000010
00000001
00000100
00001000
00000100
,
00000001
00000010
00001000
00010000
01000000
10000000
00100000
00000000
10000000
00100000
00010000
00100000
10000000
01000000
00010000
01000000
,
10000000
01000000
00010000
00001000
00000010
00000001
00000100
00000000
00000010
00000000
00001001
00000000
00000010
00001000
00010000
00000000
,
01000000
00000000
10010000
00000000
00100000
10000000
01000000
00000000
00001000
00000000
00011000
00000000
00000100
00001000
00000000
00000001
,
00001000
00000010
00000000
00010000
00001000
00010000
00001000
01000000
00001000
01000000
00010000
00100000
01000000
10000000
00010000
00100000
,
00001000
00010000
00000100
00001000
00000001
00001000
00000010
00001000
00000100
00010000
00001000
01000000
00010000
10000000
00100000
01000000
,
00010000
00000000
01000000
00010000
01000000
00000000
00100000
00000000
01000000
00000000
00000000
00000000
00010000
00000000
00100000
00000000
,
01000000
10000000
00010000
00100000
00001000
00010000
00000010
00001000
,
00001001
00000000
00000001
00000010
00000100
00000000
00001000
00000100
,
00010000
00001000
01000000
00010000
10000000
00100000
01000000
00010000
,
10010000
00000000
01000000
10000000
00100000
00000000
01000000
00010000
,
00100000
00001000
00010000
00000010
00001000
00000001
00000100
00000010
,
00001001
00000000
00000100
00010000
00001000
00000000
00010000
00000000
,
00011000
00001000
00011000
01010000
,
00001100
00000000
00010000
00001000
00100000
00000000
00010000
01000000
,
10000000
01000000
00100000
01000000
10000000
01000000
00010000
00100000
,
10010000
00000000
00100000
00001000
00010000
00000000
00000100
00001000
,
00000100
00000001
00000100
00001000
00000010
00000100
00000001
00000010
,
00001001
00000000
00001000
00000010
00010000
00000000
00001000
01000000
,
00010000
00100000
01000000
10000000
01000000
00100000
00010000
01000000
,
01001000
00000000
00001000
00010000
00000100
00000000
00001000
00000001
,
00001000
00000001
00000100
00000001
00000010
00001000
00010000
01000000
,
10000000
00100000
00010000
00001000
00022000
00000000
00030000
00000000
,
10000000
00003000
00001000
00010000
00022000
00000000
00003000
00000000
,
00000001
00030000
00010000
00001000
00022000
00000000
00030000
00000000
,
10000000
00003000
00001000
00010000
00022000
00000000
00003000
00000000
,
00000001
00000000
00030000
00000000
00010000
00000000
00001000
00000000
01001000
00000000
00000000
00000000
00000000
10000000
00000000
00000000
,
01010000
00000000
00000000
00000000
00100000
00000000
00001000
00000000
00011000
00000000
00000000
00000000
00000000
00000100
00000010
00000000
,
00001001
00000000
00000010
00010000
00011000
00000000
00000000
01000000
,
10000000
00000000
00000000
00000000
01000000
00000000
00001000
00000000
00011000
00000000
00000000
00000000
00000000
00001000
00000000
00010000
,
00000100
00001000
00000100
00001000
00000001
00000000
00000000
00000000
00000000
00000000
00000000
00000000
00000000
00000000
00000000
00000000
;
