#TITLE:Power Attack;
#SUBTITLE:;
#ARTIST:EBIMAYO;
#TITLETRANSLIT:;
#SUBTITLETRANSLIT:;
#ARTISTTRANSLIT:;
#GENRE:Power Stomp;
#CREDIT:;
#BANNER:;
#BACKGROUND:;
#LYRICSPATH:;
#CDTITLE:;
#MUSIC:[Round B] - Power Attack.ogg;
#OFFSET:1.050567;
#SAMPLESTART:85.596085;
#SAMPLELENGTH:10.666664;
#SELECTABLE:YES;
#BPMS:0.000000=180.000000
;
#STOPS:
;
#BGCHANGES:4.000=Power Attack.avi=1.000=0=0=1=====,
99999=-nosongbg-=1.000=0=0=0 // don't automatically add -songbackground-
;
#KEYSOUNDS:;
#ATTACKS:;

//---------------dance-single - ----------------
#NOTES:
     dance-single:
     :
     Challenge:
     10:
     0.893082,1.000787,0.420338,0.282773,0.622865,818.000000,763.000000,55.000000,37.000000,0.000000,0.000000,0.893082,1.000787,0.420338,0.282773,0.622865,818.000000,763.000000,55.000000,37.000000,0.000000,0.000000:
// measure 0
0000
0000
0000
0000
,  // measure 1
0000
0000
0000
0000
,  // measure 2
0000
0000
0000
0000
,  // measure 3
0000
0000
0000
0000
,  // measure 4
0000
0000
0000
0000
,  // measure 5
1000
1000
1000
0001
1000
0010
1000
0100
,  // measure 6
0010
0001
0100
0100
0100
0001
0010
1000
,  // measure 7
0010
0010
0010
0001
0100
0010
1000
0100
,  // measure 8
1000
0001
1000
0001
1000
0001
1000
0001
1000
0001
1000
0001
1000
0001
1000
0001
,  // measure 9
0100
0110
0110
0000
0001
0010
0100
1000
,  // measure 10
0001
0010
0001
0001
0001
1000
0010
1000
,  // measure 11
0100
0100
0100
0010
0001
1000
0010
0100
,  // measure 12
0002
0000
0010
0000
1000
1000
1003
0000
,  // measure 13
0001
0001
0001
0010
0001
1000
0100
0010
,  // measure 14
0100
1000
0100
0100
0100
0010
0001
1000
,  // measure 15
0010
0010
0010
0001
0010
1000
0001
0010
,  // measure 16
0200
0000
1000
0000
1300
0100
0010
0001
,  // measure 17
1000
0000
0010
0000
1000
0100
1000
0001
0000
0000
0010
0000
0100
0000
1000
0000
,  // measure 18
0001
0000
0010
0000
0001
0100
0001
1000
0000
0000
0010
0000
0100
0000
0001
0000
,  // measure 19
0010
0000
0100
0000
0010
0001
0010
0100
0000
0000
1000
0000
0010
0000
0100
0000
,  // measure 20
0001
0010
0100
1000
0100
0010
0001
1000
,  // measure 21
0001
0000
0100
0000
0010
1000
0010
0100
0000
0000
0001
0000
1000
0000
0100
0000
,  // measure 22
0010
0000
0100
0000
0010
0001
0010
0100
0000
0000
0010
0000
0001
0000
0100
0000
,  // measure 23
0010
0000
1000
0000
0100
0010
0100
1000
0000
0000
0010
0000
0100
0000
0001
0000
,  // measure 24
1000
0000
1000
0000
0010
0000
0000
0100
0001
0100
0001
0000
1000
0000
0100
1000
,  // measure 25
0001
0000
0100
0000
0010
1000
0001
1000
0000
0000
0011
0000
0010
0000
0100
0000
,  // measure 26
1000
0000
0100
0000
0010
0001
1000
0001
0000
0000
0101
0000
0010
0000
1000
0000
,  // measure 27
0100
0000
0010
0000
0100
1000
0001
1000
0000
0000
0101
0000
0100
0000
0010
0000
,  // measure 28
1000
0100
0010
0001
0010
0100
1000
0001
,  // measure 29
0100
0000
0010
0000
1000
0100
1000
0001
0000
0000
0011
0000
0100
0000
0010
0000
,  // measure 30
0001
0000
0010
0000
0001
0100
0001
1000
0000
0000
1010
0000
0100
0000
0010
0000
,  // measure 31
1000
0000
0100
0000
0010
0100
1000
0001
0000
0000
0011
0000
0100
0000
0010
0000
,  // measure 32
0001
0100
0001
0000
0100
0010
0100
0000
0010
1000
0010
1000
0001
1000
0001
1000
,  // measure 33
0200
0000
0000
0000
,  // measure 34
0320
0000
0000
0000
,  // measure 35
0032
0000
0000
0000
,  // measure 36
2003
0000
0000
0000
,  // measure 37
3020
0000
0000
0000
0030
0100
0001
1000
,  // measure 38
0020
2030
3002
0023
,  // measure 39
0230
0000
0000
0000
0300
0000
1000
0001
1000
0000
0100
0000
0010
0000
0002
0000
,  // measure 40
0000
1003
0010
0001
0010
0100
0002
0000
,  // measure 41
1003
0000
0010
0000
0110
0000
0000
0000
0000
0000
1000
0000
0001
0000
0000
1000
,  // measure 42
0010
0000
1000
0000
1100
0000
0000
0000
0000
0000
0001
0000
0010
0100
0000
0100
,  // measure 43
1000
0000
0010
0000
0101
0000
0000
0000
0000
0000
0001
0000
1000
0000
0000
0001
,  // measure 44
0010
0000
0001
0000
0101
0000
0000
0000
0000
0000
0010
0000
1000
0001
1000
0001
,  // measure 45
0010
0000
0100
0000
1001
0000
0000
0000
0000
0000
0010
0000
0101
0000
0000
0010
,  // measure 46
0001
0000
1000
0000
1100
0000
0000
0000
0000
0000
1000
0000
0001
0100
0000
0100
,  // measure 47
0010
0000
1000
0000
0110
0000
0000
0000
0000
0000
0001
0000
1000
0100
1000
0100
,  // measure 48
0020
0032
2003
3020
,  // measure 49
0130
0000
0010
0100
0001
0000
0100
0000
0010
1000
0001
0000
1000
0000
0100
1000
,  // measure 50
0001
0000
0010
0001
0100
0000
0001
0000
1000
0001
0100
0000
0010
0000
1000
0100
,  // measure 51
1000
0000
0100
0010
0001
0000
1000
0000
0001
0100
0001
0000
0010
0000
0001
0100
,  // measure 52
0010
0000
1000
0001
0010
0000
0100
0010
0100
0000
2000
0000
0000
3002
0000
0000
,  // measure 53
1003
0000
0100
1000
0001
0000
0010
0000
0100
0010
0001
0000
0100
0000
0010
1000
,  // measure 54
0010
0000
0100
0001
1000
0000
0100
0000
0010
0100
2000
0000
3010
0000
0100
0001
,  // measure 55
1000
0000
0100
0010
0001
0000
1000
0000
0010
0001
0010
0000
0100
0000
0001
1000
,  // measure 56
0100
0000
0010
0001
1000
0000
0010
1000
0001
0000
0010
0001
0200
0000
0000
0300
,  // measure 57
0110
0000
0110
0000
1001
0000
0000
1000
0100
0010
0001
0000
1000
0000
0001
0100
,  // measure 58
0001
0000
1000
0010
0100
0001
0000
0001
0010
0100
1000
0001
0000
0000
1000
0100
,  // measure 59
1000
0000
0010
1000
0001
0010
0000
0100
1000
0100
0010
0001
0000
0000
0001
0010
,  // measure 60
0001
0100
0010
1000
0100
0010
0001
1000
,  // measure 61
0010
0000
1000
0000
0010
0100
0001
1000
0000
1000
0100
0000
0010
0000
0001
0000
,  // measure 62
0100
0000
0010
0000
1000
0001
0010
0100
0000
0100
1000
0000
0010
0000
0100
0000
,  // measure 63
0001
0000
1000
0000
0001
1000
0100
0010
0000
0010
0001
0000
0100
0000
0010
0000
,  // measure 64
1000
0200
0301
0200
1300
0010
1001
0000
,  // measure 65
0001
0000
0100
0000
0010
0000
1000
0100
0010
0000
0001
0000
0100
0000
1000
0000
,  // measure 66
0100
0001
0011
0000
1100
0000
0101
0000
,  // measure 67
0120
0000
0000
0000
1030
0100
0010
0000
0001
0000
0101
0000
0000
0000
1010
0000
,  // measure 68
0001
0000
0100
0000
0010
1000
0001
0000
0010
0000
0110
0000
0000
0000
1100
0000
,  // measure 69
0001
0000
0010
0000
0100
0000
0010
0001
1000
0000
0010
0000
0001
0000
0010
0000
,  // measure 70
0100
0001
0011
0000
1100
0000
0101
0000
,  // measure 71
0210
0000
0000
0000
0301
0000
0011
0000
0000
0000
1100
0000
0001
0010
0100
1000
,  // measure 72
0020
0000
0000
0000
0130
0000
0101
0000
0000
0000
1010
0000
0001
0010
0001
0010
,  // measure 73
0100
0000
1000
0000
0010
0000
0100
0001
1000
0000
0001
0000
0010
0000
0100
0000
,  // measure 74
0001
0100
1100
0100
0110
0010
0011
0001
,  // measure 75
0201
0000
0000
0000
0310
1000
0001
0000
0010
0000
0110
0000
0010
0000
0011
0000
,  // measure 76
2001
0000
0000
0000
3100
1000
0001
0000
0010
0000
0110
0000
0001
0000
0010
0000
,  // measure 77
0200
1000
1300
0010
1010
0010
0110
0100
,  // measure 78
0101
0001
0011
0010
0110
0100
1100
1000
,  // measure 79
2001
0000
0000
0000
3010
0000
0010
0100
0001
1000
0001
1000
0001
1000
0001
1000
,  // measure 80
0200
0000
0000
0000
0001
0000
0000
0000
1000
0000
0000
0000
0310
0001
1000
0010
,  // measure 81
0100
0000
1000
0000
0100
0001
0100
0010
0000
1000
0001
0000
0010
0000
0100
0000
,  // measure 82
0001
0000
0100
0000
1000
0010
1000
0001
0000
0100
0001
0000
1000
0000
0010
0000
,  // measure 83
0100
0000
1000
0000
0100
0010
0100
0001
0000
1000
0001
0000
0010
0000
0100
0000
,  // measure 84
2000
0001
0001
3001
,  // measure 85
1000
0000
0001
0000
0010
0001
0010
0100
0000
1000
0010
0000
0100
0000
0001
0000
,  // measure 86
1000
0000
0010
0000
0100
1000
0100
0010
0000
0100
0001
0000
0010
0000
0100
0000
,  // measure 87
1000
0000
0001
0000
1000
0100
0010
0100
0000
0001
0100
0000
0010
0000
0001
0000
,  // measure 88
0200
0320
2030
3001
,  // measure 89
0101
0000
0101
0000
0010
1000
0100
0010
0000
0001
0010
0000
0100
0000
1000
0000
,  // measure 90
0001
0000
0100
0000
0010
1000
0100
0010
0000
0100
0001
0000
0100
0000
0010
0000
,  // measure 91
0001
0000
1000
0000
0001
0100
0010
1000
0000
0010
0100
0000
1000
0000
0100
0000
,  // measure 92
0002
0010
0100
0103
,  // measure 93
0110
0000
0110
0000
1000
0100
0010
0001
0000
1000
0001
0000
0100
0000
0010
0000
,  // measure 94
1000
0000
0001
0000
0010
0100
1000
0010
0000
0001
0010
0000
0100
0000
0001
0000
,  // measure 95
0010
0000
0100
0000
0001
0100
1000
0100
0000
0010
0001
0000
0100
0000
0010
0000
,  // measure 96
1000
0010
1000
0010
1000
0001
1000
0001
0010
0001
0010
0001
0010
0100
0010
0100
,  // measure 97
1000
0000
0000
0000
;

//---------------dance-single - ----------------
#NOTES:
     dance-single:
     :
     Edit:
     10:
     0.682367,0.806261,0.206348,0.038213,0.676362,625.000000,598.000000,27.000000,5.000000,0.000000,0.000000,0.682367,0.806261,0.206348,0.038213,0.676362,625.000000,598.000000,27.000000,5.000000,0.000000,0.000000:
0000
0000
0000
0000
,
0000
0000
0000
0000
,
0000
0000
0000
0000
,
0000
0000
0000
0000
,
0000
0000
0000
0000
,
1000
1000
1000
0001
1000
0010
1000
0100
,
0010
0001
0100
0100
0100
0001
0010
1000
,
0010
0010
0010
0001
0100
0010
1000
0100
,
1000
0001
1000
0001
1000
0001
1000
0001
1000
0001
1000
0001
1000
0001
1000
0001
,
0100
0110
0110
0000
0001
0010
0100
1000
,
0001
0010
0001
0001
0001
1000
0010
1000
,
0100
0100
0100
0010
0001
1000
0010
0100
,
0002
0000
0010
0000
1000
1000
1003
0000
,
0001
0001
0001
0010
0001
1000
0100
0010
,
0100
1000
0100
0100
0100
0010
0001
1000
,
0010
0010
0010
0001
0010
1000
0001
0010
,
0200
0000
1000
0000
1300
0100
0010
0001
,
1000
0000
0010
0000
1000
0100
1000
0001
0000
0000
0010
0000
0100
0000
1000
0000
,
0001
0000
0010
0000
0001
0100
0001
1000
0000
0000
0010
0000
0100
0000
0001
0000
,
0010
0000
0100
0000
0010
0001
0010
0100
0000
0000
1000
0000
0010
0000
0100
0000
,
0001
0010
0100
1000
0100
0010
0001
1000
,
0001
0000
0100
0000
0010
1000
0010
0100
0000
0000
0001
0000
1000
0000
0100
0000
,
0010
0000
0100
0000
0010
0001
0010
0100
0000
0000
0010
0000
0001
0000
0100
0000
,
0010
0000
1000
0000
0100
0010
0100
1000
0000
0000
0010
0000
0100
0000
0001
0000
,
1000
0000
1000
0000
0010
0000
0000
0100
0001
0100
0001
0000
1000
0000
0100
1000
,
0001
0000
0100
0000
0010
1000
0001
1000
0000
0000
0011
0000
0010
0000
0100
0000
,
1000
0000
0100
0000
0010
0001
1000
0001
0000
0000
0101
0000
0010
0000
1000
0000
,
0100
0000
0010
0000
0100
1000
0001
1000
0000
0000
0101
0000
0100
0000
0010
0000
,
1000
0100
0010
0001
0010
0100
1000
0001
,
0100
0000
0010
0000
1000
0100
1000
0001
0000
0000
0011
0000
0100
0000
0010
0000
,
0001
0000
0010
0000
0001
0100
0001
1000
0000
0000
1010
0000
0100
0000
0010
0000
,
1000
0000
0100
0000
0010
0100
1000
0001
0000
0000
0011
0000
0100
0000
0010
0000
,
0001
0010
0100
1000
0001
0010
0100
1000
0001
0100
0010
1000
0001
0100
0010
1000
,
0002
0000
0000
0000
0000
0000
0000
0000
0013
0000
0100
0001
0100
0001
0100
0000
,
0010
1000
0010
1000
0100
0000
0100
1000
0001
0010
0001
0000
0010
0001
0100
0010
,
0100
0000
0000
0000
0000
0000
0000
0000
0010
0000
1000
0001
1000
0001
1000
0000
,
0100
1000
0010
0100
0010
0000
0100
0001
0010
0100
0010
0000
0100
1000
0001
0010
,
0100
0000
0000
0000
0000
0000
0000
0000
0010
0000
0001
0100
0001
0100
0001
0000
,
1000
0010
1000
0010
0100
0000
0010
1000
0010
1000
0100
0000
0010
0001
0010
0001
,
1000
0000
0000
0000
1010
0000
0000
0000
0110
0000
0001
0100
0001
0100
0010
0000
,
1000
0100
1000
0001
0100
0000
0001
0010
0100
0000
0110
0000
1000
0100
0010
0001
,
1000
0000
0010
0000
0110
0000
1000
0001
0010
0000
0100
0000
1100
0000
0001
0000
,
0100
0010
1010
0000
0101
0000
1100
0000
,
0011
0000
0000
0000
1000
0100
0010
0000
0000
0000
0011
0000
0000
0000
0101
0000
,
0120
0000
0000
0000
1030
0001
0100
0000
0000
0000
0101
0000
0000
0000
0011
0000
,
0110
0000
0100
0000
1000
0000
0001
0010
0100
0000
1000
0000
0001
0000
0100
0000
,
1000
0100
0101
0000
1010
0000
1100
0000
,
0120
0000
0000
0000
0031
0000
1000
0000
0000
0000
0010
0000
1000
0100
1000
0100
,
0010
0001
1000
0010
,
0100
0001
0100
0010
1000
0001
0010
0100
1000
0001
0100
0001
0010
0001
1000
0001
,
0100
0001
0100
0001
0010
0100
1000
0001
0100
0010
1000
0001
1000
0010
0100
0001
,
1000
0100
1000
0100
0010
0001
0010
0001
0100
0010
0100
0001
1000
0010
1000
0001
,
0100
0001
1000
0010
0100
0010
1000
0001
0010
0100
0010
0001
0010
0001
1000
0001
,
0100
0001
0100
0010
1000
0010
1000
0001
0100
0001
0010
0100
0010
0001
0010
0100
,
1000
0001
1000
0010
0100
0001
0010
0001
0100
0010
1000
0001
0100
0001
1000
0001
,
0010
0001
0100
0001
1000
0010
1000
0100
1000
0001
0010
0100
0010
0001
1000
0100
,
1000
0000
0001
0100
0010
0000
1000
0100
0010
0000
0001
1000
0001
0000
0000
0000
,
0001
0010
0100
0010
0001
0100
0001
1000
0010
0100
0001
1000
0001
0010
0100
1000
,
0001
1000
0001
0100
0010
1000
0001
1000
0100
0010
0001
0100
0010
1000
0001
1000
,
0001
0010
0100
0010
0001
0100
0010
0100
0001
1000
0001
1000
0100
0010
0001
1000
,
0001
0010
0100
1000
0010
0100
0001
1000
,
0001
0000
0100
0000
0010
1000
0010
1000
0000
0001
0100
0000
0001
0000
1000
0000
,
0010
0000
0100
0000
0001
0010
0001
0010
0000
0100
1000
0000
0001
0000
0100
0000
,
0010
1000
0010
1000
0001
1000
0001
1000
0001
0010
0001
0010
0100
0010
0100
0010
;

//---------------dance-single - ----------------
#NOTES:
     dance-single:
     :
     Hard:
     9:
     0.668174,0.704258,0.152850,0.267488,0.000000,612.000000,592.000000,20.000000,35.000000,0.000000,0.000000,0.668174,0.704258,0.152850,0.267488,0.000000,612.000000,592.000000,20.000000,35.000000,0.000000,0.000000:
// measure 0
0000
0000
0000
0000
,  // measure 1
0000
0000
0000
0000
,  // measure 2
0000
0000
0000
0000
,  // measure 3
0000
0000
0000
0000
,  // measure 4
0000
0000
0000
0000
,  // measure 5
0001
0100
0010
0000
1000
0000
0100
0000
,  // measure 6
1000
0000
0001
0010
0100
0000
1000
0000
,  // measure 7
0010
0100
0001
0000
1000
0000
0100
0000
,  // measure 8
0020
0100
0100
0130
,  // measure 9
1001
1001
0110
0000
1000
0000
0001
0000
,  // measure 10
0100
0000
0010
1000
0100
0000
0001
0000
,  // measure 11
0100
0010
0001
0000
0100
0000
0010
0000
,  // measure 12
2000
0100
0100
3100
,  // measure 13
0010
0001
0100
0000
1000
0000
0001
0000
,  // measure 14
0010
0000
1000
0100
0001
0000
1000
0000
,  // measure 15
0010
0001
0100
0000
0010
0000
0001
0000
,  // measure 16
0020
0000
0100
0000
0130
0001
0010
0100
,  // measure 17
1000
0100
0010
0001
0100
0010
0100
0010
,  // measure 18
1000
0001
0010
0100
1000
0100
1000
0100
,  // measure 19
1000
0001
0100
0010
0100
0001
0100
0001
,  // measure 20
0010
0100
1000
0100
0010
0001
1000
0001
,  // measure 21
0010
1000
0010
0001
0010
0100
0010
0100
,  // measure 22
1000
0100
0001
0100
1000
0010
1000
0010
,  // measure 23
0100
1000
0100
0001
0010
0100
0010
0100
,  // measure 24
2000
3020
0230
0302
,  // measure 25
1003
0001
0010
0100
0010
0001
1000
0001
,  // measure 26
0100
0010
0100
1000
0100
0010
0100
0001
,  // measure 27
1000
0010
0001
0010
0100
0001
1000
0001
,  // measure 28
0010
0100
1000
0001
0100
0010
1000
0001
,  // measure 29
0010
0001
0100
0001
1000
0010
1000
0010
,  // measure 30
0100
0001
1000
0001
0010
0100
0010
0100
,  // measure 31
1000
0100
0010
0001
1000
0001
1000
0001
,  // measure 32
0100
0010
1000
0100
0010
0001
0100
0010
,  // measure 33
2000
0000
0000
0000
,  // measure 34
3200
0000
0000
0000
,  // measure 35
0320
0000
0000
0000
,  // measure 36
0032
0000
0000
0000
,  // measure 37
2003
0000
0000
0000
3000
0001
0100
0010
,  // measure 38
1000
0100
0010
0001
,  // measure 39
2000
0000
3000
0001
0100
0010
1000
0001
,  // measure 40
0000
1000
0100
0010
0001
1000
0200
0000
,  // measure 41
1300
0010
0100
0000
0010
1000
0100
0000
,  // measure 42
1000
0001
0010
0000
1100
0000
0101
0000
,  // measure 43
0120
0000
1030
0100
0000
0010
0000
0010
,  // measure 44
0002
0000
0103
0010
0000
0100
0000
0100
,  // measure 45
0010
1000
0100
0000
0010
0001
1000
0000
,  // measure 46
0001
0100
0010
0000
1010
0000
0011
0000
,  // measure 47
0210
0000
1300
0100
0000
0010
0001
0100
,  // measure 48
0010
0010
0010
0010
,  // measure 49
1000
0100
0010
0100
1000
0001
0010
0100
,  // measure 50
0010
0001
1000
0100
0010
0001
1000
0100
,  // measure 51
0010
0100
1000
0001
0010
0100
1000
0001
,  // measure 52
0010
0100
0010
0100
1000
0001
0000
1000
,  // measure 53
0001
0100
0010
0100
0001
1000
0010
0100
,  // measure 54
0010
1000
0001
0100
0010
1000
0001
0100
,  // measure 55
0010
1000
0010
0100
0001
1000
0010
0100
,  // measure 56
0001
0010
1000
0001
0100
1000
0002
0003
,  // measure 57
1000
0100
0010
0001
0100
0010
0001
0010
,  // measure 58
1000
0001
0010
1000
0001
0100
0010
0001
,  // measure 59
0100
0010
0001
1000
0100
0001
0100
1000
,  // measure 60
0001
0010
0100
0010
1000
0010
0100
0001
,  // measure 61
1000
0100
0010
0001
0100
0010
1000
0100
,  // measure 62
0001
0100
1000
0010
0001
1000
0100
0001
,  // measure 63
1000
0100
0010
0001
1000
0100
0010
0001
,  // measure 64
0100
1000
0100
0001
0010
0100
1001
0000
,  // measure 65
1000
0100
0010
0001
0100
0010
1000
0001
,  // measure 66
0100
1000
0200
0000
0302
0000
0023
0000
,  // measure 67
0230
0000
1300
0001
0000
0010
0000
0001
,  // measure 68
0200
0000
0310
1000
0000
0001
0000
1000
,  // measure 69
0100
0010
0001
0100
0010
1000
0001
0010
,  // measure 70
1000
0010
0002
0000
0203
0000
0302
0000
,  // measure 71
0023
0000
0130
1000
0000
0010
1000
0100
,  // measure 72
0020
0000
0031
0100
0000
0001
1000
0100
,  // measure 73
0010
0001
1000
0001
0100
0010
1000
0100
,  // measure 74
0010
0001
1001
0000
0110
0000
1001
0000
,  // measure 75
0010
0100
1000
0001
0000
0100
0010
1000
,  // measure 76
0100
0010
0001
1000
0000
0001
0010
0100
,  // measure 77
1000
0010
1000
0010
0100
0001
1000
0001
,  // measure 78
0010
0100
1000
0100
0010
0001
1000
0001
,  // measure 79
0200
0000
0301
0100
0010
0100
0010
0100
,  // measure 80
0002
0023
0230
2300
,  // measure 81
3001
0100
1000
0100
0001
1000
0001
1000
,  // measure 82
0010
1000
0100
0001
0100
1000
0100
1000
,  // measure 83
0001
0010
1000
0010
0001
1000
0001
1000
,  // measure 84
0020
0100
0100
0100
,  // measure 85
1030
0100
0001
0100
1000
0001
1000
0001
,  // measure 86
0100
0001
0010
1000
0010
0001
0010
0001
,  // measure 87
1000
0010
0001
0010
1000
0001
1000
0001
,  // measure 88
0100
0010
1000
0100
0010
0001
0100
0010
,  // measure 89
1000
0010
1010
0000
0001
0010
0011
0000
,  // measure 90
1000
0100
1100
1000
0001
0000
0101
0001
,  // measure 91
1000
0010
0110
0000
0001
0000
0110
0100
,  // measure 92
0020
0100
0100
0130
,  // measure 93
1001
0001
0100
0001
0010
0100
1000
0010
,  // measure 94
0100
1000
0100
0001
0010
0100
1000
0001
,  // measure 95
1000
1000
0010
0001
0010
0100
1000
0001
,  // measure 96
0010
1000
0100
0001
0100
0010
0001
1000
,  // measure 97
0001
0000
0000
0000
;

//---------------dance-single - ----------------
#NOTES:
     dance-single:
     :
     Medium:
     7:
     0.546986,0.667191,0.496763,0.298058,0.000000,501.000000,436.000000,65.000000,39.000000,0.000000,0.000000,0.546986,0.667191,0.496763,0.298058,0.000000,501.000000,436.000000,65.000000,39.000000,0.000000,0.000000:
// measure 0
0000
0000
0000
0000
,  // measure 1
0000
0000
0000
0000
,  // measure 2
0000
0000
0000
0000
,  // measure 3
0000
0000
0000
0000
,  // measure 4
0000
0000
0000
0000
,  // measure 5
1000
0100
0010
0000
0001
0000
1000
0000
,  // measure 6
0010
0000
0100
0001
0010
0000
0100
0000
,  // measure 7
1000
0001
0010
0000
0100
0000
1000
0000
,  // measure 8
0002
1000
1000
1003
,  // measure 9
0001
0100
0010
0000
1000
0000
0001
0000
,  // measure 10
0010
0000
0100
1000
0010
0000
0100
0000
,  // measure 11
0001
1000
0100
0000
0010
0000
0001
0000
,  // measure 12
2000
0001
0001
3001
,  // measure 13
1000
0010
0100
0000
0001
0000
0010
0000
,  // measure 14
0100
0000
0010
0001
1000
0000
0001
0000
,  // measure 15
0100
0010
1000
0000
0001
0000
0010
0000
,  // measure 16
0200
0000
0010
0000
0310
0001
1000
0000
,  // measure 17
0010
1000
0000
0001
0000
1000
0000
0001
,  // measure 18
0000
0010
0000
0110
0000
0001
1000
0010
,  // measure 19
0000
0100
0000
0001
0000
1000
0000
0001
,  // measure 20
0010
0000
0001
0100
0010
0000
1000
0100
,  // measure 21
0010
0001
0000
1000
0000
0001
0000
0100
,  // measure 22
0000
0010
0000
0110
0000
1000
0001
0100
,  // measure 23
0000
0010
0000
1000
0000
0100
0000
0010
,  // measure 24
0001
0000
0101
0000
1000
0001
0100
0000
,  // measure 25
0010
1000
1010
0000
0010
0000
0101
0000
,  // measure 26
0001
0000
1100
0000
0001
0000
0011
0001
,  // measure 27
1000
0110
1000
0101
,  // measure 28
1000
0000
0011
0010
0100
0000
1100
1000
,  // measure 29
0001
0101
1001
0101
,  // measure 30
0110
1010
1001
1010
,  // measure 31
1100
0110
0011
1001
,  // measure 32
1000
0100
0010
0001
1000
0100
0010
0001
,  // measure 33
0200
0000
0000
0000
,  // measure 34
0320
0000
0000
0000
,  // measure 35
2030
0000
0000
0000
,  // measure 36
3002
0000
0000
0000
,  // measure 37
0023
0000
0000
0030
0000
0001
0010
0100
,  // measure 38
1000
0010
0100
0001
,  // measure 39
2000
0000
0000
0000
3001
0100
0010
1000
,  // measure 40
0000
0001
0010
0000
0100
0000
0220
0330
,  // measure 41
1000
0000
0100
0000
0000
1000
0001
0000
,  // measure 42
0010
0000
0011
0000
0000
0001
1000
0000
,  // measure 43
0010
0000
0110
0000
0000
1000
0001
0000
,  // measure 44
0010
0000
0110
0000
1000
0100
0010
0000
,  // measure 45
0001
0000
1001
0000
0000
0010
0100
0000
,  // measure 46
0010
0000
1001
0000
0000
1000
0100
0000
,  // measure 47
0010
0000
0011
0000
0000
1000
0001
0000
,  // measure 48
0200
0320
2030
3002
,  // measure 49
1003
0100
1000
0000
0001
0000
0010
0000
,  // measure 50
0100
1000
0100
0000
1000
0000
0010
0000
,  // measure 51
0100
0001
1000
0000
0001
0000
0010
0000
,  // measure 52
0100
1000
0100
0000
0010
0001
0010
0000
,  // measure 53
0001
1000
0010
0000
0100
0000
0001
0000
,  // measure 54
1000
0001
0010
0000
0100
0000
1000
0000
,  // measure 55
0001
1000
0100
0000
0001
0000
0100
0000
,  // measure 56
0010
0001
0100
0010
1000
0100
0020
0030
,  // measure 57
0001
0001
0001
0000
0011
0000
0110
0000
,  // measure 58
1001
0101
1100
0101
,  // measure 59
0110
1010
0011
0110
,  // measure 60
1001
0000
1000
0100
1000
0000
1000
0100
,  // measure 61
0010
0001
0010
0000
0001
0100
0001
0000
,  // measure 62
0100
0010
0100
0000
0010
1000
0010
0000
,  // measure 63
1000
0100
1000
0100
0010
0001
0010
0000
,  // measure 64
0100
0000
0100
0000
0100
0010
1001
0000
,  // measure 65
0001
0100
0001
0100
0010
1000
0001
0000
,  // measure 66
1000
0001
0020
0000
0230
0000
2300
0000
,  // measure 67
3002
0000
1003
0001
0000
0100
0000
0100
,  // measure 68
0020
0000
1030
0001
0000
0010
0000
0010
,  // measure 69
0100
1000
0100
1000
0001
0100
0010
0000
,  // measure 70
0010
0100
0020
0000
2030
0000
3002
0000
,  // measure 71
0023
0000
0130
0010
0000
0001
1000
0100
,  // measure 72
0020
0000
0031
1000
0000
0001
0100
0000
,  // measure 73
0010
1000
0000
1100
0000
0101
0000
1100
,  // measure 74
0000
0101
0000
1100
0000
0001
1000
0010
,  // measure 75
0000
1010
0000
0011
0000
1010
0000
0011
,  // measure 76
0000
1010
0000
1100
0000
0010
0001
1000
,  // measure 77
0020
0130
0101
0110
,  // measure 78
1001
0110
0011
1100
,  // measure 79
2001
0000
0000
3100
0010
0100
0010
0100
,  // measure 80
0020
0032
2003
3020
,  // measure 81
0130
0001
1000
0000
0001
0000
0010
0000
,  // measure 82
0100
0000
1000
0100
0001
0000
0100
0000
,  // measure 83
0010
0001
1000
0000
0001
0000
0100
0000
,  // measure 84
0020
0100
0100
0130
,  // measure 85
0001
0100
0010
0000
1000
0000
0001
0000
,  // measure 86
0010
0000
0100
1000
0010
0000
0001
0000
,  // measure 87
0010
0100
0001
0000
0010
0000
0100
0000
,  // measure 88
2000
0001
0001
3001
,  // measure 89
1000
0100
0010
0000
0001
0000
0011
0000
,  // measure 90
1000
0000
1010
0010
0100
0000
0101
0000
,  // measure 91
1000
0100
1100
0000
0100
0000
0110
0000
,  // measure 92
1002
1000
1000
1003
,  // measure 93
0001
0100
0010
0000
1000
0000
0001
0000
,  // measure 94
1000
0000
0100
0010
0100
0000
0001
0000
,  // measure 95
0100
1000
0010
0000
0100
0000
0001
0000
,  // measure 96
2000
3200
0320
0032
,  // measure 97
1003
0000
0000
0000
;
