#TITLE:PIZZA PLAZA;
#SUBTITLE:;
#ARTIST:OISHII;
#TITLETRANSLIT:;
#SUBTITLETRANSLIT:;
#ARTISTTRANSLIT:;
#GENRE:Chip Pop;
#CREDIT:;
#BANNER:[Round B] - PIZZA PLAZA.png;
#BACKGROUND:[Round B] - PIZZA PLAZA-bg.png;
#LYRICSPATH:;
#CDTITLE:cdtitle.png;
#MUSIC:[Round B] - PIZZA PLAZA.ogg;
#OFFSET:-0.229917;
#SAMPLESTART:24.229918;
#SAMPLELENGTH:19.200001;
#SELECTABLE:YES;
#BPMS:0.000000=200.000000
;
#STOPS:
;
#BGCHANGES:;
#KEYSOUNDS:;
#ATTACKS:;

//---------------dance-single - ----------------
#NOTES:
     dance-single:
     10-15:
     Challenge:
     10:
     0.837015,1.020189,0.472509,0.902062,1.443299,682.000000,627.000000,55.000000,105.000000,8.000000,0.000000,0.837015,1.020189,0.472509,0.902062,1.443299,682.000000,627.000000,55.000000,105.000000,8.000000,0.000000:
// measure 0
0000
0000
0000
0000
,  // measure 1
0000
0000
0000
0000
,  // measure 2
0000
0000
0000
0000
,  // measure 3
0000
1000
0100
0010
,  // measure 4
0012
0000
0000
0003
0000
2100
0000
0000
0000
0001
0000
0000
,  // measure 5
3001
0000
0010
0001
0000
0001
1000
0000
0000
0010
0000
0000
,  // measure 6
2010
0000
0000
0000
0000
0000
3000
0000
0000
0000
0102
0000
0000
0000
0000
0000
0000
0000
1003
0000
0000
0000
0002
0003
,  // measure 7
0020
0030
0000
0000
0002
0003
0020
0030
0000
0000
0200
0000
0000
0000
0000
0000
0000
0000
0310
0000
0000
0000
0000
0000
,  // measure 8
0012
0000
0000
0103
0000
2010
0000
0000
0000
0001
0000
0000
,  // measure 9
3001
0000
0010
0001
0000
0001
0100
0000
0000
0010
0000
0000
,  // measure 10
2010
0000
0000
0000
0000
0000
3001
0000
0000
0000
0021
0000
0000
0000
0000
0000
0130
0000
1000
0000
0000
0000
0020
0030
,  // measure 11
2000
3000
0000
0000
0020
0030
2000
3000
0000
0000
0220
0330
0000
0000
0000
0000
2002
0000
0000
0000
3003
0000
0000
0000
,  // measure 12
0012
0000
0000
0003
0000
1002
0000
0000
0000
0100
0000
0000
,  // measure 13
0103
0000
0010
1000
0000
1000
0001
0000
0000
0010
0000
0000
,  // measure 14
1200
0000
0000
0000
0000
0000
0300
0000
0000
0000
0210
0000
0000
0000
0000
0000
0000
0000
1300
0000
0000
0000
0002
0003
,  // measure 15
0200
0300
0000
0000
0002
0003
0200
0300
0000
0000
0020
0000
0000
0000
0000
0000
0000
0000
1030
0000
0000
0000
0000
0000
,  // measure 16
2100
0000
0000
3010
0000
0102
0000
0000
0000
1000
0000
0000
,  // measure 17
1003
0000
0010
1000
0000
1000
0100
0000
0000
0010
0000
0000
,  // measure 18
0012
0000
0000
0000
0000
0000
1003
0000
0000
0000
1020
0000
0000
0000
0000
0000
0130
0000
0001
0000
0000
0000
2000
3000
,  // measure 19
0200
0300
0000
0000
2000
3000
0200
0300
0000
0000
0020
0030
0001
0000
1000
0000
0002
0003
2000
3000
0001
0000
1000
0000
,  // measure 20
0010
0000
1000
0100
0000
0100
0010
0000
0010
0001
0000
0200
,  // measure 21
0000
0000
0301
0100
0000
0010
1000
0000
1000
0001
0000
0001
,  // measure 22
0010
0100
0010
0001
1000
0001
0100
0010
0100
0001
1000
0001
,  // measure 23
0010
0000
0100
0010
0000
1001
0000
0000
1000
0100
0000
0010
,  // measure 24
0001
0000
0001
0100
0000
0201
0000
0000
0301
0100
0000
0010
,  // measure 25
1000
0000
1000
0100
0000
0021
0000
0000
0130
1000
0000
0001
,  // measure 26
0100
0000
0001
M010
0000
1000
0100
0000
1000
001M
0000
0001
,  // measure 27
1000
0010
1000
0010
0100
0010
0100
0001
0100
0001
1000
0001
,  // measure 28
1000
0000
1000
0100
0000
0100
1000
0000
1000
0010
0000
0002
,  // measure 29
0000
0000
0013
1000
0000
0001
0010
0000
0010
1000
0000
0010
,  // measure 30
0001
0100
0001
1000
0010
1000
0001
0010
0001
1000
0100
1000
,  // measure 31
0010
0000
0100
0010
0000
1001
0000
0000
0001
0100
0000
0010
,  // measure 32
1000
0000
1000
0100
0000
0210
0000
0000
1300
0100
0000
0010
,  // measure 33
0001
0000
0001
0100
0000
1020
0000
0000
0130
0001
0000
1000
,  // measure 34
0100
0000
1000
001M
0000
0001
0100
0000
0001
M010
0000
1000
,  // measure 35
0100
0010
0100
0010
0001
0010
0001
1000
0001
1000
0010
1000
,  // measure 36
0002
0000
0000
0003
0000
0001
1000
0000
0000
0000
0000
1000
,  // measure 37
0001
0000
0000
0000
0000
0001
1000
0000
0010
0000
0000
1000
,  // measure 38
0001
0000
0000
0000
0000
0001
1000
0000
0000
0000
0000
1000
,  // measure 39
0001
0000
0000
0000
0000
0001
0010
0000
0100
1000
0000
0000
,  // measure 40
2010
0000
0000
3000
0000
0102
0000
0000
0000
1000
0000
0000
,  // measure 41
1003
0000
0010
1000
0000
1000
0001
0000
0000
0010
0000
0000
,  // measure 42
0012
0000
0000
0000
0000
0000
0003
0000
0000
0000
2100
0000
0000
0000
0000
0000
0000
0000
3001
0000
0000
0000
2000
3000
,  // measure 43
0020
0030
0000
0000
2000
3000
0020
0030
0000
0000
0200
0000
0000
0000
0000
0000
0000
0000
0310
0000
0000
0000
0000
0000
,  // measure 44
2010
0000
0000
3100
0000
0012
0000
0000
0000
1000
0000
0000
,  // measure 45
1003
0000
0010
1000
0000
1000
0100
0000
0000
0010
0000
0000
,  // measure 46
0012
0000
0000
0000
0000
0000
1003
0000
0000
0000
1020
0000
0000
0000
0000
0000
0130
0000
0001
0000
0000
0000
0020
0030
,  // measure 47
0002
0003
0000
0000
0020
0030
0002
0003
0000
0000
0220
0330
0000
0000
0000
0000
2002
0000
0000
0000
3003
0000
0000
0000
,  // measure 48
2010
0000
0000
3000
0000
2001
0000
0000
0000
0100
0000
0000
,  // measure 49
3100
0000
0010
0001
0000
0001
1000
0000
0000
0010
0000
0000
,  // measure 50
0201
0000
0000
0000
0000
0000
0300
0000
0000
0000
0210
0000
0000
0000
0000
0000
0000
0000
0301
0000
0000
0000
2000
3000
,  // measure 51
0200
0300
0000
0000
2000
3000
0200
0300
0000
0000
0020
0000
0000
0000
0000
0000
0000
0000
0031
0000
0000
0000
0000
0000
,  // measure 52
0102
0000
0000
0013
0000
2100
0000
0000
0000
0001
0000
0000
,  // measure 53
3001
0000
0010
0001
0000
0001
0100
0000
0000
0010
0000
0000
,  // measure 54
2010
0000
0000
0000
0000
0000
3001
0000
0000
0000
0021
0000
0000
0000
0000
0000
0130
0000
1000
0000
0000
0000
0002
0003
,  // measure 55
0200
0300
0000
0000
0002
0003
0200
0300
0000
0000
0020
0030
1000
0000
0001
0000
1000
0000
0100
0000
0010
0000
0001
0000
,  // measure 56
2000
0000
0000
3010
0000
0200
0000
0000
0310
0100
0001
1000
,  // measure 57
0100
0000
0010
0001
0000
0200
0000
0000
0310
1000
0001
1000
,  // measure 58
0100
0000
0001
0000
0100
0000
1000
0000
1000
0001
0100
0010
,  // measure 59
1000
0000
0001
0010
0000
0021
0000
0000
1030
0010
0000
0010
,  // measure 60
0001
0000
0001
0100
0010
1000
0000
1000
0001
0100
0010
1000
,  // measure 61
0100
0000
0100
0010
0001
1000
0000
1000
0100
0010
0001
1000
,  // measure 62
0010
0100
0001
0010
0100
1000
0001
0100
0010
1000
0100
0010
,  // measure 63
0001
1000
0001
1000
0100
0010
0001
0100
0010
0100
0010
0100
,  // measure 64
0002
0000
0000
0100
0000
0000
0103
0000
0010
1000
0000
2000
,  // measure 65
0100
0000
0000
3002
0000
0000
0203
0000
0310
1000
0001
0100
,  // measure 66
0001
1000
0100
0010
0100
1000
0002
0000
0103
0001
1000
0001
,  // measure 67
0100
0000
0001
1000
0000
1200
0000
0000
0310
0001
0000
0001
,  // measure 68
1000
0001
0100
0001
1000
0100
1000
0001
0100
0001
1000
0010
,  // measure 69
1000
0100
0010
0001
0100
0010
1000
0100
0010
0001
0100
0010
,  // measure 70
1000
0000
0000
0110
0000
0000
0001
0000
0110
0000
0000
1000
,  // measure 71
2001
0010
0100
3010
,  // measure 72
1001
0000
0001
0100
0000
0100
0010
0000
0010
1000
0000
0200
,  // measure 73
0000
0000
1300
0100
0000
0010
0001
0000
0001
1000
0000
1000
,  // measure 74
0010
0100
0010
1000
0001
1000
0100
0010
0100
1000
0001
1000
,  // measure 75
0010
0000
0100
0010
0000
1001
0000
0000
0001
0100
0000
0010
,  // measure 76
1000
0000
1000
0100
0000
1200
0000
0000
1300
0100
0000
0010
,  // measure 77
0001
0000
0001
0100
0000
1020
0000
0000
0130
0001
0000
1000
,  // measure 78
0100
0000
1000
001M
0000
0001
0100
0000
0001
M010
0000
1000
,  // measure 79
0001
0010
0001
0010
0100
0010
0100
1000
0100
1000
0001
1000
,  // measure 80
0001
0000
0001
0100
0000
0100
0001
0000
0001
0010
0000
2000
,  // measure 81
0000
0000
3010
0001
0000
1000
0010
0000
0010
0001
0000
0010
,  // measure 82
1000
0100
1000
0001
0010
0001
1000
0010
1000
0001
0100
0001
,  // measure 83
0010
0000
0100
0010
0000
1001
0000
0000
1000
0100
0000
0010
,  // measure 84
0001
0000
0001
0100
0000
0210
0000
0000
0301
0100
0000
0010
,  // measure 85
1000
0000
1000
0100
0000
0021
0000
0000
0130
1000
0000
0001
,  // measure 86
0100
0000
0001
M010
0000
1000
0100
0000
1000
001M
0000
0001
,  // measure 87
0100
0010
0100
0010
1000
0010
1000
0001
1000
0001
0010
0001
,  // measure 88
2000
0000
0000
3000
0000
1000
0001
0000
0000
0000
0000
0001
,  // measure 89
1000
0000
0000
0000
0000
1000
0001
0000
0010
0000
0000
0001
,  // measure 90
1000
0000
0000
0000
0000
1000
0001
0000
0000
0000
0000
0001
,  // measure 91
1000
0000
0000
0000
0000
1000
0010
0000
0010
0100
0000
0100
,  // measure 92
0001
0000
0000
0000
0000
0001
1000
0000
0000
0000
0000
1000
,  // measure 93
0001
0000
0000
0000
0000
0001
1000
0000
0010
0000
0000
1000
,  // measure 94
0001
0000
0000
0000
,  // measure 95
0110
0000
0000
0000
;

//---------------dance-single - ----------------
#NOTES:
     dance-single:
     09-13:
     Hard:
     9:
     0.627148,0.734536,0.292096,1.219931,0.927835,511.000000,477.000000,34.000000,142.000000,0.000000,0.000000,0.627148,0.734536,0.292096,1.219931,0.927835,511.000000,477.000000,34.000000,142.000000,0.000000,0.000000:
0000
0000
0000
0000
,
0000
0000
0000
0000
,
0000
0000
0000
0000
,
0000
1000
0100
0010
,
0012
0000
0000
0000
0000
2000
0000
0000
0000
0000
0000
0000
,
3003
0000
0001
0100
0000
0001
0100
0000
0000
0010
0000
0000
,
2010
0000
0000
0000
0000
0000
0000
0000
0000
0000
0002
0000
0000
0000
0000
0000
0000
0000
3003
0000
0000
0000
2000
3000
,
0200
0300
0000
0000
0200
0300
0020
0030
0000
0000
0200
0000
0000
0000
0000
0000
0000
0000
0300
0000
0000
0000
0000
0000
,
2100
0000
0000
3001
0000
2020
0000
0000
0000
0000
0000
0000
,
3030
0000
0010
1000
0000
0010
1000
0000
0000
0001
0000
0000
,
0020
0000
0000
0000
0000
0000
0130
0000
0000
0000
0002
0000
0000
0000
0000
0000
0103
0000
0010
0000
0000
0000
0200
0300
,
2000
3000
0000
0000
2000
3000
0002
0003
0000
0000
0200
0300
0000
0000
0000
0000
0220
0000
0000
0000
0330
0000
0000
0000
,
2010
0000
0000
0000
0000
0200
0000
0000
0000
0000
0000
0000
,
3300
0000
0001
0010
0000
0001
0010
0000
0000
0001
0000
0000
,
1002
0000
0000
0000
0000
0000
0000
0000
0000
0000
0200
0000
0000
0000
0000
0000
0000
0000
0303
0000
0000
0000
2000
3000
,
0200
0300
0000
0000
0200
0300
0020
0030
0000
0000
0200
0000
0000
0000
0000
0000
0000
0000
0300
0000
0000
0000
0000
0000
,
0012
0000
0000
1003
0000
0202
0000
0000
0000
0000
0000
0000
,
0303
0000
1000
0010
0000
1000
0010
0000
0000
1000
0000
0000
,
0200
0000
0000
0000
0000
0000
0310
0000
0000
0000
2000
0000
0000
0000
0000
0000
3010
0000
0100
0000
0000
0000
0020
0030
,
0002
0003
0000
0000
0002
0003
0200
0300
0000
0000
0020
0030
0000
0000
0000
0000
0020
0030
2000
0000
0000
0000
0000
0000
,
3001
0000
1000
0100
0000
1000
0001
0000
1000
0010
0000
2000
,
0000
0000
3001
0000
0000
1000
0010
0000
1000
0001
0000
1000
,
0200
0320
0032
2003
,
3001
0000
0100
0010
0000
0102
0000
0000
1003
0010
0000
1000
,
0001
0000
0001
1000
0000
0200
0000
0000
1300
0100
0000
0010
,
0001
0000
0001
1000
0000
0020
0000
0000
0130
0001
0000
1000
,
0010
0000
0010
1000
0000
0001
0010
0000
0010
0001
0000
1000
,
0020
0032
2003
3200
,
0301
0000
1000
0010
0000
1000
0001
0000
1000
0100
0000
0020
,
0000
0000
0031
0000
0000
0001
0010
0000
1000
0010
0000
0001
,
0200
2300
3200
0302
,
1003
0000
0010
0100
0000
2010
0000
0000
3001
0010
0000
0100
,
1000
0000
1000
0010
0000
0102
0000
0000
1003
0010
0000
0100
,
0001
0000
0001
0010
0000
1200
0000
0000
0310
0001
0000
1000
,
0010
0000
0010
1000
0000
0001
0010
0000
0010
0001
0000
0100
,
0020
2030
3002
0023
,
0032
0003
1000
0000
,
0001
0000
0000
0000
0000
0000
1000
0000
0010
0000
0000
0000
,
1000
0000
0001
0000
,
1000
0000
0001
0100
,
2010
0000
0000
0000
0000
0002
0000
0000
0000
0000
0000
0000
,
3003
0000
1000
0100
0000
1000
0100
0000
0000
0010
0000
0000
,
0012
0000
0000
0000
0000
0000
0000
0000
0000
0000
2000
0000
0000
0000
0000
0000
0000
0000
3003
0000
0000
0000
0002
0003
,
0200
0300
0000
0000
0200
0300
0020
0030
0000
0000
0200
0000
0000
0000
0000
0000
0000
0000
0300
0000
0000
0000
0000
0000
,
0102
0000
0000
1003
0000
0022
0000
0000
0000
0000
0000
0000
,
0033
0000
0010
0001
0000
0010
0001
0000
0000
1000
0000
0000
,
0020
0000
0000
0000
0000
0000
0130
0000
0000
0000
2000
0000
0000
0000
0000
0000
3100
0000
0010
0000
0000
0000
0200
0300
,
0002
0003
0000
0000
0002
0003
2000
3000
0000
0000
0200
0300
0000
0000
0000
0000
0220
0000
0000
0000
0330
0000
0000
0000
,
0012
0000
0000
0000
0000
0200
0000
0000
0000
0000
0000
0000
,
0303
0000
1000
0010
0000
1000
0010
0000
0000
1000
0000
0000
,
2001
0000
0000
0000
0000
0000
0000
0000
0000
0000
0200
0000
0000
0000
0000
0000
0000
0000
3300
0000
0000
0000
0002
0003
,
0200
0300
0000
0000
0200
0300
0020
0030
0000
0000
0200
0000
0000
0000
0000
0000
0000
0000
0300
0000
0000
0000
0000
0000
,
2010
0000
0000
3001
0000
2200
0000
0000
0000
0000
0000
0000
,
3300
0000
0001
0010
0000
0001
0010
0000
0000
0001
0000
0000
,
0200
0000
0000
0000
0000
0000
0310
0000
0000
0000
0002
0000
0000
0000
0000
0000
0013
0000
0100
0000
0000
0000
0020
0030
,
2000
3000
0000
0000
2000
3000
0200
0300
0000
0000
0020
0030
0000
0000
0000
0000
0001
0000
1000
0000
0001
0000
1000
0000
,
0001
0000
0000
1000
0000
0020
0000
0000
1030
0001
0000
0001
,
1000
0000
0001
0010
0000
0002
0000
0000
1003
0010
0000
0000
,
1000
0000
0100
0000
0010
0000
0001
0000
1000
0100
0000
0010
,
0001
0000
0001
0100
0000
2010
0000
0000
3010
1000
0000
1000
,
0100
0000
1000
0100
0000
0021
0000
0000
0130
1000
0000
1000
,
0001
0000
0001
0100
0000
1020
0000
0000
0130
0001
0000
1000
,
0100
0000
0100
0010
0000
0010
0001
0000
0001
0100
0000
0100
,
1000
0000
1000
0100
0000
0100
0001
0000
0001
0010
0000
0010
,
0200
0000
0000
1000
0000
0000
1000
0000
0310
0001
0000
0001
,
0200
0000
0000
0320
0000
0000
1030
0000
1000
0001
0000
0001
,
0010
0000
0010
0100
0000
0100
1000
0000
1000
0100
0000
0000
,
1001
0000
0001
0100
0000
1002
0000
0000
1003
0100
0000
0010
,
0001
0000
0001
0100
0000
0100
0010
0000
0010
1000
0000
1000
,
0010
0000
0010
0001
0000
0001
0010
0000
0010
1000
0000
1000
,
0100
0000
0000
1001
0000
0000
0010
0000
1001
0000
0000
0001
,
2000
0100
0001
3010
,
1000
0000
0001
0100
0000
0001
1000
0000
0001
0010
0000
0002
,
0000
0000
1003
0000
0000
0001
0010
0000
0001
1000
0000
0001
,
0200
0320
2030
3002
,
1003
0000
0100
0010
0000
2100
0000
0000
3001
0010
0000
0001
,
1000
0000
1000
0001
0000
0200
0000
0000
0301
0100
0000
0010
,
1000
0000
1000
0001
0000
0020
0000
0000
0130
1000
0000
0001
,
0010
0000
0010
0001
0000
1000
0010
0000
0010
1000
0000
0001
,
0020
2030
3002
0203
,
1300
0000
0001
0010
0000
0001
1000
0000
0001
0100
0000
0020
,
0000
0000
1030
0000
0000
1000
0010
0000
0001
0010
0000
1000
,
0200
0302
0203
2300
,
3001
0000
0010
0100
0000
0012
0000
0000
1003
0010
0000
0100
,
0001
0000
0001
0010
0000
2100
0000
0000
3001
0010
0000
0100
,
1000
0000
1000
0010
0000
0201
0000
0000
0310
1000
0000
0001
,
0010
0000
0010
0001
0000
1000
0010
0000
0010
1000
0000
0100
,
0020
0032
2003
3020
,
2030
3000
0001
0000
,
1000
0000
0000
0000
0000
0000
0001
0000
0010
0000
0000
0000
,
0001
0000
1000
0000
,
0001
0000
0100
0100
,
0001
0000
1000
0000
,
0001
0000
0000
0000
0000
0000
1000
0000
0010
0000
0000
0000
,
1000
0000
0000
0000
,
0110
0000
0000
0000
;

//---------------dance-single - ----------------
#NOTES:
     dance-single:
     06-08:
     Medium:
     6:
     0.420962,0.448883,0.283505,0.773196,0.176117,343.000000,310.000000,33.000000,90.000000,0.000000,0.000000,0.420962,0.448883,0.283505,0.773196,0.176117,343.000000,310.000000,33.000000,90.000000,0.000000,0.000000:
0000
0000
0000
0000
,
0000
0000
0000
0000
,
0000
0000
0000
0000
,
0000
1000
0100
0010
,
0012
0000
2000
3000
,
0103
0010
0100
0001
,
2000
0000
0200
0300
,
3001
0000
0000
0010
0000
0002
0000
0000
0000
0003
0000
0000
,
1020
1000
0200
0300
,
1030
0010
0100
0001
,
1002
0000
0020
0030
,
1003
0000
0000
0010
0000
0100
0000
0000
0001
0000
0000
0000
,
0022
0003
0200
0300
,
0031
0010
0100
1000
,
1002
0000
0200
0300
,
1003
0000
0000
0100
0000
2000
0000
0000
0000
3000
0000
0000
,
2010
0010
0002
0003
,
3100
0010
0100
1000
,
2001
0000
0020
0030
,
3001
0000
0000
0010
0000
0100
0000
0000
0010
0100
0000
0000
,
1000
0000
0000
0010
0000
0000
0100
0000
0000
0010
0000
2000
,
0000
0000
3001
0000
0000
1000
0100
0000
0000
0010
0000
0000
,
0002
0203
0320
2030
,
3001
0000
0000
0000
0000
0110
0000
0000
0000
0001
0000
0000
,
1000
0000
0000
1000
0000
0200
0000
0000
0000
0310
0000
0000
,
0001
0000
0000
0001
0000
0200
0000
0000
0000
0310
0000
0000
,
1000
1100
0001
0101
,
2000
3200
0320
0032
,
0103
0000
0000
1000
0000
0000
0100
0000
0000
0001
0000
0200
,
0000
0000
0310
0000
0000
1000
0001
0000
0000
0010
0000
0000
,
2000
3020
0032
0203
,
0310
0000
0000
0000
0000
1001
0000
0000
0000
1000
0000
0000
,
0001
0000
0000
0001
0000
0020
0000
0000
0000
0130
0000
0000
,
1000
0000
0000
1000
0000
0020
0000
0000
0000
0130
0000
0000
,
0001
0011
1000
1010
,
0002
0023
0032
2003
,
3020
0030
0100
0000
,
0010
0000
1000
0000
,
0010
0000
0100
0000
,
0010
0000
1000
1000
,
2010
0000
0002
0003
,
3100
0010
0100
1000
,
0002
0000
0200
0300
,
1003
0000
0000
0010
0000
2000
0000
0000
0000
3000
0000
0000
,
0021
0001
0200
0300
,
0031
0010
0100
1000
,
2001
0000
0020
0030
,
3001
0000
0000
0010
0000
0100
0000
0000
1000
0000
0000
0000
,
2020
3000
0200
0300
,
1030
0010
0100
0001
,
2001
0000
0200
0300
,
3001
0000
0000
0100
0000
0002
0000
0000
0000
0003
0000
0000
,
0012
0010
2000
3000
,
0103
0010
0100
0001
,
1002
0000
0020
0030
,
1003
0000
0000
0010
0000
0100
0000
0000
0100
0001
0000
0000
,
1000
0000
0000
0100
0000
0020
0000
0000
0000
0031
0000
0000
,
1000
0000
0000
0001
0000
0200
0000
0000
0000
0310
0000
0000
,
1000
0001
0010
0001
,
1000
0000
0000
0000
0000
0110
0000
0000
0000
0001
0000
0000
,
1000
0100
0001
0100
,
1000
0010
0001
0010
,
1000
1100
0001
0011
,
1000
0010
0100
0001
,
2000
0000
3100
0010
,
0001
0100
0010
1000
,
0001
0100
1000
0100
,
0001
0000
0000
0000
0000
1001
0000
0000
0000
0001
0000
0000
,
1000
1000
0100
0100
,
0001
0100
1000
0010
,
0210
0000
0000
0010
0000
0000
0000
0000
0010
0300
0000
0000
,
2002
0000
0000
3003
,
0001
0000
0000
0010
0000
0000
0100
0000
0000
0010
0000
0002
,
0000
0000
1003
0000
0000
0001
0100
0000
0000
0010
0000
0000
,
2000
3200
0320
0032
,
1003
0000
0000
0000
0000
0110
0000
0000
0000
1000
0000
0000
,
0001
0000
0000
0001
0000
0200
0000
0000
0000
0310
0000
0000
,
1000
0000
0000
1000
0000
0200
0000
0000
0000
0310
0000
0000
,
0001
0101
1000
1100
,
0002
0203
0320
2030
,
3100
0000
0000
0001
0000
0000
0100
0000
0000
1000
0000
0200
,
0000
0000
0310
0000
0000
0001
1000
0000
0000
0010
0000
0000
,
0002
0023
2030
3200
,
0310
0000
0000
0000
0000
1001
0000
0000
0000
0001
0000
0000
,
1000
0000
0000
1000
0000
0020
0000
0000
0000
0130
0000
0000
,
0001
0000
0000
0001
0000
0020
0000
0000
0000
0130
0000
0000
,
1000
1010
0001
0011
,
2000
3020
2030
3002
,
0023
0030
0100
0000
,
0010
0000
0001
0000
,
0010
0000
0100
0000
,
0010
0000
0001
1000
,
0010
0000
0100
0000
,
0010
0000
1000
0000
,
0010
0000
0000
0000
,
0110
0000
0000
0000
;

//---------------dance-single - ----------------
#NOTES:
     dance-single:
     04-06:
     Easy:
     4:
     0.330142,0.367268,0.103093,0.489691,0.000000,269.000000,257.000000,12.000000,57.000000,0.000000,0.000000,0.330142,0.367268,0.103093,0.489691,0.000000,269.000000,257.000000,12.000000,57.000000,0.000000,0.000000:
0000
0000
0000
0000
,
0000
0000
0000
0000
,
0000
0000
0000
0000
,
0000
1000
0100
0010
,
0002
0000
2000
0000
,
3003
0001
0100
0010
,
2000
0000
0200
3300
,
0001
0001
0002
0003
,
1000
0020
2000
0000
,
3030
0010
1000
0001
,
0020
0000
0200
0330
,
0010
0001
1000
0000
,
0020
0000
0200
0000
,
0330
0001
0100
0001
,
2000
0000
0200
3300
,
0001
0001
0002
0003
,
1000
0020
2000
0000
,
3030
1000
0010
1000
,
0200
0000
0020
0330
,
0001
1000
0010
0000
,
1000
0010
1000
0001
,
0020
0030
0200
0300
,
0010
0010
0001
0001
,
0100
0010
1000
0000
,
0001
0010
0200
0300
,
1000
0010
0200
0300
,
1001
0000
1001
0000
,
1000
0100
0010
0001
,
1000
0100
1000
0010
,
0200
0300
0020
0030
,
1000
1000
0001
0001
,
0010
0100
1000
0000
,
0001
0100
0020
0030
,
1000
0100
0020
0030
,
1001
0000
1001
0000
,
0001
0001
1000
1000
,
0010
0000
0010
0000
,
0010
0000
0100
0000
,
0010
0000
0010
0000
,
0010
0000
0100
0010
,
2000
0000
0002
0000
,
3003
1000
0100
0010
,
0002
0000
0200
0303
,
1000
1000
2000
3000
,
0001
0020
0002
0000
,
0033
0010
0001
1000
,
0020
0000
0200
0330
,
0010
1000
0001
0000
,
0020
0000
0200
0000
,
0330
1000
0100
1000
,
0002
0000
0200
0303
,
1000
1000
2000
3000
,
0001
0020
0002
0000
,
0033
0001
0010
0001
,
0200
0000
0020
0330
,
1000
0001
0010
0000
,
0001
0010
0001
0000
,
1000
0010
1000
0000
,
0001
0100
0010
1000
,
0100
0000
0011
0000
,
1000
0100
0001
0000
,
0001
0100
1000
0000
,
1010
0000
0101
0000
,
1000
0100
1000
0001
,
0200
0000
0300
0010
,
1000
0001
0020
0030
,
0100
1000
0100
1000
,
0001
0100
0010
0000
,
1000
1000
0010
0010
,
0100
0001
1000
0100
,
0020
0000
0000
0030
,
2002
0000
0000
3003
,
0001
0010
0001
1000
,
0020
0030
0200
0300
,
0010
0010
1000
1000
,
0100
0010
0001
0000
,
1000
0010
0200
0300
,
0001
0010
0200
0300
,
1001
0000
1001
0000
,
0001
0100
0010
1000
,
0001
0100
0001
0010
,
0200
0300
0020
0030
,
0001
0001
1000
1000
,
0010
0100
0001
0000
,
1000
0100
0020
0030
,
0001
0100
0020
0030
,
1001
0000
1001
0000
,
1000
1000
0001
0001
,
0010
0000
0010
0000
,
0010
0000
0100
0000
,
0010
0000
0010
0000
,
0010
0000
0001
1000
,
0010
0000
0010
0000
,
0010
0000
0100
0000
,
0010
0000
0000
0000
,
0100
0000
0000
0000
;

//---------------dance-single - ----------------
#NOTES:
     dance-single:
     02-02:
     Beginner:
     2:
     0.132548,0.204038,0.008591,0.180412,0.000000,108.000000,107.000000,1.000000,21.000000,0.000000,0.000000,0.132548,0.204038,0.008591,0.180412,0.000000,108.000000,107.000000,1.000000,21.000000,0.000000,0.000000:
0000
0000
0000
0000
,
0000
0000
0000
0000
,
0000
0000
0000
0000
,
0000
0000
0000
0000
,
0001
0000
0002
0000
,
0003
0000
0001
0000
,
1000
0000
2000
0000
,
3000
0000
0000
0000
,
0010
0000
0020
0000
,
0030
0000
1000
0000
,
0001
0000
0020
0000
,
0030
0000
0000
0000
,
0001
0000
0002
0000
,
0003
0000
0001
0000
,
1000
0000
2000
0000
,
3000
0000
0000
0000
,
0100
0000
0200
0000
,
0300
0000
1000
0000
,
0001
0000
0200
0000
,
0300
0000
0000
0000
,
0001
0000
0000
0000
,
0010
0000
0000
0000
,
0100
0000
0100
0000
,
0100
0000
0000
0000
,
1000
0000
0000
0000
,
0010
0000
0000
0000
,
1000
0000
1000
0000
,
0001
0000
1000
0000
,
0001
0000
0000
0000
,
0100
0000
0000
0000
,
0010
0000
0010
0000
,
0010
0000
0000
0000
,
1000
0000
0000
0000
,
0100
0000
0000
0000
,
0010
0000
0010
0000
,
0001
0000
1000
0000
,
0001
0000
0000
0000
,
0000
0000
0000
0000
,
0000
0000
0000
0000
,
0000
0000
0000
0000
,
1000
0000
2000
0000
,
3000
0000
1000
0000
,
0001
0000
0002
0000
,
0003
0000
0000
0000
,
0010
0000
0020
0000
,
0030
0000
0001
0000
,
1000
0000
0020
0000
,
0030
0000
0000
0000
,
1000
0000
2000
0000
,
3000
0000
1000
0000
,
0001
0000
0002
0000
,
0003
0000
0000
0000
,
0100
0000
0200
0000
,
0300
0000
0001
0000
,
1000
0000
0200
0000
,
0300
0000
0000
0000
,
1000
0000
0000
0000
,
0001
0000
0000
0000
,
0100
0000
0100
0000
,
0100
0000
0000
0000
,
0010
0000
0000
0000
,
1000
0000
0000
0000
,
0001
0000
0001
0000
,
1000
0000
0001
0000
,
0020
0000
0030
0000
,
0200
0000
0300
0000
,
0010
0000
0001
0000
,
1000
0000
0000
0000
,
0010
0000
0000
0000
,
0100
0000
0000
0000
,
0020
0000
0030
0000
,
2002
0000
3003
0000
,
1000
0000
0000
0000
,
0010
0000
0000
0000
,
0100
0000
0100
0000
,
0100
0000
0000
0000
,
0001
0000
0000
0000
,
0010
0000
0000
0000
,
0001
0000
0001
0000
,
1000
0000
0001
0000
,
1000
0000
0000
0000
,
0100
0000
0000
0000
,
0010
0000
0010
0000
,
0010
0000
0000
0000
,
0001
0000
0000
0000
,
0100
0000
0000
0000
,
0010
0000
0010
0000
,
1000
0000
0001
0000
,
1000
0000
0000
0000
,
0000
0000
0000
0000
,
0000
0000
0000
0000
,
0000
0000
0000
0000
,
0000
0000
0000
0000
,
0000
0000
0000
0000
,
0000
0000
0000
0000
,
0100
0000
0000
0000
;
