#TITLE:Numb;
#SUBTITLE:;
#ARTIST:Chester Bennington;
#TITLETRANSLIT:;
#SUBTITLETRANSLIT:;
#ARTISTTRANSLIT:;
#GENRE:;
#CREDIT:;
#BANNER:[Round B] - Numb.png;
#BACKGROUND:[Round B] - Numb-bg.png;
#LYRICSPATH:;
#CDTITLE:cdtitle.png;
#MUSIC:[Round B] - Numb.ogg;
#OFFSET:-1.580000;
#SAMPLESTART:50.388248;
#SAMPLELENGTH:16.271870;
#SELECTABLE:YES;
#BPMS:0.000000=117.995003
;
#STOPS:
;
#BGCHANGES:;
#KEYSOUNDS:;
#ATTACKS:TIME=84.925980:LEN=60.000000:MODS=*0.04 Stealth;

//---------------dance-single - ----------------
#NOTES:
     dance-single:
     C 01 X 01:
     Beginner:
     1:
     0.068039,0.106312,0.034020,0.042525,0.000000,56.000000,52.000000,4.000000,5.000000,0.000000,0.000000,0.068039,0.106312,0.034020,0.042525,0.000000,56.000000,52.000000,4.000000,5.000000,0.000000,0.000000:
// measure 0
0000
0000
0000
0000
,  // measure 1
0000
0000
0000
0000
,  // measure 2
0000
0000
0000
0000
,  // measure 3
0000
0000
0000
0000
,  // measure 4
0000
0000
0000
0000
,  // measure 5
0000
0000
0000
0000
,  // measure 6
0000
0000
0000
0000
,  // measure 7
0000
0000
0000
0000
,  // measure 8
1001
0000
0000
0000
,  // measure 9
1000
0000
0000
0000
,  // measure 10
0001
0000
0000
0000
,  // measure 11
1000
0000
0000
0000
,  // measure 12
0010
0000
0000
0000
,  // measure 13
0100
0000
0000
0000
,  // measure 14
0010
0000
0000
0000
,  // measure 15
0100
0000
0000
0000
,  // measure 16
0002
0000
0000
0000
,  // measure 17
0000
0003
0000
0000
,  // measure 18
1000
1000
0000
0000
,  // measure 19
0001
0000
0000
0000
,  // measure 20
2000
0000
0000
0000
,  // measure 21
0000
3000
0000
0000
,  // measure 22
0001
0001
0000
0000
,  // measure 23
1000
0000
0000
0000
,  // measure 24
1001
0000
0000
0000
,  // measure 25
0001
0000
0001
0000
,  // measure 26
1000
0000
0000
0000
,  // measure 27
0100
0000
0100
0000
,  // measure 28
0010
0000
0000
0000
,  // measure 29
0001
0000
0001
0000
,  // measure 30
1000
0000
0000
0000
,  // measure 31
0010
0000
0010
0000
,  // measure 32
0100
0000
0000
0000
,  // measure 33
0010
0000
0000
0000
,  // measure 34
0200
0000
0300
0000
,  // measure 35
0020
0000
0030
0000
,  // measure 36
0110
0000
0000
0000
,  // measure 37
0100
0000
0000
0000
,  // measure 38
0010
0000
0010
0000
,  // measure 39
0100
0000
0100
0000
,  // measure 40
0010
0000
0000
0000
,  // measure 41
0110
0000
0000
0000
,  // measure 42
1000
0000
0001
0000
,  // measure 43
1000
0000
0000
0000
,  // measure 44
0010
0000
0100
0000
,  // measure 45
0010
0000
0000
0000
,  // measure 46
1000
0000
0001
0000
,  // measure 47
1000
0000
0000
0000
,  // measure 48
0100
0000
0010
0000
,  // measure 49
0200
0000
0000
0000
,  // measure 50
0300
0000
0000
0000
;

//---------------dance-single - ----------------
#NOTES:
     dance-single:
     C 02 X 03:
     Easy:
     2:
     0.131219,0.173500,0.042525,0.153089,0.000000,108.000000,103.000000,5.000000,18.000000,0.000000,0.000000,0.131219,0.173500,0.042525,0.153089,0.000000,108.000000,103.000000,5.000000,18.000000,0.000000,0.000000:
// measure 0
0000
0000
0000
0000
,  // measure 1
0000
0000
0000
0000
,  // measure 2
0000
0000
0000
0000
,  // measure 3
0000
0000
0000
0000
,  // measure 4
0000
1001
0000
0000
,  // measure 5
0001
0000
0001
0000
,  // measure 6
0001
0000
0000
0000
,  // measure 7
1000
0000
1000
0000
,  // measure 8
1001
0000
0001
0000
,  // measure 9
1000
0000
1000
0000
,  // measure 10
0100
0000
0100
0000
,  // measure 11
0010
0000
0010
0000
,  // measure 12
0001
0000
0001
0000
,  // measure 13
0100
0000
0100
0000
,  // measure 14
0010
0000
0010
0000
,  // measure 15
1000
0000
0001
0000
,  // measure 16
2000
0000
0000
0000
,  // measure 17
0000
3000
0000
0001
,  // measure 18
0001
0001
0000
1000
,  // measure 19
1000
1000
0000
0010
,  // measure 20
0020
0000
0000
0000
,  // measure 21
0000
0030
0000
0100
,  // measure 22
0100
0100
0000
0010
,  // measure 23
2000
0000
0002
3003
,  // measure 24
1001
0000
1000
0001
,  // measure 25
1000
0000
0001
1000
,  // measure 26
0001
0000
0100
0010
,  // measure 27
0100
0000
0010
0100
,  // measure 28
0010
0000
1000
0100
,  // measure 29
1000
0000
0100
1000
,  // measure 30
0100
0000
0010
0001
,  // measure 31
0010
0000
0001
0010
,  // measure 32
0002
0000
0003
1000
,  // measure 33
2000
0000
3000
0010
,  // measure 34
0020
0000
0130
0000
,  // measure 35
0002
0000
2003
0000
,  // measure 36
3200
0000
0300
0010
,  // measure 37
0020
0000
0030
0001
,  // measure 38
0002
0000
0023
0000
,  // measure 39
2030
0000
3200
0000
,  // measure 40
0302
0000
0000
0003
,  // measure 41
1001
0000
1000
0010
,  // measure 42
1000
0000
1000
0100
,  // measure 43
0010
0000
0001
0010
,  // measure 44
0001
0000
0100
0010
,  // measure 45
0100
0000
0001
0100
,  // measure 46
0001
0000
0001
0010
,  // measure 47
0100
0000
1000
0100
,  // measure 48
1000
0000
0001
1000
,  // measure 49
2002
0000
0000
0000
,  // measure 50
0000
0000
0000
0000
,  // measure 51
3003
0000
0000
0000
;

//---------------dance-single - ----------------
#NOTES:
     dance-single:
     C 04 X 05:
     Medium:
     4:
     0.190753,0.260251,0.042525,0.136079,0.000000,157.000000,152.000000,5.000000,16.000000,0.000000,0.000000,0.190753,0.260251,0.042525,0.136079,0.000000,157.000000,152.000000,5.000000,16.000000,0.000000,0.000000:
// measure 0
0000
0000
0000
0000
,  // measure 1
0000
0000
0000
0000
,  // measure 2
0000
0000
0000
0000
,  // measure 3
0000
0000
0000
0000
,  // measure 4
1000
0000
0100
0000
,  // measure 5
0010
0000
0001
0001
,  // measure 6
1000
0000
0010
0000
,  // measure 7
0100
0000
0001
1000
,  // measure 8
1001
0001
0010
0001
,  // measure 9
0100
0100
0010
0000
,  // measure 10
1000
0000
0000
0010
0000
0010
0000
0000
,  // measure 11
0100
0000
0000
0001
0000
0001
0000
0000
,  // measure 12
1000
0100
0010
0100
,  // measure 13
1000
0001
0100
0000
,  // measure 14
0001
0000
0000
0100
0000
0100
0000
0000
,  // measure 15
0010
0000
0000
1000
0000
1000
0000
0002
,  // measure 16
0000
0010
0000
1000
,  // measure 17
0000
0103
0000
0100
,  // measure 18
0001
0000
0001
1000
0000
0000
0100
0000
,  // measure 19
1000
0000
1000
0001
0000
0001
0000
2000
,  // measure 20
0000
0010
0000
0001
,  // measure 21
0000
3100
0000
0010
,  // measure 22
0001
0000
0001
1000
0000
0000
0010
0000
,  // measure 23
2000
0000
0000
0002
0000
0000
3003
0000
,  // measure 24
1000
0110
1000
0001
,  // measure 25
1000
0100
0100
0010
,  // measure 26
0010
0000
0001
1000
,  // measure 27
0001
0100
0100
0010
,  // measure 28
0010
1010
1000
0100
,  // measure 29
1000
0001
0001
0010
,  // measure 30
0010
0001
0001
0100
,  // measure 31
0001
1000
1000
0010
,  // measure 32
0210
0000
0000
1000
,  // measure 33
0320
0000
0000
0001
,  // measure 34
0230
0000
2300
0000
,  // measure 35
3020
0000
0031
1000
,  // measure 36
0200
0000
0000
0001
,  // measure 37
0320
0000
0000
1000
,  // measure 38
0230
0000
0302
0000
,  // measure 39
0023
0000
1030
0001
,  // measure 40
0200
0000
0000
0000
0000
0010
0310
0010
,  // measure 41
1000
1001
0001
0010
,  // measure 42
0001
0000
1000
0100
1000
0000
0100
0000
,  // measure 43
0100
0000
0000
1000
0010
0000
1000
0000
,  // measure 44
0010
0000
0100
0001
0100
0000
0001
0000
,  // measure 45
0001
0000
1000
0100
0010
0000
0100
0000
,  // measure 46
1000
0000
0001
0010
0100
0000
0010
0000
,  // measure 47
0001
0000
1000
0010
0100
0000
0010
0000
,  // measure 48
1000
0000
0001
0100
0010
0000
0100
0000
,  // measure 49
0002
0000
0000
0000
,  // measure 50
0000
0000
0000
0000
,  // measure 51
0003
0000
0000
0000
;

//---------------dance-single - ----------------
#NOTES:
     dance-single:
     C 07 X 10:
     Hard:
     7:
     0.347487,0.390376,0.034020,0.127574,0.093554,286.000000,282.000000,4.000000,15.000000,0.000000,0.000000,0.347487,0.390376,0.034020,0.127574,0.093554,286.000000,282.000000,4.000000,15.000000,0.000000,0.000000:
// measure 0
0000
0000
0000
0000
,  // measure 1
0000
0000
0000
0000
,  // measure 2
0000
0000
0000
0000
,  // measure 3
0000
0000
0000
0000
,  // measure 4
0000
1001
0001
0001
,  // measure 5
1000
0000
0010
0100
0010
0000
1000
0000
,  // measure 6
0010
0000
0000
0000
1000
0000
0000
0000
0001
0000
0000
0001
0000
0000
1000
0000
,  // measure 7
0100
0000
0010
0000
0001
0010
0001
0010
,  // measure 8
0001
0000
1000
0100
1000
0010
0100
0001
,  // measure 9
0000
0010
0001
0020
0000
0000
0030
0000
,  // measure 10
0001
1000
0001
0200
0000
0310
0000
0010
,  // measure 11
1000
0001
1000
0200
0000
0310
0000
0100
,  // measure 12
1000
0000
0001
0100
0010
0100
0001
0010
,  // measure 13
0000
0100
1000
0100
0000
1000
0010
0000
,  // measure 14
0100
0001
0010
0200
0000
0310
0000
0100
,  // measure 15
1000
0000
0010
0000
0000
0000
0200
0000
0000
0000
0310
0000
0000
0000
1000
0001
,  // measure 16
1000
0000
0001
0000
0010
0010
0001
0000
,  // measure 17
1000
0000
0010
0000
1000
0000
0010
0000
0100
0001
0000
0001
0100
0000
0000
0000
,  // measure 18
0001
0010
0100
1000
0000
0001
0100
1000
,  // measure 19
0000
0001
0010
2000
0000
3002
0000
0013
,  // measure 20
0001
0000
0000
0000
1000
0000
0000
0000
0010
0000
0010
0100
0000
0010
0100
0000
,  // measure 21
0001
0010
0001
0000
1000
0100
1000
0000
,  // measure 22
0001
0100
0010
1000
0000
0001
1000
0001
,  // measure 23
0200
0000
0000
0320
0000
0000
0230
0000
0000
0000
0300
0000
0001
0100
0001
0100
,  // measure 24
0001
0000
0101
0100
0010
0000
1000
0001
,  // measure 25
1000
0000
0001
0100
0010
0001
0010
0100
,  // measure 26
0001
0000
1000
0010
1000
0000
0001
0010
,  // measure 27
0100
0000
1000
0100
0010
1000
0010
0100
,  // measure 28
1000
0000
0001
0100
1000
0100
0001
0000
,  // measure 29
1000
0000
0001
0010
1000
0010
0001
0000
,  // measure 30
0001
0000
1000
0100
0001
0100
1000
0000
,  // measure 31
0001
0000
0000
0000
1000
0000
0010
0000
0001
0000
0010
0000
1000
0000
0001
1000
,  // measure 32
0001
0000
0000
0001
0000
0000
0001
0000
0000
0000
1000
0000
0100
0000
0010
0000
,  // measure 33
0100
0000
0000
0100
0000
0000
0100
0000
0000
0000
1000
0000
0001
0000
0100
0000
,  // measure 34
0020
0000
1030
0001
0020
0000
0031
1000
,  // measure 35
0200
0000
1300
0001
0200
0000
0301
1000
,  // measure 36
0001
0000
0000
0010
0000
0000
0100
0000
0000
1000
0000
0000
0001
0000
0000
0000
,  // measure 37
1000
0000
0000
0010
0000
0000
0100
0000
0000
0001
0000
0000
1000
0000
0100
0000
,  // measure 38
1000
0010
0000
0001
0000
0010
0100
0000
,  // measure 39
0001
0010
0000
1000
0000
0010
0100
0010
,  // measure 40
0001
0000
0000
1000
0001
0000
0000
0000
0100
0000
0001
0100
0001
0100
0010
1000
,  // measure 41
0010
0000
1010
1000
0100
0000
0010
0100
,  // measure 42
1000
0000
0010
0100
1000
0001
0010
0100
,  // measure 43
0001
0000
1000
0001
0100
0000
0010
0100
,  // measure 44
0001
0000
0010
0100
0001
1000
0010
0100
,  // measure 45
1000
0000
1001
0001
0100
1000
0001
1000
,  // measure 46
0100
0000
0001
1000
0100
0001
1000
0001
,  // measure 47
0100
0000
1000
0001
0010
1000
0001
1000
,  // measure 48
0010
0000
0000
0000
0001
0000
1000
0000
0010
0000
0001
0000
0010
0100
0010
0100
,  // measure 49
0020
0000
0000
0000
,  // measure 50
0000
0000
0000
0000
,  // measure 51
0030
0000
0000
0000
;
