#TITLE:極楽浄土;
#SUBTITLE:;
#ARTIST:GARNiDELiA;
#TITLETRANSLIT:Gokuraku Jodo;
#SUBTITLETRANSLIT:;
#ARTISTTRANSLIT:;
#GENRE:;
#CREDIT:;
#MENUCOLOR:;
#METERTYPE:DDR;
#BANNER:[Round B] - Gokuraku Jodo.png;
#BACKGROUND:[Round B] - Gokuraku Jodo-bg.png;
#LYRICSPATH:;
#CDTITLE:;
#MUSIC:[Round B] - Gokuraku Jodo.ogg;
#OFFSET:1.370;
#SAMPLESTART:58.626;
#SAMPLELENGTH:15.000;
#SELECTABLE:YES;
#LISTSORT:;
#BPMS:0.000=131.000,168.000=65.500,200.000=131.000;
#STOPS:;
#BGCHANGES:;
#ATTACKS:;

//---------------dance-single - ----------------
#NOTES:
     dance-single:
     :
     Beginner:
     1:
     0.130,0.172,0.007,0.000,0.000: // measure 1
0000
0000
0000
0000
,  // measure 2
0000
0000
0000
0000
,  // measure 3
0000
0000
0000
0000
,  // measure 4
0000
0000
0000
0000
,  // measure 5
0000
0000
0000
0000
,  // measure 6
0010
0000
0010
0000
,  // measure 7
0010
0000
0000
0000
,  // measure 8
0100
0000
0100
0000
,  // measure 9
0100
0000
0000
0000
,  // measure 10
0001
0000
0001
0000
,  // measure 11
0001
0000
0000
0000
,  // measure 12
1000
0000
1000
0000
,  // measure 13
1000
0000
0000
0000
,  // measure 14
0010
0000
0010
0000
,  // measure 15
0010
0000
0000
0000
,  // measure 16
0100
0000
0100
0000
,  // measure 17
0100
0000
0000
0000
,  // measure 18
0000
0001
0000
0001
,  // measure 19
0001
0000
0001
0000
,  // measure 20
0000
1000
0000
1000
,  // measure 21
1000
0000
1000
0000
,  // measure 22
0000
0010
0000
0010
,  // measure 23
0010
0000
0010
0000
,  // measure 24
0000
0100
0000
0100
,  // measure 25
0100
0000
0100
0000
,  // measure 26
0001
0000
1000
0000
,  // measure 27
0001
0000
0000
0000
,  // measure 28
1000
0000
0001
0000
,  // measure 29
1000
0000
0000
0000
,  // measure 30
0010
0000
0100
0000
,  // measure 31
0010
0000
0000
0000
,  // measure 32
0100
0000
0010
0000
,  // measure 33
0100
0000
0000
0000
,  // measure 34
0001
0001
0001
0000
,  // measure 35
0001
0000
0001
0000
,  // measure 36
1000
1000
1000
0000
,  // measure 37
1000
0000
1000
0000
,  // measure 38
0010
0010
0010
0000
,  // measure 39
0010
0000
0010
0000
,  // measure 40
0100
0100
0100
0000
,  // measure 41
0100
0000
0100
0000
,  // measure 42
0010
0000
0000
0000
,  // measure 43
1000
0000
0000
0000
,  // measure 44
0001
0000
0000
0000
,  // measure 45
1001
0000
0000
0000
,  // measure 46
0100
0000
0000
0000
,  // measure 47
0010
0000
0010
0000
,  // measure 48
0100
0000
0100
0000
,  // measure 49
0001
0000
0001
0000
,  // measure 50
1000
0000
1000
0000
,  // measure 51
0001
0000
0001
0000
,  // measure 52
0001
0000
0000
0000
,  // measure 53
1000
0000
1000
0000
,  // measure 54
1000
0000
0000
0000
,  // measure 55
0010
0000
0010
0000
,  // measure 56
0010
0000
0000
0000
,  // measure 57
0100
0000
0100
0000
,  // measure 58
0100
0000
0000
0000
,  // measure 59
0001
0001
0001
0000
,  // measure 60
0001
0000
0001
0000
,  // measure 61
1000
1000
1000
0000
,  // measure 62
1000
0000
1000
0000
,  // measure 63
0010
0010
0010
0000
,  // measure 64
0010
0000
0010
0000
,  // measure 65
0100
0100
0100
0000
,  // measure 66
0100
0000
0100
0000
,  // measure 67
0010
0010
0010
0000
,  // measure 68
0010
0010
0010
0000
,  // measure 69
0100
0100
0100
0000
,  // measure 70
0100
0100
0100
0000
,  // measure 71
0001
0001
0001
0000
,  // measure 72
0001
0001
0001
0000
,  // measure 73
1000
1000
1000
0000
,  // measure 74
1000
1000
1000
0000
;

//---------------dance-single - ----------------
#NOTES:
     dance-single:
     :
     Easy:
     4:
     0.315,0.396,0.060,0.574,0.000: // measure 1
0000
0000
0000
0000
,  // measure 2
0000
0000
0000
0000
,  // measure 3
0000
0000
0000
0000
,  // measure 4
0000
0000
0000
0000
,  // measure 5
0000
0000
0000
0000
,  // measure 6
0010
0000
0010
0000
,  // measure 7
0100
0000
0100
0000
,  // measure 8
0001
0001
0002
0003
,  // measure 9
1000
1000
2000
3000
,  // measure 10
0002
2003
3002
0003
,  // measure 11
2000
3002
2003
3000
,  // measure 12
0020
0230
0320
0030
,  // measure 13
0200
0320
0230
0300
,  // measure 14
0020
2030
3002
0003
,  // measure 15
0002
2003
3020
0030
,  // measure 16
2000
3200
0320
0030
,  // measure 17
0002
0203
0320
0030
,  // measure 18
0000
1000
0001
1000
,  // measure 19
0000
0001
0100
0001
,  // measure 20
0000
1000
0010
1000
,  // measure 21
0001
0001
0001
0000
,  // measure 22
0000
0001
0010
0001
,  // measure 23
0000
1000
0100
1000
,  // measure 24
0000
0010
0100
0010
,  // measure 25
0100
0100
0100
0000
,  // measure 26
0001
1000
0002
0003
,  // measure 27
1000
0001
2000
3000
,  // measure 28
0010
0010
1000
1000
,  // measure 29
0001
0100
0001
0000
,  // measure 30
0100
0010
0200
0300
,  // measure 31
0010
0100
0020
0030
,  // measure 32
1000
1000
0100
0010
,  // measure 33
0220
0000
0000
0330
,  // measure 34
0001
1000
0020
0030
,  // measure 35
1000
0001
0020
0030
,  // measure 36
0001
0100
0010
0100
,  // measure 37
0001
0010
0200
0300
,  // measure 38
1000
0001
2000
3000
,  // measure 39
0010
0100
0020
0030
,  // measure 40
2000
3001
0002
1003
,  // measure 41
0010
0100
0220
0330
,  // measure 42
2002
0000
0000
3003
,  // measure 43
0002
1003
0010
0010
,  // measure 44
0200
0000
0310
0000
1000
1000
0001
0001
,  // measure 45
2000
0000
3100
0000
0010
0001
0010
0000
,  // measure 46
0002
0000
0103
0000
0010
1000
0010
0000
,  // measure 47
1000
1000
0100
0100
0010
0010
0001
0000
,  // measure 48
0001
0001
0100
0100
0010
0010
1000
0000
,  // measure 49
0001
0001
1000
1000
0010
0100
0010
0000
,  // measure 50
1000
1000
0001
0001
0100
0010
0100
0000
,  // measure 51
1002
0000
0013
0000
,  // measure 52
0200
0000
1300
0000
,  // measure 53
0010
0100
0010
0100
,  // measure 54
0001
1000
0100
0000
,  // measure 55
2001
0000
3010
0000
,  // measure 56
0200
0000
0301
0000
,  // measure 57
1000
0100
0010
0001
,  // measure 58
1000
0001
0220
0330
,  // measure 59
0001
1000
0200
0300
,  // measure 60
1000
0001
0020
0030
,  // measure 61
0001
0001
0100
0100
,  // measure 62
0010
1000
0002
0003
,  // measure 63
1000
0100
0020
0030
,  // measure 64
0001
0100
0020
0030
,  // measure 65
0200
0300
0220
0330
,  // measure 66
0001
1000
2020
3030
,  // measure 67
2000
3002
2003
3001
,  // measure 68
0002
2003
3002
1003
,  // measure 69
0020
0230
0320
0130
,  // measure 70
0200
0320
0230
0310
,  // measure 71
2000
3200
0320
0031
,  // measure 72
0002
0023
0230
1300
,  // measure 73
0020
0230
0302
1003
,  // measure 74
0001
1000
0010
0220
,  // measure 75
0000
0330
0000
0000
;

//---------------dance-single - ----------------
#NOTES:
     dance-single:
     :
     Medium:
     6:
     0.464,0.619,0.067,0.594,0.080: // measure 1
0000
0000
0000
0000
,  // measure 2
0000
0000
0000
0000
,  // measure 3
0000
0000
0000
0000
,  // measure 4
0000
0000
0000
0000
,  // measure 5
0000
0000
0000
0000
,  // measure 6
0100
0000
0010
1000
0020
0000
1030
0000
,  // measure 7
0001
0000
0010
0001
0020
0000
0031
0000
,  // measure 8
2000
3002
0203
0310
,  // measure 9
1000
0100
0010
0001
2000
0000
3001
0000
,  // measure 10
0200
0000
0302
0000
0203
0000
0301
0010
,  // measure 11
0002
0000
2003
0000
3010
0010
0100
0000
,  // measure 12
0020
0000
2030
0000
3020
0000
1030
0100
,  // measure 13
2000
0000
3002
0000
0103
0010
0010
0000
,  // measure 14
2000
0000
3200
0000
2300
0000
3001
0100
,  // measure 15
0002
0000
0023
0000
0031
1000
1000
0000
,  // measure 16
0020
0000
0230
0000
0320
0000
1030
0001
,  // measure 17
0200
0000
0301
0010
0200
0000
0310
0000
,  // measure 18
0001
0000
1000
0000
0001
0100
0001
0000
,  // measure 19
1000
0000
0001
0000
1000
0100
1000
0000
,  // measure 20
0010
0000
0100
0000
0010
1000
0010
0000
,  // measure 21
0100
0001
1000
0001
,  // measure 22
1001
0000
0010
0000
0100
1000
0010
0000
,  // measure 23
0100
0000
0001
0000
0010
0001
0100
0001
,  // measure 24
1000
1001
0001
1001
,  // measure 25
0010
0100
0210
0301
,  // measure 26
1000
0100
0000
0100
2000
0000
3001
0100
,  // measure 27
0000
0100
0001
1000
0002
0000
1003
0000
,  // measure 28
0001
0010
0001
0000
2000
0000
3100
0000
,  // measure 29
0001
0100
0001
0000
2000
0000
3010
0000
,  // measure 30
1000
0100
0000
0100
0020
0000
0130
1000
,  // measure 31
0000
1000
0001
0100
0020
0000
0130
0000
,  // measure 32
0001
0100
0001
0000
2000
0000
3010
0200
,  // measure 33
0000
0000
0000
0310
,  // measure 34
1000
0000
0100
1000
0020
0000
1030
0000
,  // measure 35
0001
0000
0100
0001
0020
0000
0031
0000
,  // measure 36
2000
3100
0020
0031
,  // measure 37
1000
0000
0000
0001
0000
0000
0100
0000
0020
0000
0000
0000
1030
0000
0000
0000
,  // measure 38
0001
0100
0001
0000
0010
0002
0000
1003
,  // measure 39
0010
1000
0000
1000
0020
0000
1030
0000
,  // measure 40
0001
0010
0100
0000
1000
0010
0100
0000
,  // measure 41
0010
0100
0001
1000
0002
0000
1003
0000
,  // measure 42
0220
0000
0000
0330
,  // measure 43
1000
0000
0010
0100
0020
0000
0000
0000
1030
0000
0001
0000
1000
0100
1000
0000
,  // measure 44
0001
0000
0100
0010
0200
0000
0000
0000
0310
1000
0001
0000
0100
0001
1000
0000
,  // measure 45
0001
0000
0010
0100
2000
0000
0000
0000
3010
0000
0100
0000
0001
0010
0100
0000
,  // measure 46
0010
0000
0001
1000
0020
0000
0000
0000
0130
0000
0001
0000
1000
0100
1000
0000
,  // measure 47
0001
0010
0100
0000
1000
0000
1000
0000
0001
0010
0100
0010
0002
0000
0003
0000
,  // measure 48
1000
0010
0100
0000
0001
0000
0001
0000
1000
0010
0100
0010
2000
0000
3000
0000
,  // measure 49
0010
0000
1000
0001
0100
0000
0001
0000
1000
0001
0010
0001
2000
0000
3000
0000
,  // measure 50
0001
0100
0001
0000
1000
0100
1000
0000
0001
0010
0100
1000
0020
0000
0030
0000
,  // measure 51
0110
0000
0100
0001
2000
0000
3001
0000
,  // measure 52
1000
0000
0100
1000
0002
0000
1003
0000
,  // measure 53
0001
0010
0002
0000
0100
0000
0103
0000
,  // measure 54
1000
0010
2000
0000
0100
0000
3100
0000
,  // measure 55
1001
0000
0100
0010
2000
0000
3010
0000
,  // measure 56
0100
0000
0001
0010
0200
0000
0310
0000
,  // measure 57
0001
0010
0001
0010
0100
1000
0100
1000
,  // measure 58
0001
1000
0001
0000
2001
0000
3010
0000
,  // measure 59
0100
0010
1000
0000
0020
0000
1030
0000
,  // measure 60
0100
0010
0001
0000
0020
0000
0031
0000
,  // measure 61
2000
0000
3001
0000
0100
0010
1000
0000
,  // measure 62
0010
0000
0000
0100
0000
0000
0001
0000
2000
0000
0000
0000
3001
0000
0000
0000
,  // measure 63
1000
0100
1000
0001
2000
0000
3001
0100
,  // measure 64
0001
0010
0001
1000
0002
0000
1003
0010
,  // measure 65
0100
0200
0000
0310
0010
0020
0000
1030
,  // measure 66
0001
0010
0100
1000
0002
0000
1003
0000
,  // measure 67
1002
0000
0203
0000
0302
0000
1003
0100
,  // measure 68
2000
0000
3020
0000
1030
0001
0001
0000
,  // measure 69
2000
0000
3200
0000
2300
0000
3001
0010
,  // measure 70
0002
0000
0203
0000
0310
0100
0100
0000
,  // measure 71
1002
0000
2003
0000
3020
0000
1030
0100
,  // measure 72
0020
0000
0230
0000
1300
0010
0010
0000
,  // measure 73
0200
0000
0302
0000
0023
0000
0031
0100
,  // measure 74
0020
0000
0130
0001
1000
0001
0002
0000
,  // measure 75
0000
0003
0000
0000
;

//---------------dance-single - ----------------
#NOTES:
     dance-single:
     :
     Hard:
     9:
     0.577,0.867,0.227,0.480,0.274: // measure 1
0000
0000
0000
0000
,  // measure 2
0000
0000
0000
0000
,  // measure 3
0000
0000
0000
0000
,  // measure 4
0000
0000
0000
0000
,  // measure 5
0000
0000
0000
0000
,  // measure 6
1000
0000
0001
1000
0200
0000
1300
0010
,  // measure 7
1000
0100
1000
0001
0010
0001
0100
0010
,  // measure 8
0200
0320
2030
3002
,  // measure 9
1003
0000
0001
0100
0001
0000
1000
0000
0020
0000
0000
0000
0130
0000
0000
0000
,  // measure 10
1020
0000
0000
0000
2030
0000
0000
0000
3020
0000
0000
0000
1030
0100
1000
0000
,  // measure 11
0002
0000
0203
0000
0301
0001
0010
0010
,  // measure 12
0002
0000
0000
0000
2003
0000
0000
0000
3020
0000
0000
0000
0130
0010
0100
0000
,  // measure 13
0020
0000
2030
0000
3001
1000
1000
0001
,  // measure 14
1002
0000
0000
0000
0023
0000
0000
0000
0032
0000
0000
0000
1003
0010
1000
0000
,  // measure 15
0020
0000
0230
0000
0310
0010
0100
0100
,  // measure 16
0002
0000
0000
0000
2003
0000
0000
0000
3200
0000
0000
0000
1300
0001
1000
0000
,  // measure 17
0020
0000
0130
0100
0001
1000
1001
0000
,  // measure 18
0001
0010
0100
0010
0001
0100
0001
0000
,  // measure 19
1000
0010
0100
0010
1000
0100
1000
0000
,  // measure 20
0001
0010
0100
0010
0001
1000
0100
0000
,  // measure 21
1000
0110
0001
0110
,  // measure 22
1001
0000
0100
0010
1000
0010
0100
0000
,  // measure 23
0001
1000
0100
1000
0001
1000
0010
0000
,  // measure 24
1000
0100
0110
0000
0001
0100
0110
0000
,  // measure 25
1010
0101
2100
3001
,  // measure 26
1000
0100
0010
0100
2100
0000
3001
0100
,  // measure 27
0010
0100
0001
0010
0012
0000
1003
0000
,  // measure 28
0001
0000
0100
0000
0001
0000
0010
0000
0001
0000
1000
0001
0000
0000
1000
0000
,  // measure 29
0100
1000
0010
0100
0010
0000
1001
0000
,  // measure 30
1000
0100
0010
0100
2100
0000
3010
0100
,  // measure 31
0001
0010
0100
0010
0012
0000
1003
0000
,  // measure 32
0001
0000
0010
0000
0001
0000
1000
0000
0010
0000
0100
0010
0000
0000
0200
0000
,  // measure 33
0000
0000
0000
0310
,  // measure 34
1001
0000
0000
0100
1000
0000
0100
0000
0010
0000
0000
0000
0011
0000
0000
0000
,  // measure 35
1001
0000
0000
0100
0001
0000
0100
0000
0010
0000
0000
0000
1010
0000
1000
0000
,  // measure 36
0100
1000
0002
0000
0103
0001
2000
0000
,  // measure 37
3010
0000
0000
0100
0010
0000
1000
0000
0001
0000
0000
0000
0110
0000
0000
0000
,  // measure 38
0001
0000
0100
0001
0000
0000
1000
0000
0001
0000
1000
0000
0100
0000
0000
0000
,  // measure 39
0010
0000
0001
0010
0000
0000
0001
0000
1000
0000
0001
0000
0010
0000
0000
0000
,  // measure 40
0100
1000
0010
0000
0100
0001
0010
0000
,  // measure 41
0001
0000
1000
0100
1000
0000
0001
0000
0200
0000
0000
0000
0310
0000
0100
0020
,  // measure 42
0000
0000
0000
0130
,  // measure 43
1001
0000
0000
0000
0001
0000
0100
0000
0020
0000
0000
0000
1030
0000
0000
0000
0001
0000
0000
0000
0010
0000
0001
0010
0001
0000
1000
0000
0001
0000
0000
0000
,  // measure 44
1000
0000
0100
0010
0002
0000
0013
0001
0100
0010
1000
0010
0100
0001
0010
0100
,  // measure 45
0110
0000
0000
0000
0001
0000
1000
0000
0020
0000
0000
0000
1030
0000
0000
0000
0010
0000
0000
0000
1000
0000
0100
0010
0100
0000
1000
0000
0001
0000
0000
0000
,  // measure 46
0110
0000
0000
0000
0100
0000
0001
0000
0020
0000
0000
0000
0031
0000
0000
0000
1000
0000
0000
0000
0100
0000
0000
0000
0010
0000
0001
1000
0001
0000
0000
0000
,  // measure 47
0100
0000
0001
0000
0010
0000
0100
0000
0010
0000
0001
0000
1000
0000
0100
0000
0010
0000
0100
0000
1000
0000
0010
0100
0020
0000
0000
0000
0130
0000
0000
0000
,  // measure 48
0001
0000
0010
0000
0100
0000
1000
0000
0001
0000
0100
0000
0010
0100
0010
0000
1000
0000
0000
0000
0100
0000
0000
0000
0110
0000
0000
0000
1001
0000
0000
0000
,  // measure 49
1000
0000
0010
0000
1000
0000
0001
0000
0100
0000
0001
0000
1000
0000
0100
0000
1000
0000
0001
0000
1000
0000
0010
0100
0010
0000
0100
0000
0010
0100
0000
0000
,  // measure 50
0001
0000
0010
0000
0100
0000
1000
0000
0001
0000
0100
0000
0010
0000
1000
0000
0001
0000
1000
0001
1000
0000
0010
0000
0200
0000
0000
0000
0310
0000
0000
0000
,  // measure 51
1001
0000
0010
1000
0200
0000
1300
0001
,  // measure 52
0010
0001
0100
0010
0200
0000
0301
0000
,  // measure 53
1000
0000
0010
1000
0001
1000
0010
0000
,  // measure 54
1000
0000
0001
1000
0200
0000
0310
0000
,  // measure 55
0011
0000
0100
0001
0020
0000
0031
0100
,  // measure 56
0010
1000
0100
0010
0200
0000
1300
0000
,  // measure 57
0001
0000
0100
0001
0100
0000
0001
0000
1000
0000
0100
1000
0100
0000
1000
0000
,  // measure 58
0010
0100
0010
0100
0010
0000
0100
0000
0120
0000
0000
0000
1030
0000
0000
0000
,  // measure 59
1001
0000
0000
0100
0001
0000
0100
0000
0020
0000
0000
0000
1030
0000
0001
0000
,  // measure 60
0100
0000
0000
0010
1000
0000
0010
0000
2000
0000
0000
0000
3100
0000
0010
0100
,  // measure 61
0010
0000
0000
0010
0001
0000
0000
0001
1000
0000
0010
0000
0100
0000
0001
0000
,  // measure 62
1000
0000
0001
0100
0000
0000
0010
0000
0100
0000
0000
0000
0110
0000
0000
0000
,  // measure 63
1000
0000
0010
1000
0000
0000
0001
0000
1000
0000
0100
0000
0010
0000
0001
0000
,  // measure 64
0100
0000
0010
0100
0000
0000
0001
0000
0100
0000
0000
0000
0110
0000
1000
0000
,  // measure 65
0001
0000
0200
0000
0000
0000
0301
0000
1000
0000
0020
0000
0000
0000
1030
0001
,  // measure 66
1000
0000
0001
0100
0001
0000
1000
0000
0020
0000
0000
0000
0130
0000
0000
0000
,  // measure 67
2010
0000
0000
0000
3200
0000
0000
0000
2300
0000
0000
0000
3010
1000
0010
1000
,  // measure 68
0020
0000
0230
0000
0301
0001
0010
0010
,  // measure 69
0002
0000
0000
0000
0203
0000
0000
0000
0320
0000
0000
0000
1030
0001
1000
0001
,  // measure 70
2000
0000
3002
0000
0103
0010
0010
0100
,  // measure 71
0002
0000
0000
0000
0023
0000
0000
0000
0230
0000
0000
0000
1300
0001
1000
0001
,  // measure 72
2000
0000
3020
0000
0130
0100
0010
0010
,  // measure 73
2000
0000
0000
0000
3200
0000
0000
0000
2300
0000
0000
0000
3001
0100
0001
0100
,  // measure 74
0001
0000
0010
0001
0010
0000
0001
0000
0100
0000
0010
0000
0220
0000
0000
0000
,  // measure 75
0000
0330
0000
0000
;
