#TITLE:GLITCH SWTCH;
#SUBTITLE:;
#ARTIST:GRASSEZ;
#TITLETRANSLIT:;
#SUBTITLETRANSLIT:;
#ARTISTTRANSLIT:;
#GENRE:;
#CREDIT:;
#BANNER:;
#BACKGROUND:;
#LYRICSPATH:;
#CDTITLE:;
#MUSIC:GLITCH SWITCH.ogg;
#OFFSET:-0.259000;
#SAMPLESTART:21.875000;
#SAMPLELENGTH:15.000000;
#SELECTABLE:YES;
#BPMS:0.000000=180.000000
;
#STOPS:
;
#BGCHANGES:;
#KEYSOUNDS:;
#ATTACKS:;

//---------------dance-single - ----------------
#NOTES:
     dance-single:
     :
     Challenge:
     13:
     1.033848,1.267784,0.510635,0.237710,1.197352,822.000000,764.000000,58.000000,27.000000,4.000000,0.000000,1.033848,1.267784,0.510635,0.237710,1.197352,822.000000,764.000000,58.000000,27.000000,4.000000,0.000000:
1000
1000
1000
1000
,
0001
0000
0000
0000
0001
0000
0000
0000
0100
0000
0010
0000
0100
0000
0001
1000
,
0001
1001
0101
1001
,
0101
0000
0000
0000
0010
0000
0000
0000
2000
0000
0000
0000
3004
0003
0004
0003
,
1000
0000
0001
0000
0010
0000
0010
0000
0100
0000
1000
0001
1000
0000
0010
0100
,
0001
0010
0100
1000
0001
0100
0001
0100
0001
0100
0010
1000
0010
1000
0010
1000
,
0001
0100
0010
1000
0001
0010
0100
1000
0001
0100
0010
1000
0100
0010
0001
1000
,
0010
0000
0100
0001
0010
0001
0100
0010
1000
0000
0000
0000
0001
0000
0000
0000
,
0001
1001
1010
0101
,
1001
0000
0110
0000
0001
1000
0010
0000
,
0101
1001
1010
1001
,
0110
0000
0000
0000
1001
0000
0000
0000
2000
0000
3100
0000
0040
0030
0040
0030
,
0400
0000
1300
0000
0001
1000
1001
0000
,
1000
0010
1010
0000
1000
0001
1001
0000
,
0001
0000
0000
0100
0000
0000
0010
0000
0000
0000
0000
0000
1000
0000
0000
0000
0000
0000
0001
0000
0000
0100
0010
0100
,
0010
0000
0000
0100
0000
0000
0001
0000
0000
2002
0000
0000
0000
0000
0000
3003
0000
0000
1000
0100
1000
0001
0010
0001
,
1000
1MM1
0101
1M1M
,
1001
0000
1100
0000
1000
0001
0100
0000
,
1000
1010
0010
0101
,
0010
0000
0000
0000
1010
0000
0000
0000
1000
0000
0010
0000
0400
0300
0400
0300
,
0001
0000
0000
1000
0000
0000
0001
0000
0000
1000
0000
0000
0001
0000
0000
0000
0100
0000
0000
0000
0010
0000
0000
0000
1000
0000
0000
0000
0000
0000
0001
0000
0000
0100
0000
0000
0001
0000
0000
0000
0000
0000
1000
0000
0000
0010
0000
0000
,
1000
0100
0010
0001
0010
0100
1000
0001
0100
0010
0100
0001
1000
0010
0100
0001
,
1000
0000
0010
0000
1000
0000
0001
0000
0010
0000
0001
0000
1000
0000
0100
0000
0010
0000
0001
0000
0000
1000
0000
0000
0001
0000
0000
0100
0000
0000
0010
0000
0000
1000
0000
0000
0100
0000
0000
0010
0000
0000
0001
0000
0000
0010
0000
0000
,
0002
0000
1003
0010
0100
0001
0010
0100
4000
0000
3010
0000
0100
0000
0100
0000
,
0101
0000
0000
0001
0100
0000
0000
0000
0110
0000
0000
0010
1000
0000
0000
0000
,
1010
0000
0000
1000
0001
0000
0000
0000
1000
0000
0010
0000
0200
0000
0300
0000
,
1001
0000
0000
0001
0100
0000
0010
0000
1010
0000
0000
1000
0100
0000
0010
0000
,
0011
0000
0000
0001
0100
0000
0010
0000
1010
0000
1000
0000
0002
0003
0002
0003
,
2001
0000
0000
0000
3010
0000
0000
0000
0100
0001
1000
0010
0100
0000
0000
0000
,
0010
1000
0010
0100
0001
0000
0000
0000
1000
0100
0010
0001
1000
0000
0000
0000
,
0001
0000
0000
0100
0000
0000
0010
0000
0000
1000
0000
0000
0001
0000
0000
0000
0000
0000
0000
0000
0000
0000
0000
0000
1000
0000
0000
0000
0000
0000
0000
0000
0000
0000
0000
0000
0001
0000
0000
0000
0000
0000
1000
0000
0001
0000
1000
0000
,
0001
0000
0000
1000
0000
0000
0001
0000
0000
2002
0000
0000
0000
0000
0000
3003
0000
0000
1000
0010
1000
0001
0100
0010
,
2000
0000
3000
0000
1010
0000
0000
1000
0100
0000
0000
0100
0010
0000
0000
0010
,
0001
0000
0000
0001
0010
0000
0000
0000
0001
0000
0001
0000
1001
0000
1000
0010
,
0100
0000
0000
0001
0100
0000
0000
0100
0010
0000
0000
0010
1000
0000
0000
0010
,
0100
0000
0000
0001
0010
0000
0000
0000
0200
0000
0000
0000
0340
0000
4030
0000
,
3010
0100
0001
1000
0001
0100
0010
1000
0100
0000
0010
0001
2000
0000
3010
0100
,
0001
1000
0100
0010
0001
0010
0100
1000
0001
0100
0010
0100
0001
1000
0100
0010
,
0001
0000
1000
0000
0010
0000
0100
0000
0001
0000
0010
0000
0001
0000
0000
1000
0000
0000
0010
0000
0000
0100
0000
0000
0001
0000
0000
0000
0000
0000
1000
0000
0000
0010
0000
0000
0100
0000
0000
0000
0000
0000
0001
0000
0000
1000
0000
0000
,
0020
0000
0130
0001
0010
0100
1000
0001
1001
0000
0000
0000
1000
0000
0000
0000
,
0001
0100
0010
1000
0010
0000
0100
0001
,
0010
0100
1000
0100
0010
0000
0001
0000
,
1000
0100
1000
0000
0001
0100
0001
0000
1000
0000
0000
0000
0010
0000
0000
0000
,
0100
0000
0010
0000
0100
0000
0000
0001
0000
0000
1000
0000
0100
0000
0010
0000
,
0001
1000
0001
1000
0001
0000
0000
0000
1000
0100
0010
0001
0100
0000
0010
0000
,
1000
0001
1000
0001
0100
0000
0000
0010
0000
0000
1000
0000
0100
0000
0000
0000
,
0020
0032
0203
0300
0020
2030
3002
0003
,
1000
0000
0010
0100
0010
0100
0010
0100
0010
0100
0010
0100
0010
0100
0010
0100
,
0010
0000
1000
0001
1000
0000
0010
1000
0000
0010
0100
0001
1000
0000
0001
0000
,
1000
0100
0010
0000
0001
0000
0100
0010
1000
0100
0000
0010
0000
0000
0001
1000
,
0001
0000
1000
0010
1000
0000
0001
0100
0010
1000
0010
0000
0100
0001
0100
0000
,
0010
1000
0010
0000
1000
0000
0001
0100
0010
1000
0001
0000
1000
0000
0001
0100
,
0001
0000
0010
0000
0001
0000
0010
0100
0000
1000
0100
1000
0100
0000
0010
0000
,
0001
0100
0010
1000
0100
0010
0100
1000
,
0001
0010
0001
1000
0010
0100
0001
0010
0100
1000
0001
0100
0010
0100
0001
1000
,
0001
0010
0000
0100
1000
0001
0100
0010
1000
0100
0000
0010
0200
0000
0310
0000
,
0001
0000
1000
0010
1000
0000
0001
0100
0000
0100
0010
0100
0001
0010
0100
0000
,
1000
0001
0100
0000
0010
0000
1000
0100
0000
0010
0000
0001
0000
0000
1000
0000
,
1001
0000
0001
0100
0010
0000
1000
0100
0000
0010
0001
0100
0010
1000
0100
0010
,
0001
0100
0000
0010
1000
0100
0010
0100
1000
0001
0000
0100
0001
0000
1000
0000
,
1001
0000
0001
0100
0010
0000
1000
0100
0000
0010
0001
0100
0010
1000
0100
0000
,
0010
0100
1000
0001
0100
0000
0010
1000
0000
0001
0000
0100
0010
0000
1000
0000
,
0110
0000
0001
0100
0010
0000
1000
0100
0000
0010
0001
0000
1100
0000
1001
0000
,
0000
0011
0000
0000
1010
0000
0000
0110
0000
0000
1000
0001
0100
0010
1000
0100
,
0010
0000
0001
1000
0001
0000
1000
0010
0100
0001
0010
0100
1000
0001
0010
0001
,
1000
0001
0010
0100
1000
0000
0010
0100
0000
0001
0000
1000
0001
0000
1000
0010
,
0100
0000
0001
0100
0010
0000
1000
0001
0000
1000
0010
0100
0001
0010
0100
0010
,
0002
0000
0000
0203
0000
0000
0320
0000
0000
0130
0000
0000
0101
0000
0001
0100
,
0010
0000
0100
0001
0100
0000
0010
1000
0001
0000
0100
0010
0000
1000
0100
0000
,
0010
0001
0000
0001
1000
0000
0010
1000
0000
0010
0000
1000
0100
0010
0100
1000
,
0010
0100
0001
1000
0100
0010
0001
1000
0010
0100
0010
1000
0100
1000
0100
0010
,
0001
1000
0000
0000
0010
0000
0200
0000
0304
0003
0400
0300
0010
0000
0010
0000
,
0000
0101
1010
1001
,
0110
0000
0101
0000
0010
1000
0100
0000
,
0011
0000
0000
0000
0000
0000
0000
0000
0000
0000
0000
0000
0000
0000
0000
0000
1001
0000
0000
0000
0000
0000
0000
0000
0000
0000
0000
0000
0000
0000
0000
0000
1010
0000
0000
0000
0000
0000
0000
0000
0000
0000
0000
0000
0000
0000
0000
0000
1001
0000
0000
0000
0000
0000
0000
0000
0000
0000
0000
0000
0000
0000
0000
1000
,
0001
0000
0000
0000
0000
0000
0000
0000
0000
0000
0000
0000
0000
0000
0000
0010
0001
0000
0000
0000
0000
0000
0000
0000
0000
0000
0000
0000
0000
0000
0000
0000
1000
0000
0000
0000
0000
0000
0000
0000
0000
0000
0000
0000
0000
0000
0000
0000
0040
0000
0000
0000
0030
0000
0000
0000
0400
0000
0000
0000
0300
0000
0000
0000
,
0001
0000
1000
0000
0100
0000
1000
0000
0001
0000
0100
0000
0010
0000
0000
1000
0000
0000
0100
0000
0000
1000
0000
0000
0001
0000
0000
0100
0000
0000
0010
0000
0000
1000
0000
0000
0001
0000
0000
0100
0000
0000
0010
0000
0000
0100
0000
0000
,
0001
1000
0100
1000
0010
0100
0010
1000
0100
1000
0010
0100
0010
0000
0100
0001
,
1000
0000
0010
0000
0100
0000
0001
0000
0010
0000
0001
0000
1000
0000
0000
0000
0000
0000
0100
0000
0000
0010
0000
0000
0100
0000
0000
0000
0000
0000
0010
0000
0000
0100
0000
0000
1000
0000
0000
0100
0000
0000
0010
0000
0000
0100
0000
0000
,
1000
0000
0010
0100
0001
0010
0001
1000
0020
0000
0000
0000
0030
0000
0000
0000
,
1100
0000
0000
0000
;

//---------------dance-single - ----------------
#NOTES:
     dance-single:
     :
     Hard:
     9:
     0.725706,0.704325,0.422595,0.176081,0.290534,577.000000,529.000000,48.000000,20.000000,0.000000,0.000000,0.725706,0.704325,0.422595,0.176081,0.290534,577.000000,529.000000,48.000000,20.000000,0.000000,0.000000:
1000
1000
1000
1000
,
0001
0000
0000
0000
0001
0000
0000
0000
0100
0000
0010
0000
1000
0000
0000
1000
,
0001
1001
0101
1001
,
0101
0000
0010
0000
2000
0000
3001
0001
,
1000
0001
0010
0010
0100
0000
1000
0001
,
1000
0000
0010
0100
0001
0000
1000
0010
,
1000
0100
0001
0100
1000
0010
0100
0001
,
1001
0000
1000
0001
,
0001
1001
1010
0101
,
1001
0000
0110
0000
0001
1000
0010
0000
,
0101
1001
1010
1001
,
0110
0000
1001
0000
1000
0100
0010
0010
,
0400
0000
1300
0000
0001
1000
0001
0000
,
1000
0010
1000
0000
0001
1000
0001
0000
,
1000
0100
0010
0000
0001
0000
0001
0100
,
0010
0100
0001
2002
0000
3003
1000
0001
,
1000
1001
0101
1010
,
1001
0000
1100
0000
1000
0001
0100
0000
,
0010
1010
0010
0101
,
0010
0000
1010
0000
1000
0010
1000
1000
,
0001
1000
0001
1000
0001
0000
0000
0000
1001
0000
0000
0000
1000
0000
0001
0000
,
0100
0000
0010
1000
0001
0000
1000
0001
,
1000
0100
0001
0100
1000
0010
0100
0001
,
1001
0000
1000
0010
4000
3010
0100
0100
,
0101
0000
0000
0001
0100
0000
0000
0000
0110
0000
0000
0010
1000
0000
0000
0000
,
1010
0000
0000
1000
0001
0000
0000
0000
1000
0000
0010
0000
0100
0000
0000
0000
,
1001
0000
0000
0001
0100
0000
0010
0000
1000
0000
0000
1000
0100
0000
0010
0000
,
0001
0000
0000
0001
0100
0000
0010
0000
1000
0000
1000
0000
0001
0000
0001
0000
,
2000
0000
3010
0000
0100
0001
0100
0000
,
0010
1000
0100
0000
0001
0100
1000
0000
,
0010
0100
0001
0000
1000
0000
0001
1000
,
0100
0010
0001
2002
0000
3003
1000
0010
,
1000
0000
0000
0000
1010
0000
0000
1000
0100
0000
0000
0100
0010
0000
0000
0010
,
0001
0000
0000
0001
0010
0000
0000
0000
0001
0000
0001
0000
1000
0000
0000
1000
,
0100
0000
0000
0100
0010
0000
0000
0010
0001
0000
0000
0001
1000
0000
0000
0010
,
0100
0000
0000
0001
0010
0000
0000
0000
0200
0000
0000
0000
0310
0000
1000
0000
,
0001
0100
0010
1000
2010
0000
3001
0100
,
0020
0000
1030
0000
1001
0000
0001
0100
,
0010
0000
1000
0000
0100
0000
1000
0000
0001
0000
0000
0000
0100
0000
0001
1000
,
0001
1000
0100
1000
1001
0000
1000
0000
,
0001
0100
0010
1000
0010
0000
0100
0001
,
0010
0100
1000
0100
0010
0000
0001
0000
,
1000
0100
0010
0001
1000
0000
0010
0000
,
0100
0000
0010
0000
0100
0000
0000
0001
0000
0000
1000
0000
0100
0000
0010
0000
,
0001
1000
0001
0000
1000
0010
0100
0010
,
1000
0000
0001
0000
0100
0000
0000
0001
0000
0000
1000
0000
0100
0000
0000
0000
,
0020
0032
0203
0300
0020
2030
3002
0003
,
0010
0001
0100
0010
1000
0100
0010
0001
,
1000
0000
0001
0000
1000
0000
0000
0010
0000
0000
0100
0000
0001
0000
1000
0000
,
0100
0000
0010
0000
0001
0000
1000
0000
0100
0010
0000
0001
0000
0000
0001
0000
,
1000
0000
0010
0000
1000
0000
0001
0100
0000
0001
0100
0000
0010
0000
1000
0000
,
0010
0000
0100
0000
0001
0000
1000
0010
1000
0010
0000
0000
1000
0000
0100
0000
,
0010
0000
0001
0000
0010
0000
0100
1000
0000
0100
0010
0000
0001
0000
0010
0000
,
0001
0100
0010
1000
0100
0010
0100
1000
,
0001
0100
0010
1000
0100
0010
0001
0100
,
0001
0010
0000
0100
1000
0000
0100
0000
1000
0000
0000
0100
0000
0000
0010
0000
,
0001
0000
1000
0000
0010
0000
0000
0100
0000
0000
0001
0000
0010
0000
0100
0000
,
1000
0000
0100
0000
0010
0000
0001
0100
0000
0010
0000
0100
0000
0000
0001
0000
,
1000
0000
0001
0000
0010
0000
0100
1000
0000
0100
1000
0000
0010
0000
0100
0000
,
0001
0100
0000
0010
1000
0000
0100
0000
1000
0001
0000
0100
0001
0000
1000
0000
,
0001
0000
0100
0000
0010
0000
0000
1000
0000
0000
0100
0000
0010
0000
0100
0000
,
1000
0000
0001
0000
0100
0000
0010
1000
0000
0001
0000
0100
0000
0000
0010
0000
,
1000
0000
0100
0000
0010
0000
0000
0001
0000
0000
0001
0000
1000
0000
1001
0000
,
0000
0011
0000
0000
1010
0000
0000
0110
0000
0000
1000
0000
0100
0000
0010
0000
,
0001
0000
1000
0000
0010
0000
1000
0100
1000
0000
0001
0000
1000
0000
0010
0000
,
0100
0000
0001
0000
0010
0000
0100
1000
0000
0001
0000
1000
0000
0000
0100
0000
,
0100
0000
1000
0000
0010
0000
1000
0001
1000
0000
0100
0000
0010
0000
0001
0000
,
2000
0000
0000
3200
0000
0000
0320
0000
0000
0031
0000
0000
0100
0000
0001
0000
,
0010
0000
0100
0000
1000
0000
0000
0010
0000
0000
0100
0000
0000
0010
0000
0000
,
0100
0000
0000
0010
0000
0000
1000
0100
0000
0010
0000
0001
1000
0000
0010
0000
,
0100
0001
0010
0100
1000
0010
0100
0001
,
1001
0000
0010
0200
0301
0100
0010
0010
,
0000
0101
1010
1001
,
0110
0000
0101
0000
0010
1000
0100
0000
,
0011
0000
0000
0000
0000
0000
0000
0000
0000
0000
0000
0000
0000
0000
0000
0000
1001
0000
0000
0000
0000
0000
0000
0000
0000
0000
0000
0000
0000
0000
0000
0000
0010
0000
0000
0000
0000
0000
0000
0000
0000
0000
0000
0000
0000
0000
0000
0000
1000
0000
0000
0000
0000
0000
0000
0000
0000
0000
0000
0000
0000
0000
0000
1000
,
0001
0000
0000
0000
0000
0000
0000
0000
0000
0000
0000
0000
0000
0000
0000
0010
0001
0000
0000
0000
0000
0000
0000
0000
0000
0000
0000
0000
0000
0000
0000
0000
1000
0000
0000
0000
0000
0000
0000
0000
0000
0000
0000
0000
0000
0000
0000
0000
0040
0000
0000
0000
0030
0000
0000
0000
0400
0000
0000
0000
0300
0000
0000
0000
,
0001
0100
0010
1000
0100
0010
0100
1000
,
0010
0100
0001
0010
0001
1000
0100
0010
,
0001
0100
0010
1000
0100
0010
0001
1000
,
0001
0010
0001
0001
0020
0000
0030
0000
,
0100
0000
0000
0000
;

//---------------dance-single - ----------------
#NOTES:
     dance-single:
     :
     Medium:
     6:
     0.487996,0.493027,0.246514,0.184885,0.154071,388.000000,360.000000,28.000000,21.000000,0.000000,0.000000,0.487996,0.493027,0.246514,0.184885,0.154071,388.000000,360.000000,28.000000,21.000000,0.000000,0.000000:
// measure 0
1000
1000
1000
1000
,  // measure 1
0001
0001
0100
0100
,  // measure 2
0001
1000
0001
1000
,  // measure 3
0001
0000
0010
0000
0100
0000
1000
1000
,  // measure 4
0020
0000
0000
0000
0000
0000
0130
0001
,  // measure 5
0200
0000
0320
0000
0000
0000
1030
0001
,  // measure 6
2000
0000
0000
3000
,  // measure 7
1001
0000
1000
0001
,  // measure 8
0001
1001
1000
1010
,  // measure 9
0010
0110
0100
0001
,  // measure 10
0101
0001
1001
1000
,  // measure 11
1010
0000
0010
0000
1000
0000
0010
0010
,  // measure 12
0200
0310
1000
1010
,  // measure 13
0010
0110
0100
0101
,  // measure 14
0100
0110
1000
0001
,  // measure 15
0110
0000
0000
2002
0000
3003
1000
0001
,  // measure 16
1000
1001
0001
0101
,  // measure 17
0100
0110
1000
0100
,  // measure 18
0010
1010
0010
0101
,  // measure 19
0010
0000
1010
0000
1000
0000
1000
1000
,  // measure 20
0001
0000
0001
0000
1001
0000
1000
0001
,  // measure 21
0100
0000
0020
0000
0000
0000
1030
0001
,  // measure 22
2000
0000
3000
0000
,  // measure 23
1001
0000
1000
0000
1000
0010
0100
0001
,  // measure 24
0100
0010
0110
1000
,  // measure 25
1010
0000
0001
0000
1000
0010
0100
0000
,  // measure 26
1001
1000
0100
0010
,  // measure 27
0001
0000
0100
0000
0010
0000
0100
0001
,  // measure 28
2000
0000
3010
0000
0100
0001
0100
0000
,  // measure 29
0010
1000
0010
0000
0100
0001
0100
0000
,  // measure 30
0010
1000
0010
0000
1000
0000
0001
0000
,  // measure 31
0011
0000
0000
2002
0000
3003
1000
0010
,  // measure 32
1000
1010
0100
0010
,  // measure 33
0001
0000
0010
0000
0001
0001
1000
0000
,  // measure 34
0100
0010
0001
1000
,  // measure 35
0100
0000
0010
0000
0200
0000
0310
1000
,  // measure 36
0020
0000
0000
0000
0000
0000
0130
0010
,  // measure 37
2000
0000
3200
0000
0000
0000
1300
0010
,  // measure 38
1000
0000
0100
0000
0010
0000
0001
0010
,  // measure 39
0001
0000
1001
1000
,  // measure 40
0001
0010
0010
0000
,  // measure 41
1000
0100
0100
0000
,  // measure 42
0001
0010
0010
0000
,  // measure 43
0010
0000
0000
0000
0100
0000
0000
0001
0000
0000
1000
0000
0100
0000
0000
0000
,  // measure 44
0010
0001
1000
0100
,  // measure 45
1000
0000
0000
0000
0010
0000
0000
1000
0000
0000
0100
0000
0010
0000
0000
0000
,  // measure 46
0001
0100
0010
0100
,  // measure 47
0001
1000
0001
1000
0001
1000
0001
1000
,  // measure 48
0010
0000
0000
0000
1000
0000
0000
0010
0000
0000
0100
0000
0001
0000
0000
0000
,  // measure 49
1000
0000
0000
0000
0100
0000
0010
0000
0000
0001
0000
1000
0000
0000
0001
0000
,  // measure 50
1000
0000
0000
0000
0010
0000
0000
0100
0000
0000
0001
0000
0010
0000
0000
0000
,  // measure 51
0100
0000
0000
0000
1000
0000
0000
0010
0000
1000
0000
0010
0000
0000
0000
0000
,  // measure 52
1000
0000
0001
0000
1000
0000
0000
0100
0000
0000
0010
0000
0001
0000
0000
0000
,  // measure 53
0100
0010
0010
1000
,  // measure 54
0001
1000
0001
1000
0001
1000
0001
1000
,  // measure 55
0001
0100
0010
0000
,  // measure 56
0001
0000
0000
0000
0010
0000
0000
0100
0000
0000
1000
0000
0010
0000
0000
0000
,  // measure 57
1000
0000
0000
0000
0010
0000
0000
0100
0000
0010
0000
0100
0000
0000
0000
0000
,  // measure 58
1000
0000
0010
0000
1000
0000
0000
0100
0000
0000
1000
0000
0010
0000
0000
0000
,  // measure 59
0100
0000
0001
0100
0010
0000
1000
0100
,  // measure 60
1000
0000
0000
0000
1000
0000
0000
0100
0000
0000
0010
0000
0001
0000
0000
0000
,  // measure 61
1000
0000
0000
0000
0001
0000
0000
1000
0000
0001
0000
0100
0000
0000
0000
0000
,  // measure 62
0001
0000
0000
0000
0010
0000
0000
0001
0000
0000
0010
0000
0001
0000
1000
0000
,  // measure 63
0000
0010
0000
0000
0100
0000
0000
0010
0000
0000
1000
0000
0100
0000
0010
0000
,  // measure 64
0001
0000
0000
0000
0100
0000
0000
0010
0000
0000
1000
0000
0100
0000
0000
0000
,  // measure 65
0010
0000
0000
0000
0001
0000
0000
0100
0000
0010
0000
1000
0000
0000
0000
0000
,  // measure 66
0100
0000
1000
0000
0010
0000
0000
1000
0000
0000
0100
0000
0010
0000
0000
0000
,  // measure 67
0001
0000
0000
0100
0000
0000
0010
0000
0000
0100
0000
0000
0001
0000
0010
0000
,  // measure 68
0001
0000
0000
0000
1000
0000
0000
0010
0000
0000
0100
0000
0000
0010
0000
0000
,  // measure 69
0100
0000
0000
0010
0000
0000
0000
1000
0000
0010
0000
1000
0000
0000
0000
0000
,  // measure 70
0100
0010
0100
0010
0001
0100
0001
0100
,  // measure 71
0010
0000
1000
0000
0001
0000
0010
0010
,  // measure 72
0000
0001
0010
0100
,  // measure 73
1000
0000
0010
0000
0100
1000
0100
0000
,  // measure 74
0010
0001
0010
0100
,  // measure 75
0010
0000
0100
0000
0100
0000
0001
0100
,  // measure 76
0002
0000
0000
0000
0000
0000
0103
0010
,  // measure 77
2000
0000
3002
0000
0000
0000
0013
0100
,  // measure 78
0020
0000
0000
0030
,  // measure 79
0001
0001
0020
0030
,  // measure 80
0100
0000
0000
0000
;
