#TITLE:Distant Horizon feat. Kanae Asaba;
#SUBTITLE:;
#ARTIST:aran;
#TITLETRANSLIT:;
#SUBTITLETRANSLIT:;
#ARTISTTRANSLIT:;
#GENRE:;
#CREDIT:;
#BANNER:[Round B] - Distant Horizon feat. Kanae Asaba.png;
#BACKGROUND:[Round B] - Distant Horizon feat. Kanae Asaba-bg.png;
#LYRICSPATH:;
#CDTITLE:cdtitle.png;
#MUSIC:[Round B] - Distant Horizon feat. Kanae Asaba.ogg;
#OFFSET:-1.371000;
#SAMPLESTART:90.514000;
#SAMPLELENGTH:15.000000;
#SELECTABLE:YES;
#BPMS:0.000000=175.000000
;
#STOPS:
;
#BGCHANGES:;
#KEYSOUNDS:;
#ATTACKS:;

//---------------dance-single - ----------------
#NOTES:
     dance-single:
     9646_ESP:
     Hard:
     8:
     0.457649,0.611357,0.259973,0.368994,0.000000,382.000000,351.000000,31.000000,44.000000,0.000000,0.000000,0.457649,0.611357,0.259973,0.368994,0.000000,382.000000,351.000000,31.000000,44.000000,0.000000,0.000000:
0000
0000
0000
0000
,
0000
0000
0000
0000
,
0000
0000
0000
0000
,
0000
0000
0000
0000
,
0000
0000
0000
0000
,
0000
0000
0000
0000
,
0000
0000
0000
0000
,
0000
0000
0000
0000
,
0000
0000
0000
0000
,
0002
0000
0000
0000
,
0200
0000
0000
0003
,
2000
0000
0000
0000
,
0300
0000
0000
0000
,
0020
0000
0000
0000
,
3000
0000
0000
0000
,
0200
0000
0000
0000
,
0330
0000
0000
0000
,
2010
0000
3001
1000
0100
0010
0100
0010
,
0001
1000
0100
0010
0001
0100
0010
1000
,
0002
0000
0013
0100
1000
0010
1000
0010
,
0100
0001
1000
0010
0100
0001
0010
0100
,
2000
0100
0100
0000
3002
0100
0100
0000
,
2003
0010
0010
0000
3002
0010
0010
0000
,
1003
0100
0010
0000
0001
1000
0010
0000
,
0100
0010
0100
0010
1000
0002
0000
0103
,
0102
0000
1003
0001
0010
0100
0010
0100
,
1000
0100
0001
0100
1000
0100
0010
0001
,
2000
0000
3010
0001
0010
1000
0010
1000
,
0001
0100
0010
1000
0001
0010
0100
0010
,
0002
0010
0010
0000
2003
0010
0010
0000
,
3002
0100
0100
0000
2003
0100
0100
0000
,
3001
0010
0100
0000
0010
0001
1000
0000
,
0010
0100
0010
0100
0001
2000
0000
3010
,
0110
0000
1010
0000
1001
0000
0100
0010
,
0001
0000
1100
0000
1010
0000
0001
0010
,
0100
0101
0110
2100
,
3010
0000
0011
0000
1010
0000
0001
0100
,
0010
1010
1002
0103
,
0110
1100
0101
2010
,
0001
0100
0001
0100
,
0020
0000
0000
3030
,
0220
0000
0000
0030
,
0002
0000
0000
0000
0300
0000
1003
0200
,
0020
0000
0000
0000
,
0300
0000
0000
0000
0000
0000
0031
2000
,
0020
0000
0000
0000
,
3000
0000
0000
0000
0000
0000
1030
0200
,
0020
0300
0002
0030
,
2000
0000
0003
0000
,
3020
0000
0000
0000
0000
0000
0031
0020
,
2000
0000
0000
0000
0030
0000
3100
0020
,
0200
0000
0000
0000
,
0030
0000
0000
0000
0000
0000
1300
0002
,
2000
0000
0000
0000
,
0003
0000
0000
0000
0000
0000
3010
0200
,
0002
0000
0000
0000
,
0300
0000
0000
0003
,
1100
0000
1001
0000
0110
0000
0001
1000
,
0010
0000
0101
0000
1100
0000
0001
0100
,
0010
0000
1010
0000
0011
0000
0100
1000
,
0010
0000
1001
0000
0011
0001
0100
0010
,
1000
0100
1000
0100
0001
0100
0001
0100
,
1000
0010
1000
0010
0001
0010
0001
0010
,
1000
0100
0010
0001
0100
0010
1000
0100
,
0010
0000
0010
0000
0010
0100
1001
0000
,
0110
0001
1000
0001
0010
0001
1000
0010
,
0001
0010
0001
0010
0100
0010
1000
0100
,
0010
0001
0010
0100
0001
0100
0010
0001
,
1000
0001
0010
0001
1000
0100
0010
0010
,
0100
1000
0001
1000
0010
1000
0100
0010
,
0001
0100
0010
0100
1000
0100
0010
1000
,
0001
0100
0010
0100
0001
1000
0100
0010
,
0001
1000
0100
1000
0001
0100
0010
1000
,
0001
0001
1000
1000
0100
0100
0010
0001
,
1000
1000
0010
0010
0001
0001
0010
1000
,
0100
0100
0010
0010
0001
0001
1000
0100
,
0001
0001
0100
0100
0010
0100
1000
0001
,
1000
0100
0001
0001
0100
1000
0010
0010
,
0100
0001
0010
0010
0001
0100
0010
0010
,
1000
0001
0010
0100
1000
0010
0100
0001
,
0020
0000
0130
1000
0001
0010
0100
1000
,
1100
0000
0000
0000
;

//---------------dance-single - ----------------
#NOTES:
     dance-single:
     9646_DSP:
     Medium:
     6:
     0.346232,0.543428,0.209656,0.293518,0.000000,289.000000,264.000000,25.000000,35.000000,0.000000,0.000000,0.346232,0.543428,0.209656,0.293518,0.000000,289.000000,264.000000,25.000000,35.000000,0.000000,0.000000:
0000
0000
0000
0000
,
0000
0000
0000
0000
,
0000
0000
0000
0000
,
0000
0000
0000
0000
,
0000
0000
0000
0000
,
0000
0000
0000
0000
,
0000
0000
0000
0000
,
0000
0000
0000
0000
,
0000
0000
0000
0000
,
0020
0000
0000
0000
,
0002
0000
0030
0000
,
2000
0000
0000
0000
,
0003
0000
0000
0000
,
0020
0000
0000
0000
,
3000
0000
0000
0000
,
0200
0000
0000
0000
,
0330
0000
0000
0000
,
0100
0000
1001
0000
0001
0010
0100
0000
,
0010
0000
0010
0000
0001
1000
0010
0000
,
0100
0000
1001
0000
1000
0100
0010
0000
,
0001
1000
0010
0000
0100
0010
0100
0010
,
2000
0100
3002
0100
,
2003
0010
3002
0010
,
1003
0100
1000
0000
0001
0100
0001
0000
,
0010
0100
0010
0000
0001
2000
0000
0000
,
3100
0000
1001
0000
1000
0010
0100
0000
,
0010
0000
0010
0000
1000
0001
0010
0000
,
0100
0000
1001
0000
0001
0100
0010
0000
,
1000
0001
0010
0000
0100
0010
0100
0010
,
0002
0100
2003
0100
,
3002
0010
2003
0010
,
3001
0100
0001
0000
1000
0100
1000
0000
,
0010
0100
0010
0000
1000
0002
0000
0100
,
0103
0000
1010
0000
1001
0000
0010
0100
,
0000
0000
0011
0000
1010
0000
0001
0010
,
0000
0100
0110
0100
,
1000
0000
0001
0000
0011
0000
0001
1000
,
0000
0010
0110
0010
,
0002
0023
2030
3200
,
0001
0010
0001
0010
,
2000
0000
0000
3300
,
2002
0000
0003
0000
,
0020
0000
3000
0000
,
0002
0000
0000
0000
,
0030
0000
0000
0000
,
0200
0000
0000
0000
,
0003
0000
0000
0000
,
2000
0300
0020
3000
,
0002
0000
0030
0000
,
0020
0000
0003
0000
,
2000
0000
0030
0000
,
0002
0000
0000
0000
,
3000
0000
0000
0000
,
0020
0000
0000
0000
,
0003
0000
0000
0000
,
0200
0000
0000
0000
,
0030
0000
0000
0000
,
0310
0000
0010
0000
0011
0000
0001
0100
,
0010
0000
0010
0000
1010
0000
1000
0001
,
0010
0000
0010
0000
1100
0000
0001
1000
,
0010
0000
0010
0000
0100
0001
0100
0010
,
1000
0100
1000
0000
0001
0010
0001
0000
,
1000
0010
1000
0000
0001
0100
0001
0000
,
1000
0100
0010
0001
1000
0100
0010
0001
,
0100
0000
0100
0000
0100
0010
1001
0000
,
0100
0000
0010
0000
0011
0000
0001
1000
,
0010
0000
0100
0000
1100
0000
0001
1000
,
0010
0000
0010
0000
0101
0000
0010
1000
,
0100
0000
0100
0000
0001
0100
1000
0000
,
0010
0000
0100
0000
1001
0000
0001
0010
,
1000
0000
0010
0000
0011
0000
0001
1000
,
0010
0000
1000
0001
0010
0000
0100
1000
,
0001
0000
1000
0001
0100
0010
2000
0000
,
3100
0000
0010
0000
0011
0000
0001
1000
,
0010
0000
0100
0000
1100
0000
0001
1000
,
0010
0000
0010
0000
0101
0000
0010
1000
,
0100
0000
0100
0000
0001
0100
1000
0000
,
0001
0010
0001
0000
1000
0100
1000
0000
,
0010
0001
0010
0000
0100
1000
0100
0000
,
0001
0010
0100
1000
0001
0010
0100
1000
,
0020
0000
0130
0001
0010
0100
1000
0000
,
1001
0000
0000
0000
;

//---------------dance-single - ----------------
#NOTES:
     dance-single:
     9646_BSP:
     Easy:
     4:
     0.257577,0.407571,0.176111,0.368994,0.000000,215.000000,194.000000,21.000000,44.000000,0.000000,0.000000,0.257577,0.407571,0.176111,0.368994,0.000000,215.000000,194.000000,21.000000,44.000000,0.000000,0.000000:
// measure 0
0000
0000
0000
0000
,  // measure 1
0000
0000
0000
0000
,  // measure 2
0000
0000
0000
0000
,  // measure 3
0000
0000
0000
0000
,  // measure 4
0000
0000
0000
0000
,  // measure 5
0000
0000
0000
0000
,  // measure 6
0000
0000
0000
0000
,  // measure 7
0000
0000
0000
0000
,  // measure 8
0000
0000
0000
0000
,  // measure 9
0002
0000
0000
0000
,  // measure 10
0203
0000
0000
0000
,  // measure 11
0020
0000
0000
0000
,  // measure 12
0300
0000
0000
0000
,  // measure 13
2000
0000
0000
0000
,  // measure 14
0030
0000
0000
0000
,  // measure 15
0002
0000
0000
0000
,  // measure 16
3003
0000
0000
0000
,  // measure 17
0010
1100
0001
0010
,  // measure 18
0100
1000
0001
0010
,  // measure 19
0100
0100
1000
1000
,  // measure 20
0010
0001
0010
1000
,  // measure 21
0002
0000
0203
0000
,  // measure 22
2300
0000
3020
0000
,  // measure 23
0032
0010
0203
0010
,  // measure 24
0301
1000
0002
0003
,  // measure 25
0100
1010
0001
0100
,  // measure 26
0010
1000
0001
0100
,  // measure 27
0010
0010
1000
1000
,  // measure 28
0100
0001
0100
1000
,  // measure 29
0002
0000
0023
0000
,  // measure 30
2030
0000
3200
0000
,  // measure 31
0302
0100
0023
0100
,  // measure 32
0032
0000
2000
3003
,  // measure 33
0001
0001
0001
0101
,  // measure 34
0010
0010
0010
1001
,  // measure 35
0100
0100
0100
1100
,  // measure 36
0001
0001
0001
0110
,  // measure 37
1000
0100
0001
0100
,  // measure 38
2000
3200
0302
0023
,  // measure 39
2030
0010
3002
0100
,  // measure 40
2000
0000
0000
3003
,  // measure 41
2000
0000
0000
0000
,  // measure 42
3002
0000
0000
0000
,  // measure 43
0020
0000
0000
0000
,  // measure 44
0003
0000
0000
0000
,  // measure 45
0200
0000
0000
0000
,  // measure 46
0030
0000
0000
0000
,  // measure 47
2300
0000
0100
0000
,  // measure 48
0020
0000
3000
0000
,  // measure 49
0032
0000
0000
0000
,  // measure 50
0203
0000
0000
0000
,  // measure 51
2000
0000
0000
0000
,  // measure 52
0300
0000
0000
0000
,  // measure 53
0002
0000
0000
0000
,  // measure 54
3000
0000
0000
0000
,  // measure 55
0020
0000
0000
0000
,  // measure 56
0003
0000
0000
0000
,  // measure 57
0130
0100
1001
0001
,  // measure 58
0010
0010
1100
0001
,  // measure 59
0100
0100
1001
1000
,  // measure 60
0010
0010
0101
1000
,  // measure 61
0100
0100
0001
0001
,  // measure 62
0010
0010
1000
1000
,  // measure 63
0100
0001
0010
1000
,  // measure 64
0100
0100
0100
0110
,  // measure 65
0001
0001
1100
0001
,  // measure 66
0010
0010
0101
1000
,  // measure 67
0001
0001
0110
1000
,  // measure 68
0010
0010
0001
0010
,  // measure 69
1000
1000
0101
1000
,  // measure 70
0010
0010
1100
0001
,  // measure 71
1000
1000
0100
0100
,  // measure 72
0010
0010
0001
0100
,  // measure 73
0010
1000
1100
0100
,  // measure 74
0010
0001
0101
0001
,  // measure 75
1000
0100
0101
0001
,  // measure 76
1000
0010
0011
0001
,  // measure 77
1000
1000
0010
0010
,  // measure 78
0001
0001
0100
0100
,  // measure 79
2000
3020
0032
0203
,  // measure 80
2300
0000
0002
3003
,  // measure 81
0110
0000
0000
0000
;

//---------------dance-single - ----------------
#NOTES:
     dance-single:
     9646_BEG:
     Beginner:
     3:
     0.135378,0.271714,0.025159,0.218042,0.000000,113.000000,110.000000,3.000000,26.000000,0.000000,0.000000,0.135378,0.271714,0.025159,0.218042,0.000000,113.000000,110.000000,3.000000,26.000000,0.000000,0.000000:
0000
0000
0000
0000
,
0000
0000
0000
0000
,
0000
0000
0000
0000
,
0000
0000
0000
0000
,
0000
0000
0000
0000
,
0000
0000
0000
0000
,
0000
0000
0000
0000
,
0000
0000
0000
0000
,
0000
0000
0000
0000
,
0020
0000
0000
0000
,
0030
0000
0000
0000
,
0200
0000
0000
0000
,
0300
0000
0000
0000
,
2000
0000
0000
0000
,
3000
0000
0000
0000
,
0002
0000
0000
0000
,
0003
0000
0000
0000
,
1001
0000
0010
0000
,
0100
0000
0100
0000
,
1000
0000
0010
0000
,
0001
0000
0100
0000
,
2000
0000
3000
0000
,
0002
0000
0003
0000
,
0200
0000
0300
0000
,
0020
0000
0030
0000
,
1000
0000
0100
0000
,
0010
0000
0010
0000
,
0001
0000
0100
0000
,
1000
0000
0010
0000
,
0002
0000
0003
0000
,
2000
0000
3000
0000
,
0020
0000
0030
0000
,
0200
0000
0300
0000
,
0010
0010
0010
0000
,
1000
1000
1000
0000
,
0001
0001
0001
0000
,
1000
1000
1000
0000
,
0100
0000
0010
0000
,
0010
0000
0100
0000
,
2000
0000
3000
0000
,
0020
0000
0030
0000
,
0002
0000
0000
0000
,
0003
0000
0000
0000
,
0020
0000
0000
0000
,
0030
0000
0000
0000
,
0200
0000
0000
0000
,
0300
0000
0000
0000
,
0002
0000
0000
0000
,
0003
0000
0000
0000
,
2000
0000
0000
0000
,
3000
0000
0000
0000
,
0200
0000
0000
0000
,
0300
0000
0000
0000
,
0020
0000
0000
0000
,
0030
0000
0000
0000
,
0002
0000
0000
0000
,
0003
0000
0000
0000
,
1000
0000
1000
0000
,
0010
0000
0010
0000
,
0100
0000
0100
0000
,
0010
0000
0010
0000
,
1000
1000
1000
0000
,
0001
0001
0001
0000
,
0010
0010
0010
0010
,
0020
0000
0000
0030
,
1001
0000
0010
0000
,
1000
0000
0100
0000
,
0001
0000
0100
0000
,
0010
0000
0100
0000
,
1000
0000
0010
0000
,
0001
0000
1000
0000
,
0001
0000
0010
0000
,
1000
0000
0001
0000
,
1000
1000
1000
0000
,
0001
0001
0001
0000
,
0100
0100
0100
0000
,
0010
0010
0010
0000
,
1000
0000
0100
0000
,
0001
0001
0001
0000
,
0200
0300
2000
3000
,
0020
0000
0000
0030
,
1001
0000
0000
0000
;
