#TITLE:Backyun! -悪い女-;
#SUBTITLE:;
#ARTIST:青木千紘/愛海;
#TITLETRANSLIT:Backyun!- Warui Onna-;
#SUBTITLETRANSLIT:;
#ARTISTTRANSLIT:Chihiro Aoki/Manami;
#GENRE:Electropop;
#CREDIT:TiKAL+;
#MUSIC:[Round B] - Backyun! -Warui Onna-.ogg;
#BANNER:[Round B] - Backyun! -Warui Onna-.png;
#BACKGROUND:[Round B] - Backyun! -Warui Onna--bg.png;
#CDTITLE:cdtitle.png;
#SAMPLESTART:57.375;
#SAMPLELENGTH:13.714;
#SELECTABLE:YES;
#OFFSET:-1.661;
#BPMS:0.000=140.000;
#STOPS:;
#ORIGIN:;
#PREVIEWVID:;
#JACKET:Backyun! -Warui Onna--jacket.png;
#CDIMAGE:;
#DISCIMAGE:;
#BGCHANGES:0.000=Backyun! -Warui Onna-.avi=1.000=0=0=0=StretchNoLoop==CrossFade_Fastest==,
99999.000=-nosongbg-=1.000=0=0=0=StretchNoLoop====
;
#FGCHANGES:;

//--------------- dance-single - TiKAL ----------------
#NOTES:
     dance-single:
     TiKAL:
     Challenge:
     10:
     0,0,0,0,0:
0000
0000
0000
0000
,
0000
0000
0000
0000
,
0000
0000
0000
0000
,
0000
0000
0000
0000
,
1001
0000
0000
0000
0100
0000
0000
0000
0101
0000
0000
0010
0000
0000
1100
0000
,
1001
0000
0000
0000
0100
0000
0000
0000
1100
0000
0000
0010
0000
0000
0101
0000
,
0110
0000
0000
0000
1000
0000
0000
0000
0011
0000
0000
0110
0000
0000
1100
0000
,
1001
0000
1000
0001
1000
0001
1000
0001
0100
0000
0010
0100
0010
1000
0001
0000
,
1100
1000
0000
0001
0001
0100
0100
0001
,
0011
0001
0000
1000
1000
0010
0010
0100
,
0101
0001
0000
1000
1000
0100
0100
1000
,
0010
0000
1000
0001
0010
0000
0001
1000
0010
0000
0100
0001
1000
0000
0100
0000
,
0011
0001
0000
1000
1000
0010
0010
1000
,
1100
1000
0000
0001
0001
0100
0100
0010
,
1010
1000
0000
0001
0001
0010
0010
0001
,
0100
0000
0001
1000
0100
0000
1000
0001
0100
0000
0010
1000
0001
0000
0010
0000
,
0100
1000
0001
1000
0010
0010
0100
0002
,
0000
2003
0000
3001
0010
0000
0100
1000
,
0001
0100
0010
0100
0001
1000
0100
1000
,
0000
0000
0001
0010
0200
0000
1300
0010
0200
0000
0301
0100
0020
0000
1030
0000
,
0010
1000
0001
1000
0100
0100
0010
0002
,
0000
2003
0000
3001
0100
0000
0010
1000
,
0001
0010
0100
0010
0001
1000
0100
1000
,
0000
0000
0001
0100
0020
0000
1030
0100
0020
0000
0031
0010
0200
0000
1300
0000
,
0001
0001
0100
0100
0101
0000
1000
0100
,
M000
0100
0000
0001
1001
0000
0001
0010
,
0001
0100
0010
0100
0001
1000
0000
1010
,
0000
0000
0000
0000
0101
0000
0000
0000
1000
0100
0010
0001
1000
0000
0001
0000
,
1000
1000
0100
0100
1100
0000
0001
0100
,
000M
0100
0000
1000
1001
0000
1000
0010
,
1000
0100
0010
0100
1000
0001
0010
0220
,
0000
0000
0000
0000
,
0000
0000
0000
0330
1000
0000
0001
0000
,
0101
0000
1010
0000
0001
0010
0100
0000
,
1000
0000
0100
1000
0010
0000
0100
0001
0010
0000
0100
1000
0001
0000
0100
0000
,
0000
0010
0010
1000
0001
1000
0100
0020
,
0000
0000
0030
0000
0001
0000
1000
0010
0100
0001
0100
0010
1000
0000
0100
0000
,
1100
0000
0011
0000
1000
0010
0100
0000
,
0001
0000
0100
0001
0010
0000
0100
1000
0010
0000
0100
0001
1000
0000
0100
0000
,
0000
0010
0000
0001
1000
0001
0100
0020
,
0000
0000
1030
0000
0002
0000
1003
0100
0010
0001
0010
0100
2000
0000
3000
0000
,
0002
1103
2000
3101
,
0001
0010
0100
2000
0000
0001
3001
0000
,
2000
3011
0002
1013
,
1000
0000
0010
0000
0100
0000
0002
0000
0000
1000
0000
0000
1003
0000
0000
0000
,
0002
1103
2000
3101
,
0001
0100
0010
2000
0000
0001
3001
0000
,
1000
0100
0011
0000
0001
0100
1010
0000
,
1000
0000
0100
0000
0010
0000
0002
0000
0000
1003
0001
1000
0010
0100
0001
1000
,
0200
0000
1310
0001
0200
0000
0311
1000
,
0100
0010
0100
0010
0001
0010
0100
1000
0001
0100
0001
1000
0010
0100
0001
0100
,
0020
0000
1130
0001
0020
0000
0131
1000
,
0010
0100
0010
0100
0001
0100
0010
1000
0001
0010
0001
1000
0100
0010
0001
0010
,
0200
0000
1310
0001
0200
0000
0311
1000
,
0100
0010
0100
1000
0001
0100
0010
0100
0001
1000
0100
1000
0001
0010
0001
1000
,
0010
1000
1100
0000
0010
0001
0101
0000
,
1000
0100
0010
0002
0000
4003
0000
0000
,
3001
0000
0100
0000
0010
0000
1000
1000
0001
0010
0000
1000
0000
0010
0001
1000
,
0001
0000
0010
0000
0100
0000
1000
0000
0001
0000
0010
0100
1000
0000
0002
0000
,
2000
0000
0000
0000
0000
0000
0000
3003
,
1000
1000
0001
0001
1000
1000
0002
0000
,
0103
0000
0000
0000
0000
0000
0000
0000
0000
0000
0000
0000
0000
0000
0000
0010
0000
0000
0000
0000
0000
0000
0000
0000
0000
0000
0000
0000
0000
0000
0000
0000
1000
0000
0000
0000
0000
0000
0000
0000
0000
0000
0000
0000
0001
0000
0000
0000
0000
0000
0000
0000
0000
0000
0000
1000
0000
0000
0000
0000
0000
0000
0000
0000
;
