#TITLE:BLAST;
#SUBTITLE:;
#ARTIST:Tokyo Machine;
#TITLETRANSLIT:;
#SUBTITLETRANSLIT:;
#ARTISTTRANSLIT:;
#GENRE:CHIPTUNE ELECTRO;
#CREDIT:;
#BANNER:[Round B] - BLAST.png;
#BACKGROUND:[Round B] - BLAST-bg.png;
#LYRICSPATH:;
#CDTITLE:cdtitle.png;
#MUSIC:[Round B] - BLAST.ogg;
#OFFSET:-0.488000;
#SAMPLESTART:75.018997;
#SAMPLELENGTH:15.000000;
#SELECTABLE:YES;
#BPMS:0.000000=128.000000
;
#STOPS:
;
#BGCHANGES:;
#KEYSOUNDS:;
#ATTACKS:;

//---------------dance-single - ----------------
#NOTES:
     dance-single:
     :
     Beginner:
     1:
     0.112128,0.155132,0.064638,0.000000,0.000000,85.000000,78.000000,7.000000,0.000000,0.000000,0.000000,0.112128,0.155132,0.064638,0.000000,0.000000,85.000000,78.000000,7.000000,0.000000,0.000000,0.000000:
// measure 0
0000
0000
0000
0000
,  // measure 1
0000
0000
0000
0000
,  // measure 2
0000
0000
0000
0000
,  // measure 3
0000
0000
0000
0000
,  // measure 4
0000
0000
0000
0000
,  // measure 5
0000
0000
0000
0000
,  // measure 6
0000
0000
0000
0000
,  // measure 7
0000
0000
0000
0000
,  // measure 8
1000
0000
0000
0000
,  // measure 9
1000
0000
1000
0000
,  // measure 10
0001
0000
0000
0000
,  // measure 11
0001
0000
0001
0000
,  // measure 12
1000
0000
0000
0000
,  // measure 13
1000
0000
1000
0000
,  // measure 14
0001
0000
0000
0000
,  // measure 15
0001
0000
0001
0000
,  // measure 16
1001
0000
0000
0000
,  // measure 17
0100
0000
0100
0000
,  // measure 18
1001
0000
0000
0000
,  // measure 19
0100
0000
0100
0000
,  // measure 20
1001
0000
0000
0000
,  // measure 21
0100
0000
0100
0000
,  // measure 22
1000
0000
1000
0000
,  // measure 23
0001
0000
0001
0000
,  // measure 24
1000
0000
1000
0000
,  // measure 25
0010
0000
0000
0000
,  // measure 26
0100
0000
0100
0000
,  // measure 27
0001
0000
1000
0000
,  // measure 28
0001
0000
0001
0000
,  // measure 29
0010
0000
0000
0000
,  // measure 30
0100
0000
0100
0000
,  // measure 31
1000
0000
0001
0000
,  // measure 32
1000
0000
1000
0000
,  // measure 33
0100
0000
0000
0000
,  // measure 34
0010
0000
0010
0000
,  // measure 35
0001
0000
1000
0000
,  // measure 36
0001
0000
0001
0000
,  // measure 37
0100
0000
0000
0000
,  // measure 38
0010
0000
0010
0000
,  // measure 39
1000
0000
0001
0000
,  // measure 40
1000
0000
0000
0000
,  // measure 41
0100
0000
0100
0000
,  // measure 42
0010
0000
0000
0000
,  // measure 43
0001
0000
0001
0000
,  // measure 44
0001
0000
0000
0000
,  // measure 45
0100
0000
0100
0000
,  // measure 46
0010
0000
0000
0000
,  // measure 47
1000
0000
1000
0000
,  // measure 48
1001
0000
0000
0000
,  // measure 49
0010
0000
0010
0000
,  // measure 50
1001
0000
0000
0000
,  // measure 51
0010
0000
0010
0000
,  // measure 52
1001
0000
0000
0000
,  // measure 53
0010
0000
0010
0000
,  // measure 54
1001
0000
0000
0000
,  // measure 55
0010
0000
0010
0000
,  // measure 56
0010
0000
0000
0000
;

//---------------dance-single - ----------------
#NOTES:
     dance-single:
     :
     Easy:
     3:
     0.188638,0.258553,0.064638,0.212383,0.000000,143.000000,136.000000,7.000000,23.000000,0.000000,0.000000,0.188638,0.258553,0.064638,0.212383,0.000000,143.000000,136.000000,7.000000,23.000000,0.000000,0.000000:
// measure 0
0000
0000
0000
0000
,  // measure 1
0000
0000
0000
0000
,  // measure 2
0000
0000
0000
0000
,  // measure 3
0000
0000
0000
0000
,  // measure 4
0000
0000
0000
0000
,  // measure 5
0000
0000
0000
0000
,  // measure 6
0000
0000
0000
0000
,  // measure 7
0000
0000
0000
0000
,  // measure 8
2000
0000
3000
0000
,  // measure 9
0010
0100
0010
0000
,  // measure 10
0002
0000
0003
0000
,  // measure 11
0010
0100
0010
0000
,  // measure 12
2000
0000
3000
0000
,  // measure 13
0100
0010
0100
0000
,  // measure 14
0001
0000
0001
0000
,  // measure 15
0100
0010
0100
0000
,  // measure 16
1001
0000
0100
0000
,  // measure 17
0100
0010
0100
0000
,  // measure 18
1001
0000
0010
0000
,  // measure 19
0010
0100
0010
0000
,  // measure 20
1001
0000
0100
0000
,  // measure 21
0100
0010
0100
0010
,  // measure 22
0001
0001
1000
1000
,  // measure 23
0200
0000
0300
0000
,  // measure 24
1000
0010
0100
0001
,  // measure 25
2000
0000
3001
0000
,  // measure 26
1000
0100
0001
0100
,  // measure 27
2000
0000
3001
0000
,  // measure 28
0001
0010
0100
1000
,  // measure 29
0002
0000
1003
0000
,  // measure 30
0001
0100
1000
0100
,  // measure 31
0002
0000
1003
0000
,  // measure 32
1000
0100
0001
0100
,  // measure 33
2000
0000
3010
0000
,  // measure 34
0100
0001
1000
0100
,  // measure 35
0020
0000
0031
0000
,  // measure 36
0001
0100
1000
0100
,  // measure 37
0002
0000
0013
0000
,  // measure 38
0100
1000
0001
0100
,  // measure 39
0020
0000
1030
0000
,  // measure 40
2000
3000
0001
0100
,  // measure 41
0020
0030
0200
0300
,  // measure 42
0002
0003
1000
0100
,  // measure 43
0020
0030
0200
0300
,  // measure 44
2000
3000
0001
0010
,  // measure 45
0200
0300
0020
0030
,  // measure 46
0002
0003
1000
0010
,  // measure 47
0100
0100
0200
0300
,  // measure 48
1001
0000
0001
1000
,  // measure 49
0010
0100
0001
1000
,  // measure 50
1001
0000
1000
0001
,  // measure 51
0010
0100
1000
0001
,  // measure 52
1001
0000
0001
1000
,  // measure 53
0100
0010
0001
1000
,  // measure 54
1001
0000
1000
0001
,  // measure 55
0100
0010
1000
0001
,  // measure 56
1000
0000
0000
0000
;

//---------------dance-single - ----------------
#NOTES:
     dance-single:
     :
     Medium:
     6:
     0.366723,0.413685,0.166213,0.147745,0.064638,278.000000,260.000000,18.000000,16.000000,0.000000,0.000000,0.366723,0.413685,0.166213,0.147745,0.064638,278.000000,260.000000,18.000000,16.000000,0.000000,0.000000:
// measure 0
0000
0000
0000
0000
,  // measure 1
0000
0000
0000
0000
,  // measure 2
0000
0000
0000
0000
,  // measure 3
0000
0000
0000
0000
,  // measure 4
0000
0000
0000
0000
,  // measure 5
0000
0000
0000
0000
,  // measure 6
0000
0000
0000
0000
,  // measure 7
0000
0000
0000
0000
,  // measure 8
2000
0000
0000
0010
0000
3010
0000
0000
,  // measure 9
1000
0010
1000
0002
0000
0000
1003
0000
,  // measure 10
0002
0000
0000
0010
0000
0013
0000
0000
,  // measure 11
0001
0010
0001
2000
0000
0000
3001
0000
,  // measure 12
2000
0000
0000
0100
0000
3100
0000
0000
,  // measure 13
1000
0100
1000
0002
0000
0000
1003
0000
,  // measure 14
0001
0100
0010
0100
0000
0001
1000
0000
,  // measure 15
0100
0010
0100
0020
0000
0000
0030
0000
,  // measure 16
2001
0000
0000
0000
0010
0000
0000
0010
0000
0010
0000
0000
3010
0000
0000
0000
,  // measure 17
1000
0100
1000
0000
0001
0100
0001
0000
,  // measure 18
1002
0000
0000
0000
0010
0000
0000
0010
0000
0010
0000
0000
0013
0000
0000
0000
,  // measure 19
0001
0100
0001
0000
1000
0100
1000
0000
,  // measure 20
2001
0000
0000
0000
0100
0000
0000
0100
0000
0100
0000
0000
3100
0000
0000
0000
,  // measure 21
1000
0010
1000
0000
0001
0010
0001
0000
,  // measure 22
1000
0001
1000
0001
0010
0100
0010
0100
,  // measure 23
2000
0001
3001
0100
,  // measure 24
1001
0000
1000
0010
1000
0000
0001
0100
,  // measure 25
0010
0000
1000
0001
0010
0000
0001
0000
,  // measure 26
1001
0000
1000
0100
1000
0000
0001
0010
,  // measure 27
0100
0000
1000
0001
0100
0001
1000
0000
,  // measure 28
1001
0000
0001
0010
0001
0000
1000
0100
,  // measure 29
0010
0000
0001
1000
0010
0000
1000
0000
,  // measure 30
1001
0000
0001
0100
0001
0000
1000
0010
,  // measure 31
0100
0000
0001
1000
0100
1000
0001
0000
,  // measure 32
1100
0000
1000
0001
1000
0000
0010
0100
,  // measure 33
0001
0000
1000
0001
0010
0000
0001
0000
,  // measure 34
0011
0000
0100
1000
0100
0000
1000
0001
,  // measure 35
0100
0000
0001
1000
0010
1000
0001
0000
,  // measure 36
0101
0000
0001
1000
0001
0000
0010
0100
,  // measure 37
1000
0000
0001
1000
0010
0000
1000
0000
,  // measure 38
1010
0000
0100
0001
0100
0000
0001
1000
,  // measure 39
0100
0000
1000
0001
0010
0001
1000
0000
,  // measure 40
1001
0000
0001
0100
0001
0000
1000
0010
,  // measure 41
1000
0010
0100
0001
1000
0000
0100
0000
,  // measure 42
1100
0000
1000
0001
0100
0000
0010
1000
,  // measure 43
0001
1000
0001
0010
0100
0010
0001
0000
,  // measure 44
1001
0000
1000
0100
1000
0000
0001
0010
,  // measure 45
0001
0010
0100
1000
0001
0000
0100
0000
,  // measure 46
0001
1000
0001
1000
0100
0000
0010
0000
,  // measure 47
0001
1000
0010
0200
0000
0000
0310
0000
,  // measure 48
2001
0000
0000
0000
0100
0000
0000
0100
0000
0100
0000
0000
3100
0000
0000
0000
,  // measure 49
1000
0000
0001
0100
0000
0010
1000
0000
,  // measure 50
1002
0000
0000
0000
0100
0000
0000
0100
0000
0100
0000
0000
0103
0000
0000
0000
,  // measure 51
0001
0000
1000
0100
0000
0010
0001
0000
,  // measure 52
2001
0000
0000
0000
0010
0000
0000
0010
0000
0010
0000
0000
3010
0000
0000
0000
,  // measure 53
1000
0000
0001
0010
0000
0100
1000
0000
,  // measure 54
1002
0000
0000
0000
0010
0000
0000
0010
0000
0010
0000
0000
0013
0000
0000
0000
,  // measure 55
0001
0000
1000
0010
0000
0100
0001
0000
,  // measure 56
1000
0000
0000
0000
;

//---------------dance-single - ----------------
#NOTES:
     dance-single:
     :
     Hard:
     8:
     0.448510,0.491251,0.221617,0.387830,0.106191,340.000000,316.000000,24.000000,42.000000,0.000000,0.000000,0.448510,0.491251,0.221617,0.387830,0.106191,340.000000,316.000000,24.000000,42.000000,0.000000,0.000000:
// measure 0
0000
0000
0000
0000
,  // measure 1
0000
0000
0000
0000
,  // measure 2
0000
0000
0000
0000
,  // measure 3
0000
0000
0000
0000
,  // measure 4
0000
0000
0000
0000
,  // measure 5
0000
0000
0000
0000
,  // measure 6
0000
0000
0000
0000
,  // measure 7
0000
0000
0000
0000
,  // measure 8
2001
0000
3010
0200
0000
0301
0010
0100
,  // measure 9
2000
0000
3001
0200
0000
0010
0310
0000
,  // measure 10
2010
0000
3100
0020
0000
0031
0100
0010
,  // measure 11
1000
0100
0001
0200
0000
0010
0310
0000
,  // measure 12
1002
0000
0013
0200
0000
1300
0010
0100
,  // measure 13
0002
0000
1003
0200
0000
0010
0310
0001
,  // measure 14
1000
0000
0010
0000
0100
0000
0002
0000
0000
0000
1000
0000
0000
1000
0000
0000
,  // measure 15
1003
0001
0010
0200
0000
0300
0100
0100
,  // measure 16
2001
0000
0000
0000
0010
0000
0000
0010
0000
0010
0000
0000
3010
0000
0000
0000
,  // measure 17
1000
0100
0001
0100
1000
0100
0010
0000
,  // measure 18
1002
0000
0000
0000
0010
0000
0000
0010
0000
0010
0000
0000
0013
0000
0000
0000
,  // measure 19
0001
0100
1000
0100
0001
0100
0010
0000
,  // measure 20
2001
0000
0000
0000
0100
0000
0000
0100
0000
0100
0000
0000
3100
0000
0000
0000
,  // measure 21
1000
0010
0100
0001
0100
0010
1000
0001
,  // measure 22
1000
0100
0010
0001
0010
0100
1000
0001
,  // measure 23
1000
0000
0010
0000
0100
0000
0001
0000
1000
0001
1000
0000
0100
0000
0000
0000
,  // measure 24
2001
0000
3010
0100
0001
0010
1000
0010
,  // measure 25
0002
0000
0103
1000
0100
0010
1000
0000
,  // measure 26
1200
0000
0310
0001
0100
0001
1000
0100
,  // measure 27
0020
0000
0031
1000
0001
0100
0010
1000
,  // measure 28
1002
0000
0013
0100
1000
0010
0001
0010
,  // measure 29
2000
0000
3100
0001
0100
0010
0001
0000
,  // measure 30
0201
0000
0310
1000
0100
1000
0001
0100
,  // measure 31
0020
0000
0000
0000
1030
0000
0010
0000
0100
0010
0100
0000
0001
0000
1000
0000
,  // measure 32
1002
0000
0013
1000
0010
0001
1000
0010
,  // measure 33
0100
0001
1000
0100
0001
0100
1000
0000
,  // measure 34
0012
0000
1003
0010
0001
0010
1000
0001
,  // measure 35
0100
0010
1000
0001
1000
0100
0010
0001
,  // measure 36
2001
0000
3010
0001
0010
1000
0001
0010
,  // measure 37
0100
1000
0001
0100
1000
0100
0001
0000
,  // measure 38
2010
0000
3001
0010
1000
0010
0001
0100
,  // measure 39
0010
0000
1000
0000
0001
0000
0010
0000
0100
0010
0100
0000
1000
0000
0001
0000
,  // measure 40
2001
0000
3010
0001
0010
1000
0100
0010
,  // measure 41
0012
0000
1003
0020
0000
0130
0001
1000
,  // measure 42
1200
0000
0310
0001
0100
1000
0100
0001
,  // measure 43
2001
0000
0000
0100
0000
0000
3200
0000
0000
0000
0310
0000
0001
0000
1000
0000
,  // measure 44
1002
0000
0013
1000
0010
0001
0100
0010
,  // measure 45
2010
0000
3001
0020
0000
0130
1000
0001
,  // measure 46
0100
0000
1000
0000
0100
0000
0020
0000
0000
0000
1000
0000
0000
1000
0000
0000
,  // measure 47
1030
0000
0001
0000
0010
0000
0100
0010
0100
0010
0100
0010
0100
0000
0000
0000
,  // measure 48
2001
0000
0000
0000
0010
0000
0000
0010
0000
0010
0000
0000
3100
0000
0000
0000
,  // measure 49
1000
0010
0001
0010
0000
1000
0100
0000
,  // measure 50
1002
0000
0000
0000
0010
0000
0000
0010
0000
0010
0000
0000
0103
0000
0000
0000
,  // measure 51
0001
0010
1000
0010
0000
0001
0100
0001
,  // measure 52
2001
0000
0000
0000
0100
0000
0000
0100
0000
0100
0000
0000
3010
0000
0000
0000
,  // measure 53
1000
0100
0001
0100
0000
1000
0010
0000
,  // measure 54
1002
0000
0000
0000
0100
0000
0000
0100
0000
0100
0000
0000
0013
0000
0000
0000
,  // measure 55
0001
0100
1000
0100
0000
0001
0010
0001
,  // measure 56
1000
0000
0000
0000
;

//---------------dance-single - ----------------
#NOTES:
     dance-single:
     :
     Challenge:
     9:
     0.564595,0.620527,0.470936,0.341659,0.286255,428.000000,377.000000,51.000000,37.000000,0.000000,0.000000,0.564595,0.620527,0.470936,0.341659,0.286255,428.000000,377.000000,51.000000,37.000000,0.000000,0.000000:
// measure 0
0000
0000
0000
0000
,  // measure 1
0000
0000
0000
0000
,  // measure 2
0000
0000
0000
0000
,  // measure 3
0000
0000
0000
0000
,  // measure 4
0000
0000
0000
0000
,  // measure 5
0000
0000
0000
0000
,  // measure 6
0000
0000
0000
0000
,  // measure 7
0000
0000
0000
0000
0000
0000
0000
0000
0000
0000
0000
0000
1000
0100
0010
0001
,  // measure 8
2000
0000
0000
0000
3010
0000
0200
0000
0000
0000
0301
0000
1000
0000
0100
1000
,  // measure 9
0100
0010
0001
2000
0000
0001
3001
0000
,  // measure 10
0201
0000
0000
0000
0310
0000
2000
0000
0000
0000
3001
0000
0010
0000
0100
1000
,  // measure 11
0100
0000
1000
0000
0001
0000
2000
0000
0000
0000
3010
0000
1000
0000
0010
1000
,  // measure 12
0002
0000
0000
0000
0013
0000
0200
0000
0000
0000
1300
0000
0001
0000
0100
0010
,  // measure 13
0100
0000
0010
0000
1000
0000
0002
0000
0000
0000
1000
0000
1003
0000
0001
0010
,  // measure 14
0001
0000
0010
0000
0100
0000
2000
0000
0000
0000
3002
0000
0000
0100
0000
0000
,  // measure 15
0103
0000
0010
0000
2000
0000
0002
0000
0000
0000
3003
0000
1000
0001
0100
0010
,  // measure 16
1000
0000
0000
0000
1001
0000
0000
1001
0000
1001
0000
0000
1100
0000
0000
0000
,  // measure 17
1000
0010
0001
0010
1000
0100
0010
0001
,  // measure 18
0011
0000
0000
0000
1001
0000
0000
1001
0000
1001
0000
0000
0101
0000
0000
0000
,  // measure 19
0001
0010
1000
0010
0001
0100
0010
1000
,  // measure 20
1100
0000
0000
0000
1001
0000
0000
1001
0000
1001
0000
0000
1010
0000
0000
0000
,  // measure 21
1000
0100
0001
0100
1000
0010
0100
0001
,  // measure 22
0010
1000
0010
0001
1000
0010
0001
0010
,  // measure 23
1000
0100
1000
0100
0010
0001
0010
0001
1000
0001
1000
0000
0010
0000
0100
0000
,  // measure 24
1002
0000
0013
0001
0100
1000
0100
0010
,  // measure 25
2010
0000
0000
0000
3001
1000
0001
0000
0010
0000
1000
0000
0010
0000
0001
0000
,  // measure 26
0102
0000
1003
0100
0001
1000
0010
0001
,  // measure 27
2001
0000
0000
0000
3010
1000
0010
0000
0100
0000
0002
0000
2003
0000
3100
0000
,  // measure 28
2001
0000
3010
1000
0100
0001
0100
0010
,  // measure 29
0012
0000
0000
0000
1003
0001
1000
0000
0010
0000
0001
0000
0010
1000
0010
1000
,  // measure 30
0002
0000
0103
1000
0001
0010
1000
0100
,  // measure 31
0020
0000
0000
0000
0031
1000
0001
0000
1000
0010
0100
0001
1000
0000
0001
0000
,  // measure 32
2001
0000
3100
1000
0010
0001
0010
0100
,  // measure 33
0001
0000
1000
0000
0100
1000
0100
0000
0010
0000
0001
0000
1000
0000
0001
0000
,  // measure 34
0102
0000
1003
0100
0001
0100
1000
0001
,  // measure 35
0100
0000
0010
0000
1000
0001
1000
0000
0100
0000
2000
0000
3002
0000
0103
0000
,  // measure 36
1002
0000
0103
0001
0010
1000
0010
0100
,  // measure 37
1000
0000
0001
0000
0100
0001
0100
0000
0010
0000
1000
0000
0001
1000
0001
1000
,  // measure 38
0020
0000
0031
0010
1000
0100
0001
0100
,  // measure 39
0010
0000
0001
0000
1000
0010
1000
0000
0001
0010
0001
0000
1000
0100
0010
0001
,  // measure 40
2000
0000
0000
0000
3100
0000
0020
0000
0001
0000
0031
0000
1000
0001
1000
0001
,  // measure 41
0100
1000
0100
0002
0000
0013
0100
1000
,  // measure 42
1020
0000
0000
0000
0130
0000
0002
0000
1000
0000
1003
0000
0001
0100
0001
0100
,  // measure 43
0010
0000
1000
0000
0100
0000
0001
0000
0100
0000
1000
0000
0001
0100
0010
1000
,  // measure 44
0002
0000
0000
0000
0103
0000
0020
0000
1000
0000
1030
0000
0001
1000
0001
1000
,  // measure 45
0100
0000
0001
0000
0100
0000
2000
0000
0000
0000
3010
0000
0100
0000
0001
0100
,  // measure 46
0001
0000
1000
0000
0100
0000
0001
0000
0100
0000
1000
0001
1000
0000
0001
0000
,  // measure 47
0010
0000
0100
0000
1000
0000
0001
0100
0001
0100
0010
1000
0010
1000
0001
0000
,  // measure 48
1001
0000
0000
0000
1100
0000
0000
0011
0000
0011
0000
0000
1100
0000
0000
0000
,  // measure 49
1000
0001
0100
0110
0000
0010
1010
0000
,  // measure 50
1001
0000
0000
0000
0101
0000
0000
1010
0000
1010
0000
0000
0101
0000
0000
0000
,  // measure 51
0001
0000
1000
0000
0100
0000
0110
0000
0000
0000
0010
0000
0001
1000
0001
0000
,  // measure 52
1001
0000
0000
0000
1010
0000
0000
0101
0000
0101
0000
0000
1010
0000
0000
0000
,  // measure 53
1000
0001
0010
0110
0000
0100
1100
1000
,  // measure 54
1001
0000
0000
0000
0011
0000
0000
1100
0000
1100
0000
0000
0011
0000
0000
0000
,  // measure 55
0001
0000
1000
0000
0010
0000
0110
0000
0000
0000
0100
0000
0001
0000
1000
0001
,  // measure 56
1000
0000
0000
0000
;
