#TITLE:understand;
#SUBTITLE:(2016 rework);
#ARTIST:kamome sano;
#TITLETRANSLIT:;
#SUBTITLETRANSLIT:;
#ARTISTTRANSLIT:;
#GENRE:DRUM & BASS;
#CREDIT:DaffaK, skeleton by paperpeach;
#BANNER:[Round A] - understand (2016 rework).png;
#BACKGROUND:[Round A] - understand (2016 rework)-bg.png;
#LYRICSPATH:;
#CDTITLE:cdtitle.png;
#MUSIC:[Round A] - understand (2016 rework).ogg;
#OFFSET:-0.055000;
#SAMPLESTART:55.167000;
#SAMPLELENGTH:15.000000;
#SELECTABLE:YES;
#BPMS:0.000000=87.000000
,48.000000=174.000000
,239.000000=168.000000
,240.000000=174.000000
;
#STOPS:
;
#BGCHANGES:;
#KEYSOUNDS:;
#ATTACKS:;

//---------------dance-single - ----------------
#NOTES:
     dance-single:
     :
     Beginner:
     2:
     0.129247,0.180945,0.000000,0.000000,0.000000,114.000000,114.000000,0.000000,0.000000,0.000000,0.000000,0.129247,0.180945,0.000000,0.000000,0.000000,114.000000,114.000000,0.000000,0.000000,0.000000,0.000000:
// measure 0
0000
0000
0000
0000
,  // measure 1
0000
0000
0000
0000
,  // measure 2
0000
0000
0000
0000
,  // measure 3
0000
0000
0000
0000
,  // measure 4
1000
0000
1000
0000
,  // measure 5
0010
0000
0010
0000
,  // measure 6
0001
0000
0100
0000
,  // measure 7
1000
1000
1000
0000
,  // measure 8
0001
0000
0001
0000
,  // measure 9
0010
0000
0010
0000
,  // measure 10
1000
0000
0100
0000
,  // measure 11
0001
0001
0001
0000
,  // measure 12
1000
0000
0000
0000
,  // measure 13
0100
0000
0000
0000
,  // measure 14
0001
0000
0000
0000
,  // measure 15
0100
0000
0000
0000
,  // measure 16
1000
0000
0000
0000
,  // measure 17
0010
0000
0000
0000
,  // measure 18
0001
0000
0000
0000
,  // measure 19
0010
0000
1000
0000
,  // measure 20
0001
0000
0000
0000
,  // measure 21
0100
0000
0000
0000
,  // measure 22
1000
0000
0000
0000
,  // measure 23
0100
0000
0000
0000
,  // measure 24
0001
0000
0000
0000
,  // measure 25
0010
0000
0000
0000
,  // measure 26
1000
0000
0010
0000
,  // measure 27
0001
0000
1000
0000
,  // measure 28
0001
0000
0001
0000
,  // measure 29
0100
0000
0000
0000
,  // measure 30
0100
0000
0100
0000
,  // measure 31
1000
0000
0000
0000
,  // measure 32
1000
0000
1000
0000
,  // measure 33
0010
0000
0000
0000
,  // measure 34
0010
0000
0010
0000
,  // measure 35
0001
0000
0001
0000
,  // measure 36
1000
0000
1000
0000
,  // measure 37
0100
0000
0000
0000
,  // measure 38
0100
0000
0100
0000
,  // measure 39
0001
0000
0000
0000
,  // measure 40
0001
0000
0001
0000
,  // measure 41
0010
0000
0000
0000
,  // measure 42
0010
0000
0010
0000
,  // measure 43
1000
0000
1000
0000
,  // measure 44
0001
0000
0001
0000
,  // measure 45
0010
0000
0000
0000
,  // measure 46
0010
0000
0010
0000
,  // measure 47
1000
0000
0000
0000
,  // measure 48
0001
0000
0001
0000
,  // measure 49
0100
0000
0000
0000
,  // measure 50
0100
0000
0100
0000
,  // measure 51
1000
0000
1000
0000
,  // measure 52
1000
0000
1000
0000
,  // measure 53
0010
0000
0000
0000
,  // measure 54
0010
0000
0010
0000
,  // measure 55
0001
0000
0000
0000
,  // measure 56
1000
0000
1000
0000
,  // measure 57
0100
0000
0000
0000
,  // measure 58
0100
0000
0100
0000
,  // measure 59
0001
0000
0001
0000
,  // measure 60
1000
0000
0000
0000
,  // measure 61
0100
0000
1000
0000
,  // measure 62
0100
0000
0000
0000
,  // measure 63
0001
0000
0100
0000
,  // measure 64
0001
0000
0000
0000
,  // measure 65
0100
0000
0010
0000
,  // measure 66
0100
0000
0000
0000
,  // measure 67
0010
0000
0001
0000
,  // measure 68
0001
0000
0000
0000
,  // measure 69
0100
0000
0001
0000
,  // measure 70
0100
0000
0000
0000
,  // measure 71
1000
0000
0100
0000
,  // measure 72
1000
0000
0000
0000
,  // measure 73
0100
0000
0010
0000
,  // measure 74
0100
0000
0000
0000
,  // measure 75
0010
0000
1000
0000
,  // measure 76
1000
0000
0000
0000
;

//---------------dance-single - ----------------
#NOTES:
     dance-single:
     :
     Easy:
     4:
     0.280034,0.301575,0.023809,0.000000,0.000000,247.000000,244.000000,3.000000,0.000000,0.000000,0.000000,0.280034,0.301575,0.023809,0.000000,0.000000,247.000000,244.000000,3.000000,0.000000,0.000000,0.000000:
// measure 0
0000
0000
0000
0000
,  // measure 1
0000
0000
0000
0000
,  // measure 2
0000
0000
0000
0000
,  // measure 3
0000
0000
0000
0000
,  // measure 4
1000
1000
0001
0000
,  // measure 5
0001
0001
0100
0000
,  // measure 6
0100
0100
0010
0000
,  // measure 7
0010
0010
1000
1000
,  // measure 8
0001
0001
1000
0000
,  // measure 9
1000
1000
0100
0000
,  // measure 10
0100
0100
0010
0000
,  // measure 11
0010
0010
0001
0001
,  // measure 12
1000
0010
0100
0000
,  // measure 13
0001
0100
0010
0000
,  // measure 14
1000
0100
0001
0000
,  // measure 15
0001
0100
1000
0000
,  // measure 16
0001
1000
0010
0000
,  // measure 17
0100
0001
1000
0000
,  // measure 18
0001
0010
1000
0000
,  // measure 19
1000
0010
0001
1000
,  // measure 20
0001
0010
0100
0000
,  // measure 21
1000
0100
0010
0000
,  // measure 22
0001
0100
1000
0000
,  // measure 23
1000
0100
0001
0000
,  // measure 24
1000
0001
0010
0000
,  // measure 25
0100
1000
0001
0000
,  // measure 26
1000
0010
0100
0001
,  // measure 27
0010
0100
1000
1001
,  // measure 28
0001
0100
1000
0100
,  // measure 29
0001
0000
1000
0000
,  // measure 30
0100
0001
0100
1000
,  // measure 31
0010
0100
0001
0000
,  // measure 32
1000
0100
0001
0000
,  // measure 33
1000
0010
0001
0000
,  // measure 34
1000
0010
0100
0001
,  // measure 35
0010
0100
1000
0001
,  // measure 36
1000
0100
0001
0100
,  // measure 37
1000
0000
0001
0000
,  // measure 38
0100
1000
0100
0001
,  // measure 39
0010
0100
1000
0000
,  // measure 40
0001
0100
1000
0000
,  // measure 41
0001
0010
1000
0000
,  // measure 42
0001
0010
0100
1000
,  // measure 43
0010
0100
0001
1000
,  // measure 44
0001
0100
1000
0100
,  // measure 45
0001
0010
1000
0000
,  // measure 46
0001
0100
1000
0100
,  // measure 47
0010
0001
1000
0000
,  // measure 48
0010
0001
1000
0000
,  // measure 49
0100
0001
1000
0000
,  // measure 50
0100
0010
0001
1000
,  // measure 51
0010
0100
0001
0001
,  // measure 52
1000
0100
0001
0100
,  // measure 53
1000
0010
0001
0000
,  // measure 54
1000
0100
0001
0100
,  // measure 55
0010
1000
0001
0000
,  // measure 56
0010
1000
0001
0000
,  // measure 57
0100
1000
0001
0000
,  // measure 58
0100
0010
1000
0001
,  // measure 59
0010
0100
1000
1001
,  // measure 60
0001
0100
0000
1000
,  // measure 61
0100
0001
1000
0100
,  // measure 62
0001
0100
0000
1000
,  // measure 63
0010
0001
0010
1000
,  // measure 64
0001
0100
0000
0010
,  // measure 65
1000
0100
0001
0100
,  // measure 66
1000
0010
0000
0100
,  // measure 67
0001
1000
0100
0100
,  // measure 68
1000
0100
0000
0001
,  // measure 69
0100
1000
0001
0100
,  // measure 70
1000
0100
0000
0001
,  // measure 71
0010
1000
0010
0001
,  // measure 72
1000
0100
0000
0010
,  // measure 73
0001
0100
1000
0100
,  // measure 74
0001
0010
0000
0100
,  // measure 75
1000
0001
0100
0100
,  // measure 76
1001
0000
0000
0000
;

//---------------dance-single - ----------------
#NOTES:
     dance-single:
     :
     Medium:
     7:
     0.438758,0.452363,0.206341,0.587278,0.000000,387.000000,361.000000,26.000000,74.000000,0.000000,0.000000,0.438758,0.452363,0.206341,0.587278,0.000000,387.000000,361.000000,26.000000,74.000000,0.000000,0.000000:
// measure 0
0000
0000
0000
0000
,  // measure 1
0000
0000
0000
0000
,  // measure 2
0000
0000
0000
0000
,  // measure 3
0000
0000
0000
0000
,  // measure 4
2001
0000
3020
0000
0130
0001
1000
0000
,  // measure 5
1002
0000
0203
0000
0310
1000
0100
0001
,  // measure 6
0200
0000
2300
0000
3001
0100
0010
0000
,  // measure 7
2010
0000
3002
0000
0013
0100
1000
0000
,  // measure 8
1002
0000
0023
0000
0130
1000
0001
0000
,  // measure 9
2001
0000
3200
0000
0310
0001
0100
1000
,  // measure 10
0200
0000
0302
0000
1003
0100
0010
0000
,  // measure 11
0012
0000
2003
0000
3010
0100
0001
0000
,  // measure 12
2000
0001
0001
0100
,  // measure 13
3020
0001
0001
1000
,  // measure 14
0230
1000
1000
0010
,  // measure 15
0302
0000
1000
0000
1003
0000
0001
0100
,  // measure 16
0002
1000
1000
0100
,  // measure 17
0023
1000
1000
0001
,  // measure 18
0230
0001
0001
0010
,  // measure 19
2300
0000
0001
0000
3001
0000
1000
0100
,  // measure 20
2000
0000
3001
0000
1000
0010
1000
0000
,  // measure 21
0002
0000
1003
0000
0001
0010
0001
0000
,  // measure 22
0200
0000
0310
0000
1000
0001
1000
0000
,  // measure 23
0020
0000
0130
0000
0001
1000
0001
0100
,  // measure 24
0002
0000
1003
0000
0001
0010
0001
0000
,  // measure 25
2000
0000
3001
0000
1000
0010
1000
0000
,  // measure 26
0002
0023
0230
2300
,  // measure 27
3001
0100
0010
1000
0001
0000
1001
0000
,  // measure 28
2000
0100
3002
0100
,  // measure 29
1003
0000
0010
0100
0010
0000
1001
0000
,  // measure 30
0002
0010
2003
0010
,  // measure 31
3001
0000
0100
0010
0100
0010
1000
0000
,  // measure 32
0002
0010
0023
0100
,  // measure 33
0230
1000
2300
3001
,  // measure 34
1000
0010
1000
0000
0001
0010
0001
0000
,  // measure 35
1000
0000
0100
0000
0010
0100
0010
0000
,  // measure 36
0002
0100
2003
0100
,  // measure 37
3001
0000
0010
0100
0010
0000
1001
0000
,  // measure 38
2000
0010
3002
0010
,  // measure 39
1003
0000
0100
0010
0100
0010
0001
0000
,  // measure 40
2000
0010
3020
0100
,  // measure 41
0230
0001
0302
1003
,  // measure 42
0001
0010
0001
0000
1000
0010
1000
0000
,  // measure 43
0001
0100
0010
1000
0010
0100
0001
0000
,  // measure 44
2000
0010
3002
0100
,  // measure 45
1003
0000
0100
0010
0100
0000
1001
0000
,  // measure 46
0002
0100
2003
0010
,  // measure 47
3001
0000
0010
0100
1000
0100
0010
0000
,  // measure 48
0002
0100
0203
1000
,  // measure 49
2300
0010
3020
0031
,  // measure 50
1000
0010
1000
0000
0001
0100
0001
0000
,  // measure 51
1000
0000
0010
0000
0100
0010
0100
0000
,  // measure 52
0002
0010
2003
0100
,  // measure 53
3001
0000
0100
0010
0100
0000
1001
0000
,  // measure 54
2000
0100
3002
0010
,  // measure 55
1003
0000
0010
0100
0001
0100
0010
0000
,  // measure 56
2000
0100
3200
0001
,  // measure 57
0302
0010
0023
1030
,  // measure 58
0001
0010
0001
0000
1000
0100
1000
0000
,  // measure 59
0001
0010
0100
1000
0010
0100
0001
0000
,  // measure 60
2001
0000
3100
0000
1000
0001
0100
0000
,  // measure 61
0010
1000
0001
0000
1100
0000
0011
0000
,  // measure 62
0120
0000
0031
0000
1000
0010
0100
0000
,  // measure 63
0001
0100
0010
0000
1000
0001
1000
0000
,  // measure 64
1020
0000
0130
0000
0001
0010
0100
0000
,  // measure 65
1000
0010
0100
0000
0110
0000
1001
0000
,  // measure 66
1200
0000
0310
0000
0001
1000
0010
0000
,  // measure 67
0100
0010
1000
0000
0001
0100
0010
0100
,  // measure 68
0002
0000
0103
0000
0001
1000
0100
0000
,  // measure 69
0010
0001
1000
0000
0101
0000
1010
0000
,  // measure 70
0120
0000
1030
0000
0001
0010
0100
0000
,  // measure 71
1000
0100
0010
0000
0001
1000
0001
0000
,  // measure 72
0021
0000
0130
0000
1000
0010
0100
0000
,  // measure 73
0001
0010
0100
0000
0110
0000
1001
0000
,  // measure 74
0201
0000
0310
0000
1000
0001
0010
0000
,  // measure 75
0001
0100
0001
0100
0010
1000
0010
1000
,  // measure 76
0001
0000
0000
0000
;

//---------------dance-single - ----------------
#NOTES:
     dance-single:
     :
     Hard:
     9:
     0.606552,0.603151,0.507916,0.333320,0.123011,535.000000,471.000000,64.000000,42.000000,0.000000,0.000000,0.606552,0.603151,0.507916,0.333320,0.123011,535.000000,471.000000,64.000000,42.000000,0.000000,0.000000:
// measure 0
0000
0000
0000
0000
,  // measure 1
0000
0000
0000
0000
,  // measure 2
0000
0000
0000
0000
,  // measure 3
0000
0000
0000
0000
,  // measure 4
2001
0000
0000
0000
3100
0000
0000
1000
0001
0000
0100
0000
1000
0000
0100
0000
,  // measure 5
0002
0000
0000
0000
1003
0000
0000
1000
0010
0000
0100
0000
0101
0000
0001
1000
,  // measure 6
0200
0000
0000
0000
0310
0000
0000
0010
0001
0000
1000
0000
0100
0000
0001
0100
,  // measure 7
2000
0000
0000
0000
3001
0000
0000
1000
0010
0000
0100
0000
0001
0010
0100
1000
,  // measure 8
0002
0000
0000
0000
0103
0000
0000
0001
1000
0000
0100
0000
0001
0000
0100
0000
,  // measure 9
2000
0000
0000
0000
3001
0000
0000
0001
0010
0000
0100
0000
1100
0000
1000
0001
,  // measure 10
0200
0000
0000
0000
0310
0000
0000
0010
1000
0000
0001
0000
0100
0000
1000
0100
,  // measure 11
0002
0000
0000
0000
1003
0000
0000
0001
0100
0000
0010
0000
1000
0000
1001
0000
,  // measure 12
0101
0000
1010
0000
1000
0001
0010
0000
,  // measure 13
0001
0100
1000
0100
0001
1000
0100
0000
,  // measure 14
0110
0000
1001
0000
0001
0010
1000
0000
,  // measure 15
0010
0001
1000
0010
0100
0001
1000
0100
,  // measure 16
1100
0000
0011
0000
0001
1000
0100
0000
,  // measure 17
1000
0001
0100
0010
1000
0001
0010
0000
,  // measure 18
0011
0000
1100
0000
1000
0001
0010
0000
,  // measure 19
0100
1000
0001
0100
0010
1000
0100
0000
,  // measure 20
1100
0000
0011
0000
0001
1000
0010
0000
,  // measure 21
1000
0100
0001
0100
1000
0001
0100
0000
,  // measure 22
0110
0000
1001
0000
1000
0010
0001
0000
,  // measure 23
0010
1000
0001
0010
0100
1000
0001
0100
,  // measure 24
0101
0000
1010
0000
1000
0001
0100
0000
,  // measure 25
0001
1000
0100
0010
0001
1000
1001
0000
,  // measure 26
0001
0100
1000
0100
0001
0010
1000
0010
,  // measure 27
0001
1000
0100
0010
0001
1000
1001
0000
,  // measure 28
0201
0000
0310
1000
0002
0000
0013
0100
,  // measure 29
2000
0000
3001
0100
0000
0110
0000
2001
,  // measure 30
0000
3010
0001
0020
0000
0130
0001
1000
,  // measure 31
0000
1100
0000
0011
0000
1001
0000
1000
,  // measure 32
0020
0000
0130
0001
2000
0000
3100
0001
,  // measure 33
0200
0000
0310
0001
1000
0010
0100
0001
,  // measure 34
1000
0100
0001
0200
0000
1300
0010
0100
,  // measure 35
0001
0000
0010
0000
1000
0000
0000
0010
0000
0000
0001
0000
1000
0000
0000
0000
,  // measure 36
1200
0000
0310
0001
2000
0000
3010
0100
,  // measure 37
0002
0000
1003
0100
0000
0110
0000
1002
,  // measure 38
0000
0013
1000
0020
0000
0130
1000
0001
,  // measure 39
0000
0101
0000
1010
0000
1001
0000
0001
,  // measure 40
0020
0000
0130
1000
0002
0000
0103
1000
,  // measure 41
0200
0000
0310
1000
0001
0010
0100
1000
,  // measure 42
0001
0100
1000
0200
0000
0301
0010
0100
,  // measure 43
1000
0000
0001
0000
1000
0000
0100
1000
0000
0001
0100
0000
0001
0000
1000
0000
,  // measure 44
1020
0000
0130
0001
2000
0000
3100
0001
,  // measure 45
0200
0000
0310
0001
0000
0101
0000
2010
,  // measure 46
0000
3001
0010
2000
0000
3010
0001
0100
,  // measure 47
0000
0110
0000
1001
0000
1010
0000
0100
,  // measure 48
0002
0000
1003
0100
0020
0000
0031
0100
,  // measure 49
1000
0100
0001
0010
0100
1000
0001
0100
,  // measure 50
0010
1000
0100
0002
0000
0103
1000
0100
,  // measure 51
0010
0000
0001
0000
1000
0000
0000
0010
0000
0000
0100
0000
0001
0000
0010
0001
,  // measure 52
0020
0000
0130
1000
0002
0000
0103
1000
,  // measure 53
0200
0000
0310
1000
0000
1100
0000
0012
,  // measure 54
0000
1003
0010
0002
0000
0013
1000
0100
,  // measure 55
0000
0110
0000
1001
0000
0011
0000
0100
,  // measure 56
2000
0000
3001
0100
0020
0000
1030
0100
,  // measure 57
0001
0100
1000
0010
0100
0001
1000
0100
,  // measure 58
0010
0001
0100
2000
0000
3100
0001
0100
,  // measure 59
0010
1000
0100
0001
0100
1000
1001
0000
,  // measure 60
1010
0000
0000
0000
0101
0000
0000
0001
1000
0000
0100
0000
0010
0000
0000
0000
,  // measure 61
0001
0100
1000
0100
0010
1000
1100
0000
,  // measure 62
0011
0000
0000
0000
1001
0000
0000
1000
0010
0000
0100
0000
0001
0000
0000
0000
,  // measure 63
1000
0100
0001
1000
0010
0001
1000
0010
,  // measure 64
0110
0000
0000
0000
1001
0000
0000
0001
0100
0000
0001
0000
1000
0000
0000
0000
,  // measure 65
0100
0001
0100
1000
0010
0100
0101
0000
,  // measure 66
1010
0000
0000
0000
1001
0000
0000
0001
0100
0000
0010
0000
1000
0000
0000
0000
,  // measure 67
0001
0010
1000
0001
0100
1000
0001
0010
,  // measure 68
0011
0000
0000
0000
1100
0000
0000
1000
0001
0000
0100
0000
0010
0000
0000
0000
,  // measure 69
1000
0100
0001
0100
0010
0001
0101
0000
,  // measure 70
1010
0000
0000
0000
1001
0000
0000
0001
0010
0000
0100
0000
1000
0000
0000
0000
,  // measure 71
0001
0100
1000
0001
0010
1000
0001
0010
,  // measure 72
0110
0000
0000
0000
1001
0000
0000
1000
0100
0000
1000
0000
0001
0000
0000
0000
,  // measure 73
0100
1000
0100
0001
0010
0100
1100
0000
,  // measure 74
0011
0000
0000
0000
1001
0000
0000
1000
0100
0000
0010
0000
0001
0000
1000
0000
,  // measure 75
0001
0000
0100
0010
0000
0100
0010
0000
0100
0010
0000
0100
0010
0000
1000
0000
,  // measure 76
0001
0000
0000
0000
;

//---------------dance-single - ----------------
#NOTES:
     dance-single:
     :
     Challenge:
     11:
     0.817428,0.874568,0.373001,0.142851,0.539661,721.000000,674.000000,47.000000,18.000000,12.000000,0.000000,0.817428,0.874568,0.373001,0.142851,0.539661,721.000000,674.000000,47.000000,18.000000,12.000000,0.000000:
// measure 0
0000
0000
0000
0000
,  // measure 1
0000
0000
0000
0000
,  // measure 2
0000
0000
0000
0000
,  // measure 3
0000
0000
0000
0000
,  // measure 4
2001
0000
3010
0100
0002
0000
1003
0100
0010
0000
0110
0000
1001
0000
0001
0100
,  // measure 5
0020
0000
1030
0100
0002
0000
0103
1000
0001
0000
0101
0000
2010
0000
3100
0010
,  // measure 6
0002
0000
1003
0010
0200
0000
0301
1000
0010
0000
0101
0000
1001
0000
1000
0100
,  // measure 7
0002
0000
0103
0010
0002
0000
1003
0010
0100
0000
1001
0000
0001
0100
1000
0100
,  // measure 8
0002
0000
0013
0100
2000
0000
3001
0100
0010
0000
0110
0000
1001
0000
1000
0100
,  // measure 9
0020
0000
0031
0100
2000
0000
3100
0001
1000
0000
1100
0000
0012
0000
0103
0010
,  // measure 10
2000
0000
3001
0010
0200
0000
1300
0001
0010
0000
1100
0000
1001
0000
0001
0100
,  // measure 11
2000
0000
3100
0010
2000
0000
3001
0010
1000
0010
0001
0100
0010
1000
1001
0000
,  // measure 12
0101
0000
0000
0000
1010
0000
0000
1000
0100
0000
0001
0000
0100
0000
0010
0000
,  // measure 13
0001
0000
1000
0000
0010
0000
0100
0010
0100
0000
0001
0000
1001
0000
0000
0000
,  // measure 14
1010
0000
0000
0000
0101
0000
0000
0001
1000
0000
0010
0000
0001
0000
0010
0000
,  // measure 15
0100
0000
0001
0000
1000
0000
0100
1000
0100
0000
0010
0000
0001
0000
1000
0000
,  // measure 16
1100
0000
0000
0000
0011
0000
0000
0001
0100
0000
1000
0000
0100
0000
0010
0000
,  // measure 17
1000
0000
0001
0000
0010
0000
0100
0010
0100
0000
1000
0000
1001
0000
0000
0000
,  // measure 18
0011
0000
0000
0000
1100
0000
0000
1000
0001
0000
0010
0000
1000
0000
0010
0000
,  // measure 19
0100
0000
1000
0000
0001
0000
0100
0001
0100
0000
0010
0000
1000
0000
0001
0000
,  // measure 20
1000
0000
0100
0000
1100
0000
0000
1000
0001
0000
0010
0000
1000
0000
0010
0000
,  // measure 21
0001
0000
1000
0000
0010
0000
0100
0001
0100
0000
0001
0000
1001
0000
0000
0000
,  // measure 22
1000
0000
0010
0000
0110
0000
0000
0100
0001
0000
1000
0000
0010
0000
0001
0000
,  // measure 23
0010
0000
0100
0000
0001
0000
1000
0001
1000
0000
0100
0000
0010
0000
0001
0010
,  // measure 24
0001
0000
0100
0000
0101
0000
0000
0001
1000
0000
0010
0000
0001
0000
0010
0000
,  // measure 25
1000
0000
0001
0000
0010
0000
0100
1000
0100
0000
1000
0000
1001
0000
0000
0000
,  // measure 26
0001
1000
0001
1000
0001
1000
0001
1000
0010
0100
0010
0100
0010
0100
0010
0100
,  // measure 27
0001
1000
0100
0010
0001
1000
1001
MMMM
,  // measure 28
0001
0000
1000
0000
0100
0000
0010
0100
0010
0000
0001
0000
1000
0000
0010
0000
,  // measure 29
0100
0000
0001
0000
1000
0000
0010
0100
0010
0000
1000
0000
0100
0000
0001
0000
,  // measure 30
0100
0000
0010
0000
0001
0000
1000
0001
1000
0000
0010
0000
0001
0000
0010
0000
,  // measure 31
0100
0000
0001
0000
1000
0000
0100
1000
0000
0001
0100
0000
0001
0000
1000
0010
,  // measure 32
0100
0000
0001
0000
1000
0000
0100
0010
0100
0000
1000
0000
0001
0010
0001
0000
,  // measure 33
1000
0000
0010
1000
0010
0000
0100
0001
0100
0000
0001
0000
1000
0000
0100
0000
,  // measure 34
0001
0000
0100
0000
1000
0000
0001
1000
0001
0000
0010
0000
1000
0000
0010
0000
,  // measure 35
0001
0000
1000
0000
0010
0000
0100
0001
0000
0001
0010
0000
0100
0000
1000
0100
,  // measure 36
1000
0000
0001
0000
0100
0000
0010
0100
0010
0000
1000
0000
0001
0000
0010
0000
,  // measure 37
0100
0000
1000
0000
0001
0000
0010
0100
0010
0000
0001
0000
0100
0000
1000
0000
,  // measure 38
0100
0000
0010
0000
1000
0000
0001
1000
0001
0000
0010
0000
1000
0000
0010
0000
,  // measure 39
0100
0000
1000
0000
0001
0000
0100
0001
0000
1000
0100
0000
1000
0000
0001
0010
,  // measure 40
0100
0000
1000
0000
0001
0000
0100
0010
0100
0000
0001
0000
1000
0010
1000
0000
,  // measure 41
0001
0000
0010
0001
0010
0000
0100
1000
0100
0000
1000
0000
0001
0000
0100
0000
,  // measure 42
1000
0000
0100
0000
0001
0000
1000
0001
1000
0000
0010
0000
0001
0000
0010
0000
,  // measure 43
1000
0000
0001
0000
0010
0000
0100
1000
0000
1000
0001
0000
1001
0000
MMMM
0000
,  // measure 44
1000
0000
0001
0000
0100
0000
0010
0100
0001
0000
1000
0000
0100
0000
0010
0001
,  // measure 45
0010
0000
0001
0000
1000
0000
0010
0100
0010
0000
0100
0000
0001
0000
0010
0000
,  // measure 46
1000
0000
0010
0000
0001
0000
1000
0010
0100
0000
0010
0000
1000
0000
0001
0000
,  // measure 47
1000
0000
0100
0000
0001
0000
0100
1000
0000
0001
0010
0000
0001
0000
1000
0100
,  // measure 48
1000
0000
0001
0000
0100
0000
0010
1000
0010
0000
0100
0000
0001
0010
0001
0000
,  // measure 49
1000
0000
0100
0010
0100
0000
1000
0001
1000
0000
0010
0000
0001
0000
1000
0000
,  // measure 50
0100
0000
0001
0000
1000
0000
0100
0010
0100
0000
1000
0000
0001
0000
0100
0000
,  // measure 51
0010
0000
1000
0000
0001
0000
0010
0001
0000
1000
0010
0000
0100
0000
0001
1000
,  // measure 52
0001
0000
1000
0000
0100
0000
0010
0100
1000
0000
0001
0000
0100
0000
0010
1000
,  // measure 53
0010
0000
1000
0000
0001
0000
0010
0100
0010
0000
0100
0000
1000
0000
0010
0000
,  // measure 54
0001
0000
0010
0000
1000
0000
0001
0010
0100
0000
0010
0000
0001
0000
1000
0000
,  // measure 55
0001
0000
0100
0000
1000
0000
0100
0001
0000
1000
0010
0000
1000
0000
0001
0100
,  // measure 56
0001
0000
1000
0000
0100
0000
0010
0001
0010
0000
0100
0000
1000
0010
1000
0000
,  // measure 57
0001
0000
0100
0010
0100
0000
0001
1000
0001
0000
0010
0000
1000
0000
0001
0000
,  // measure 58
0100
0000
1000
0000
0001
0000
0100
0010
0100
0000
0001
0000
1000
0000
0100
1000
,  // measure 59
0001
0100
0110
0010
1010
1000
1001
MMMM
,  // measure 60
0001
0000
1000
0000
1100
0000
0000
1000
0001
0000
0100
0000
1000
0000
0100
0010
,  // measure 61
0100
0000
0001
0000
1000
0000
0100
0010
0001
0000
1000
0000
1010
0000
0000
0000
,  // measure 62
1000
0000
0001
0000
0011
0000
0000
0010
0001
0000
1000
0000
0100
0000
1000
0001
,  // measure 63
1000
0000
0010
0000
0100
0000
0001
1000
0100
0000
0010
0000
0001
0000
1000
0001
,  // measure 64
1000
0000
0001
0000
0101
0000
0000
0001
1000
0000
0100
0000
0001
0000
0100
0010
,  // measure 65
0100
0000
1000
0000
0001
0000
0100
0010
1000
0000
0001
0000
0011
0000
0000
0000
,  // measure 66
0001
0000
1000
0000
1010
0000
0000
0010
1000
0000
0001
0000
0100
0000
0001
1000
,  // measure 67
0001
0000
0010
0000
0100
0000
1000
0001
0100
0000
0010
0000
1000
0000
0001
1000
,  // measure 68
0001
0000
0100
0000
0110
0000
0000
0100
0001
0000
1000
0000
0001
0000
0010
0001
,  // measure 69
1000
0000
0010
0000
0001
0000
0010
0100
0001
0000
1000
0000
1100
0000
0000
0000
,  // measure 70
0010
0000
0001
0000
1001
0000
0000
1000
0010
0000
0001
0000
0010
0000
0100
0001
,  // measure 71
1000
0000
0100
0000
0010
0000
0001
1000
0010
0000
0100
0000
0001
0000
1000
0001
,  // measure 72
1000
0000
0100
0000
0110
0000
0000
0100
1000
0000
0001
0000
1000
0000
0010
1000
,  // measure 73
0001
0000
0010
0000
1000
0000
0010
0100
1000
0000
0001
0000
0101
0000
0000
0000
,  // measure 74
0010
0000
1000
0000
1001
0000
0000
0001
0010
0000
1000
0000
0010
0000
0100
1000
,  // measure 75
0001
0000
0100
0001
0000
1000
0100
0000
0010
0001
0000
1000
0010
0000
0100
0001
,  // measure 76
1000
0000
0000
0000
;
