#TITLE:What I Really Want;
#SUBTITLE:;
#ARTIST:Stormtrooper;
#TITLETRANSLIT:;
#SUBTITLETRANSLIT:;
#ARTISTTRANSLIT:;
#GENRE:;
#CREDIT:;
#BANNER:;
#BACKGROUND:;
#LYRICSPATH:;
#CDTITLE:;
#MUSIC:What I Really Want.ogg;
#OFFSET:0.000000;
#SAMPLESTART:30.000000;
#SAMPLELENGTH:12.000000;
#SELECTABLE:YES;
#BPMS:0.000000=200.000000
,204.000000=100.000000
,230.000000=200.000000
,294.000000=151.000000
,300.000000=200.000000
,384.000000=100.000000
;
#STOPS:
;
#BGCHANGES:;
#KEYSOUNDS:;
#ATTACKS:;

//---------------dance-single - ----------------
#NOTES:
     dance-single:
     :
     Challenge:
     13:
     1.070349,1.957685,0.371868,0.144615,1.284320,1088.000000,1034.000000,54.000000,21.000000,0.000000,0.000000,1.070349,1.957685,0.371868,0.144615,1.284320,1088.000000,1034.000000,54.000000,21.000000,0.000000,0.000000:
0000
0000
0000
0000
,
0000
0000
0000
0000
,
0000
0000
0000
0000
,
1000
0001
1000
0000
0010
0100
0010
0000
1000
0000
0000
0001
0100
0000
0010
1000
,
0200
0000
1300
0002
0000
2003
0000
3002
,
0000
0203
0000
0310
2000
0000
3001
0000
,
2000
0000
3010
0200
0000
0302
0000
1003
,
0000
0000
2000
3000
,
0001
0000
1000
0010
0100
0000
0001
0100
0010
0000
1000
0001
1000
0000
0001
0100
,
0001
0000
1000
0010
0100
0001
0010
0100
1000
0001
0100
0010
1000
0000
0001
0100
,
0010
0000
1000
0100
0010
0001
1000
0000
0010
0000
0100
0001
0100
0000
0010
1000
,
0002
0103
0020
1030
0200
0310
0200
1300
,
0001
0000
0100
0000
0010
1000
0010
0000
0100
0000
0001
0000
1000
0001
1000
0000
,
0001
0000
0100
0010
0100
0001
1000
0000
0010
0000
0100
0000
0001
1000
0010
1000
,
0001
0000
1000
0000
0010
0000
0100
0001
0000
0000
1000
0000
0010
0000
0100
0000
,
0000
0000
0001
0000
0001
0000
0001
0000
1000
0000
0010
0100
0010
0000
1000
0001
,
1000
0010
0100
0001
0010
0100
1000
0001
0100
0010
0100
0001
0010
0001
1000
0010
,
0100
0001
0010
0100
1000
0001
0100
0010
0100
0001
0010
0001
1000
0100
0010
0001
,
1000
0010
0100
0001
0010
0100
1000
0001
0100
0010
0100
0001
1000
0100
0010
0001
,
1000
0010
0100
0001
0100
0010
1000
0100
,
0010
0100
1000
0001
0100
0010
0100
0001
1000
0100
1000
0001
0100
0010
1000
0100
,
0010
0001
1000
0001
0010
0100
0010
0100
1000
0001
1000
0010
1000
0100
0010
0001
,
0100
0010
0100
0001
0010
0100
1000
0001
0100
0010
0100
0001
0010
0001
1000
0100
,
0010
0001
0100
0010
1000
0001
0010
0100
1000
0001
0100
0010
0100
0001
1000
0010
,
1000
0100
0010
0001
1000
0000
0010
0100
0001
0010
0100
1000
0001
0000
1000
0000
,
0001
0100
0010
0100
0001
0000
1000
0010
0100
0001
0010
0100
1000
0000
0001
0100
,
0010
1000
0100
0010
0001
0000
1000
0010
0100
0001
0010
0100
1000
0000
0001
0000
,
1000
0010
0100
0001
1000
0001
0200
0000
0000
0000
0000
0000
,
0301
1000
0001
1000
0001
0000
0100
0010
1000
0100
1000
0001
1000
0000
0010
0000
,
1000
0100
0010
0001
0100
0000
0010
1000
0100
1000
0001
0100
0010
0000
1000
0100
,
0010
0001
0100
0010
1000
0000
0001
0010
0100
1000
0001
0100
0010
0000
1000
0000
,
0001
0000
0100
0010
1000
0000
0100
0010
0200
0000
0000
0000
0310
0000
0000
0000
,
0001
0000
1000
0000
0001
0000
0100
0000
0010
0000
1000
0100
0010
0001
0100
0000
,
0010
0000
1000
0000
0100
0000
0010
0000
0002
0000
0103
0010
1000
0010
0100
0001
,
1000
0010
0100
0001
0010
0100
1000
0001
,
0100
0010
0100
0001
1000
0001
0200
0000
0000
0000
0000
0000
,
0310
1000
0100
1000
0001
0100
0010
0100
,
0001
0000
1000
0000
0100
0000
0010
0000
0001
0000
1000
0000
0010
0100
0010
0100
,
0004
4003
3040
0430
,
0301
0000
1000
0000
0100
0000
1000
0000
0001
0000
0100
0000
0010
1000
0100
0010
,
0001
1000
0010
1010
1000
0001
1001
1000
,
0010
0000
0100
0000
0001
0000
0010
0000
0100
0000
1000
0000
0001
0100
0010
1000
,
0001
0100
0010
0110
0010
1000
1010
0000
,
1000
0010
0100
0001
1000
0010
0200
0000
0000
0000
0000
0000
,
0301
1000
0001
0100
0010
1000
0100
0010
,
0001
0000
0100
0000
0010
0000
1000
0000
0001
0000
0100
0000
0010
1000
0100
0010
,
0001
0100
0010
1000
0001
0000
0100
0000
0010
0000
1000
0100
1000
0000
0001
0000
,
1000
0000
0001
0100
0010
1000
0100
0000
0010
0100
1000
0001
0100
0010
0100
0001
,
1000
0100
0010
0001
0010
0100
1000
0001
,
0100
0010
0100
0001
1000
0100
1000
0001
,
0100
0010
0100
0001
0010
0100
1000
0001
,
0100
0000
0010
0000
1010
0000
1010
0000
1000
0010
0100
0001
0010
0000
0100
1000
,
0001
0100
0010
1000
0100
0000
0010
0000
0001
0100
0010
1000
0100
0000
0010
0001
,
1000
0010
1000
0100
1000
0000
0000
0010
0100
0001
0010
0100
1000
0000
0001
0100
,
0010
0100
0001
1000
0100
0000
0010
0000
0011
0001
0100
0010
1000
0000
0100
0010
,
0100
1000
0001
0100
0010
0010
1000
0100
0010
0010
0001
0100
0010
0010
1000
0100
,
1000
1000
0010
0100
0001
0010
0100
1000
0001
0100
0010
0000
1000
0010
1000
0001
,
0100
0010
0001
1000
1010
0000
1010
0000
,
0011
1001
1001
0110
,
0011
0000
1001
0000
0001
0100
0001
0010
,
0001
1000
0001
0010
0001
0000
1001
0000
,
0010
0000
0100
0000
0010
1000
0100
1000
,
0001
0010
0100
1000
0001
0100
0010
0100
,
0001
0010
0100
1000
0001
0100
0010
1000
,
0100
0010
0004
0000
0100
0000
0013
0000
,
2000
0000
0000
3000
0000
0000
1001
0000
1010
0000
0110
0000
,
0101
0000
0011
0000
1001
0000
1010
0000
0110
0000
0101
0000
,
1001
0000
0101
0000
0110
0000
1010
0000
1100
0000
1001
0000
,
1010
0000
0110
0000
1001
0000
0010
0000
0000
0100
0000
0000
,
0010
0000
0000
1000
0000
0000
1001
0000
0010
1000
0010
0000
,
0110
0000
0100
0001
0100
0000
1010
0000
1000
0001
0100
0000
,
0110
0000
0010
1000
0100
0000
0110
0000
0010
0001
0100
0000
,
1010
0000
1000
0001
0100
0000
0010
0000
0000
0000
0000
0000
,
0000
0000
0000
0000
0000
0000
0000
0000
0000
0000
0000
0000
1001
0000
0000
0000
0001
0010
0001
0000
0000
0000
1000
0100
,
1000
0000
0000
0000
0001
1000
0100
0000
0000
0000
0010
0001
0100
0000
0000
0000
0010
1000
0100
0000
0000
0000
0010
0001
,
1000
0000
0010
0000
0100
0000
0001
0000
0010
0000
0001
0000
,
1000
0000
0000
0000
,
0001
0100
0010
1000
0100
0010
0001
1000
,
1001
0001
0100
0010
1000
0100
0010
0001
,
1000
0010
1010
0000
0101
0000
1001
0000
,
0110
0000
0000
0000
0000
0000
1010
0000
0000
0000
0000
0000
0101
0000
0000
0000
0000
0000
0001
1000
0001
1000
0001
1000
,
0001
0010
0100
1000
0001
0100
0010
1000
,
0001
0100
1000
0100
0001
0010
1000
0010
,
0001
0100
1000
0100
0001
1000
0100
0010
,
0001
0100
0010
1000
0001
0000
1000
0000
,
1001
0001
0100
0010
1010
1000
0100
0010
,
0011
0001
0100
0010
1010
1000
0001
1000
,
1001
0100
0010
1000
,
0002
0000
0003
0000
,
1001
0001
0100
0010
1000
0100
0010
0001
,
1000
0010
1000
0100
0010
0001
1000
0100
,
1000
0010
0100
0001
0010
0100
1000
0001
,
0100
0010
0100
0001
0010
0000
0100
0000
,
1000
0010
0100
0001
0010
0100
1000
0001
0100
0010
0100
0001
0010
0001
1000
0100
,
0010
0100
1000
0001
0100
0010
0100
0001
0010
0100
1000
0001
0100
0010
0100
0001
,
0010
0001
1000
0100
0010
0001
1000
0010
0100
0001
0010
0100
1000
0001
0100
0010
,
0100
0000
0000
0000
0000
0000
0000
0000
0010
0000
0000
0000
0100
0000
0000
0000
0001
1000
0100
0010
0001
0000
1000
0010
0100
0001
0010
0100
1000
0000
0001
0000
,
0100
0010
0100
0001
1000
0000
0100
0010
0001
0100
0010
1000
0001
0000
0000
1000
0100
0010
0100
1000
0001
0000
0100
0010
1000
0100
1000
0001
0100
0000
0010
0000
,
1000
0100
0010
0001
1000
0000
0010
0100
0001
0010
0100
1000
0001
0000
0000
0000
1000
0010
1000
0100
1000
0000
0001
0100
0010
0100
0001
0010
0001
0000
0100
0000
,
0100
0010
1000
0100
1000
0000
0001
0100
0010
1000
0100
0010
0001
0000
0000
1000
0100
0010
0001
0010
0100
0000
1000
0010
0100
0001
0010
0100
1000
0000
0010
0000
,
0100
0001
0010
0100
0010
0000
0001
0100
0010
1000
0001
0010
0100
0000
0000
0000
1000
0001
0100
0010
1000
0000
0001
0100
0010
1000
0100
0010
0001
0000
1000
0000
,
0010
0100
0001
0010
0100
0000
1000
0010
0100
0001
0010
0100
1000
0000
0000
0010
0100
0001
0010
0100
1000
0000
0001
0100
0001
1000
0100
0010
0001
0000
1000
0000
,
0010
0100
0001
0100
0010
0000
1000
0100
0010
0100
1000
0010
0100
0010
1000
0100
0010
0000
0100
0000
1000
0000
0010
0000
0100
0000
0001
0000
0010
0000
0100
0000
,
1000
0010
0100
0001
1000
0100
0010
0001
1000
0010
1000
0000
0001
0000
0000
0000
0000
0000
0000
0000
0000
0000
0000
0000
0000
0000
0000
0000
0000
0000
0000
0000
;

//---------------dance-single - ----------------
#NOTES:
     dance-single:
     :
     Hard:
     11:
     0.828340,1.137639,0.475164,0.110183,0.643882,842.000000,773.000000,69.000000,16.000000,0.000000,0.000000,0.828340,1.137639,0.475164,0.110183,0.643882,842.000000,773.000000,69.000000,16.000000,0.000000,0.000000:
0000
0000
0000
0000
,
0000
0000
0000
0000
,
0000
0000
0000
0000
,
1000
0001
1000
0000
0010
0100
0010
0000
1000
0000
0000
0001
0100
0000
0010
1000
,
0002
0000
0103
0020
0000
2030
0000
3020
,
0000
0230
0000
0301
2000
0000
3010
0000
,
0200
0000
0301
0200
0000
0310
0000
0100
,
0000
0000
0000
0000
,
0001
0100
1000
0100
0001
0100
0010
1000
,
0100
0010
0001
0100
0010
1000
0001
0010
,
1000
0000
0010
0000
0001
0000
0100
0000
0001
0000
0100
0010
1000
0000
0010
0100
,
0010
1010
1001
0101
,
1000
0000
0100
0000
1100
0000
1000
0000
0001
0000
1000
0001
1000
0000
0001
0000
,
0100
0000
0001
1000
0001
0000
1000
0000
0001
0100
0010
0000
1000
0000
0100
0000
,
0001
0100
1000
0010
0100
0001
0010
0100
,
1100
0000
0000
0000
1001
0000
0000
0000
1001
0000
0001
0100
0010
0000
1000
0001
,
1000
0100
0010
0001
0100
0010
0100
0001
,
0010
0000
0100
0000
1000
0000
0001
0000
0100
0010
1000
0100
1000
0001
0100
0000
,
0010
1000
0100
0010
0001
0100
0010
1000
,
1010
0110
1001
0101
,
0001
0000
0100
0000
0010
0000
1000
0000
0001
1000
0001
0000
1000
0001
1000
0000
,
0010
0000
0100
0001
0100
0010
1000
0100
0010
0100
1000
0001
0100
0010
1000
0001
,
0100
0220
0330
0010
,
1001
1100
1001
0001
,
1000
0100
0010
0001
1000
0000
0001
0100
0010
0100
0001
0100
0010
0000
1000
0000
,
0001
0010
0100
0010
0001
0000
1000
0100
0010
0001
1000
0000
0010
0000
0000
1000
,
0100
0010
0001
0010
0100
0000
1000
0010
0100
0010
0100
0001
0100
0000
0010
0000
,
1000
0100
0010
0001
0100
0010
2000
0000
0000
3000
0000
0000
,
1001
0000
0001
0000
0100
0000
0010
1000
0010
1000
0010
1000
0010
0000
0100
0000
,
0001
0010
0100
1000
0100
0000
0010
0001
0100
0010
0100
0001
1000
0000
0000
0010
,
1000
0100
1000
0010
0100
0000
0001
0010
0100
1000
0100
0010
0001
0000
1000
0000
,
0010
0000
0100
0001
0100
0000
0010
1000
0100
0000
0000
0000
0000
0000
0000
0000
,
0010
0001
0010
0001
0010
0001
0010
0001
,
1000
0000
0010
0000
1000
0000
0010
0000
0100
0000
0001
0000
0010
0100
1000
0001
,
0010
0100
1000
0001
0100
0010
1000
0100
,
0010
0001
0100
0010
1000
0001
0200
0000
0000
0300
0000
0000
,
1000
0010
0001
0010
1000
0100
0001
0100
,
1000
0000
0001
0000
0100
0000
0010
0000
1000
0000
0100
0000
0010
0001
0010
0001
,
1000
1001
0110
1001
,
1000
0000
0000
0000
,
0001
0100
1000
0100
0001
1000
0100
0001
,
0100
0000
0010
0000
0001
0000
0100
0000
0010
0000
1000
0000
0001
0100
0010
0100
,
0001
1000
0100
0010
0001
0100
0010
1000
,
0001
0100
0010
1000
0100
0010
0200
0000
0000
0300
0000
0000
,
1000
0000
0001
0000
0100
0000
0010
0000
0000
0000
1000
0001
1000
0000
0010
0000
,
0000
0000
0100
0001
0100
0000
0010
0000
0000
0000
1000
0000
0001
0100
0010
1000
,
0100
0000
0010
0000
0100
0000
1000
0000
0000
0000
0001
1000
0001
0000
0010
0000
,
0000
0000
0100
1000
0100
0000
0010
0000
0001
0100
0010
1000
0100
0010
0100
1000
,
0001
0100
0010
1000
,
0100
0010
0100
1000
,
0001
0100
0010
1000
,
0100
0000
0000
0000
0000
0000
0000
0000
0001
0010
1000
0010
0001
0000
1000
0100
,
0001
0100
0010
0001
1000
0000
0001
0000
1000
0010
0001
0010
1000
0000
0001
0100
,
1000
0001
0010
1000
0100
0000
0000
0010
0001
1000
0100
0001
0100
0000
0010
0001
,
1000
0010
0001
0010
1000
0000
0001
0000
1000
0100
0001
0100
1000
0000
0001
0010
,
0100
1000
0100
0010
0001
0100
0100
1000
0001
0010
0010
1000
0001
0100
0100
0010
,
0001
0100
0010
1000
0010
0100
0001
0010
0100
0000
1000
0000
0001
0100
0010
1000
,
1010
0000
0000
0000
0001
0100
0001
0100
,
0010
1000
0010
1000
1010
0000
0110
0000
,
1001
0000
0110
0000
0001
0100
0010
1000
,
0100
0010
0001
0100
0101
0000
1010
0000
,
0010
0000
0100
0000
0001
0100
0010
1000
,
0100
0010
0001
1000
1001
0000
0110
0000
,
1001
0101
0010
1000
,
0100
0010
0001
1000
,
0001
0000
0000
0000
0000
0000
1100
0000
1000
0000
0010
0000
,
1010
0000
0100
0000
0001
0000
0101
0000
0010
0000
1000
0000
,
1010
0000
0100
0000
0001
0000
0101
0000
0010
0000
1000
0000
,
1001
0000
0100
0000
1000
0000
1100
0000
0000
0010
0000
0000
,
0100
0000
0000
0010
0000
0000
0011
0000
0011
0000
0011
0000
,
1100
0000
1100
0000
1100
0000
1001
0000
1001
0000
1001
0000
,
0101
0000
0101
0000
0101
0000
1010
0000
1000
0000
0010
0000
,
0101
0000
0001
0000
0100
0000
1010
0000
0000
0000
0000
0000
,
0000
0000
0000
0000
0000
0000
1000
0000
0010
0100
0000
0001
,
0010
0000
0010
0001
0000
0100
0010
0000
0100
0010
0000
0100
,
0001
0000
1001
0000
1001
0000
0110
0000
0110
0000
1001
0000
,
0000
0000
0000
0000
,
1000
0100
1000
0001
0100
0010
0100
0001
,
1001
0000
0100
0010
1000
0100
0010
0001
,
1001
0110
1001
0110
,
0011
1100
0011
0200
,
0301
0010
1000
0010
0001
0100
1000
0100
,
0001
0010
1000
0010
0001
0100
1000
0100
,
0001
1000
0100
0001
0100
1000
0010
0100
,
0001
1000
1100
0000
0000
0000
0000
0000
,
1001
0001
0100
1000
0100
0001
1000
0010
,
0100
0001
1000
0100
0001
0100
1000
0001
,
0100
0000
0000
0000
,
0010
0000
0000
0000
,
1000
0100
0001
0100
1000
0010
0001
0010
,
1000
0100
0001
1000
0010
0001
1000
0100
,
0010
0001
0100
0001
0010
0001
1000
0001
,
0100
0010
1000
0000
0001
0000
1001
0000
,
1000
0100
0001
0100
1000
0001
0010
1000
,
0010
0001
0100
0010
1000
0100
0001
0100
,
1000
0010
0100
0001
0010
0100
1000
0001
,
0100
0000
0000
0000
0000
0000
0000
0000
0001
0100
0010
1000
0100
0010
0001
0100
,
0010
1000
0100
0010
0100
1000
0001
0000
0100
0010
0100
0001
0010
0100
1000
0001
,
0100
0010
0100
0001
0010
0100
1000
0000
0001
0100
0010
1000
0100
0010
0001
0100
,
0010
1000
0100
1000
0001
1000
0001
0000
1000
0010
1000
0010
1000
0010
1000
0010
,
0100
0001
0100
0001
0100
0001
0100
0001
0100
0000
0010
0000
1000
0001
1000
0000
,
0010
1000
0100
0010
0001
0100
0010
0000
0100
0010
0100
0001
0010
0001
0100
0010
,
0100
0010
0100
0000
0001
0000
0010
0000
0100
0000
0010
0000
0001
0000
0010
0000
,
0202
0303
0000
0000
;

//---------------dance-single - ----------------
#NOTES:
     dance-single:
     :
     Medium:
     8:
     0.546980,0.851164,0.289230,0.151502,0.196263,556.000000,514.000000,42.000000,22.000000,0.000000,0.000000,0.546980,0.851164,0.289230,0.151502,0.196263,556.000000,514.000000,42.000000,22.000000,0.000000,0.000000:
0000
0000
0000
0000
,
0000
0000
0000
0000
,
0000
0000
0000
0000
,
0100
0000
0001
0000
1000
0000
0010
0000
0100
0000
0000
0001
0000
0000
1000
0000
,
0200
0000
1300
0020
0000
0230
0000
0320
,
0000
2030
0000
3100
0020
0000
0230
0000
,
2300
0000
3010
0200
0000
0320
0000
1030
,
0000
0000
0000
0000
,
1001
0000
1000
0000
0001
0100
0001
0000
,
1000
0010
1000
0000
0001
1000
0001
0000
,
1000
0010
0100
0000
0001
0010
0100
0000
,
1100
1001
0110
1001
,
0001
0100
0010
0000
1000
0100
0010
0000
,
0001
1000
0100
1000
0001
0010
0001
0000
,
1001
0001
0100
0010
,
1010
1000
0001
1000
,
0001
0100
0001
0100
0010
1000
0010
1000
,
0001
0100
0010
1000
0100
0010
0001
0100
,
0010
0000
0010
0000
1000
0100
1000
0000
,
0101
1001
0110
1001
,
0001
0100
0001
0100
1000
0100
1000
0100
,
0001
0010
1000
0010
0001
0100
0010
1000
,
0100
1100
0000
1001
,
0010
0010
0010
0010
,
1000
0100
1000
0010
0100
0001
0100
0000
,
0010
1000
0100
1000
0001
0100
0010
0000
,
1000
0100
1000
0001
0100
0010
1000
0000
,
0001
1000
0001
1000
0001
1000
0002
0000
0000
0003
0000
0000
,
1000
0100
1000
0010
0100
0001
0010
0000
,
0100
1000
0100
0010
0001
0100
0010
0000
,
1000
0100
0010
0001
0100
0010
1000
0000
,
0001
0000
0100
0000
0010
0100
0010
0000
,
2100
0010
0100
3001
,
0210
0001
0010
0301
,
1000
0010
1000
0010
,
1000
0001
1000
0001
1000
0001
0200
0000
0000
0300
0000
0000
,
0010
1000
0010
0000
0100
0001
0100
0000
,
0001
0100
0010
1000
,
0200
2300
3020
0230
,
0301
0000
0000
0000
,
1001
0000
0001
0100
0010
1000
0010
0000
,
1000
0000
0010
0000
0100
0000
0001
1000
,
0001
1000
0100
0010
,
0001
1000
0001
1000
0001
1000
0020
0000
0000
0030
0000
0000
,
1000
0001
0100
0010
,
1000
0100
0010
0001
,
1000
0010
0100
0010
,
1000
0100
0010
0001
,
2000
0000
0000
3000
,
0000
0000
0000
0000
,
0000
0000
0000
0000
,
0000
0000
0000
0000
0001
0000
0000
0000
1000
0100
1000
0100
1000
0000
0000
0000
,
0001
0100
0001
0100
0001
0000
0000
0000
1000
0001
1000
0001
1000
0000
0000
0000
,
0010
0100
0010
0100
0010
0000
0000
0000
1000
0001
1000
0001
1000
0000
0000
0000
,
0001
0100
0001
0100
0001
0000
0000
0000
1000
0001
1000
0001
1000
0000
0000
0000
,
0010
0100
0010
0100
0010
0000
1000
0000
1010
0000
0100
0000
0101
0000
0001
0000
,
1001
1000
1010
0100
0001
0100
0010
1000
,
0100
0010
0001
1000
1010
0000
1010
0000
,
1001
1001
0101
0010
,
1000
0001
1001
0110
,
1001
0110
1001
1000
,
0010
0100
0001
1010
,
0101
1010
1001
0010
,
0100
0001
0010
0100
,
1000
0001
0100
0010
,
1000
0000
0000
0000
0000
0000
1000
0000
0100
0000
1000
0000
,
0100
0000
0010
0000
0100
0000
0010
0000
0001
0000
0100
0000
,
0010
0000
1000
0000
0100
0000
0010
0000
0100
0000
1000
0000
,
0001
0000
0100
0000
0010
0000
1000
0000
0000
0000
0000
0000
,
0000
0000
0000
0000
0000
0000
0001
0000
0010
0000
0001
0000
,
1000
0000
0010
0000
1000
0000
0010
0000
0010
0000
0010
0000
,
0100
0000
0100
0000
0100
0000
0010
0000
1000
0000
0001
0000
,
0100
0000
0010
0000
1000
0000
0001
0000
0000
0000
0000
0000
,
0000
0000
1000
0100
,
0010
0001
0100
0010
,
1000
0000
0010
0000
0100
0000
0010
0000
1000
0000
0010
0000
,
0100
0000
0000
0000
,
1000
0001
1000
0001
,
0100
0010
0100
0010
,
1010
1000
0001
1000
,
0010
0000
0100
0000
0010
0000
0200
0300
,
1000
0001
1000
0000
0001
0100
0001
0000
,
1000
0001
1000
0000
0010
0100
0010
0000
,
1000
0100
0010
0000
0001
0100
0010
0000
,
1000
0010
0100
0001
,
1000
0100
1000
0001
1000
0100
1000
0000
,
0001
0010
0001
0100
0001
1000
0001
0010
,
0100
0000
0000
0000
,
0000
0000
0000
0000
,
1000
0010
1000
0010
0100
0001
0100
0000
,
0010
1000
0010
1000
0100
0010
0001
0000
,
1000
0010
0100
0001
,
0010
0100
1000
0001
,
1010
1000
0101
0001
,
1001
1000
1010
0010
,
0110
0100
0101
0001
,
0000
0000
0000
0000
1000
0100
0010
0001
,
0010
0100
1000
0001
0100
0010
0100
0001
,
0010
0001
1000
0100
0010
0001
0100
0010
,
1000
0001
0010
0100
1000
0010
0100
0001
,
0010
0100
0010
0001
0010
0100
0010
0001
,
0100
0010
0100
0001
0010
0100
1000
0001
,
0100
0010
2000
0000
3000
0000
0000
0000
,
1001
0000
0000
0000
;

//---------------dance-single - ----------------
#NOTES:
     dance-single:
     :
     Easy:
     5:
     0.300052,0.567442,0.123956,0.013773,0.000000,305.000000,287.000000,18.000000,2.000000,0.000000,0.000000,0.300052,0.567442,0.123956,0.013773,0.000000,305.000000,287.000000,18.000000,2.000000,0.000000,0.000000:
// measure 0
0000
0000
0000
0000
,  // measure 1
0000
0000
0000
0000
,  // measure 2
0000
0000
0000
0000
,  // measure 3
1000
0000
0001
0000
,  // measure 4
0010
0000
0000
0000
,  // measure 5
0000
0000
0000
0000
,  // measure 6
0100
0000
0000
0000
,  // measure 7
0000
0000
2000
0000
,  // measure 8
3001
0100
0010
0000
,  // measure 9
1000
0100
1000
0000
,  // measure 10
0001
1000
0001
0000
,  // measure 11
0100
0010
0100
0000
,  // measure 12
0001
0010
0001
1000
,  // measure 13
0001
0100
0001
0010
,  // measure 14
0001
1000
0010
0100
,  // measure 15
0010
0000
1000
0000
,  // measure 16
1001
0001
0010
0000
,  // measure 17
0001
1000
0001
0000
,  // measure 18
0100
0000
0010
0000
,  // measure 19
1000
0000
0001
0000
,  // measure 20
0010
0010
0100
0000
,  // measure 21
1000
0001
0100
0000
,  // measure 22
0010
1000
0001
0000
,  // measure 23
1001
0000
0010
0000
,  // measure 24
1001
0001
0100
0000
,  // measure 25
0010
1000
0010
0000
,  // measure 26
0100
0100
0001
0001
,  // measure 27
0010
0010
0400
0000
,  // measure 28
0301
1000
0001
0100
,  // measure 29
0010
1000
0100
0000
,  // measure 30
0010
0001
0100
0010
,  // measure 31
1000
0000
0001
0000
2000
0000
0000
3000
,  // measure 32
1001
0001
0100
0000
,  // measure 33
0010
1000
0010
0000
,  // measure 34
0100
0001
0100
0000
,  // measure 35
0010
1000
0001
0000
,  // measure 36
1000
0100
1000
0000
,  // measure 37
0001
0010
0001
0000
,  // measure 38
1000
0100
0010
0000
,  // measure 39
0001
0100
0010
0000
,  // measure 40
1000
0000
0000
0010
0000
0000
0100
0000
,  // measure 41
0000
0000
0000
0000
,  // measure 42
0001
0000
0000
1000
0000
0000
0001
0000
,  // measure 43
0000
0000
0000
0000
,  // measure 44
1000
0010
1000
0010
,  // measure 45
0100
0001
0100
0001
,  // measure 46
1000
0100
0010
0001
,  // measure 47
0010
0100
1000
0010
,  // measure 48
0100
0000
0000
0000
,  // measure 49
0000
0000
0000
0000
,  // measure 50
0000
0000
0000
0000
,  // measure 51
0000
0000
0000
0000
1000
0100
1000
0000
,  // measure 52
0001
0010
0001
0000
1000
0010
1000
0000
,  // measure 53
0001
0100
0001
0000
1000
1000
0100
0000
,  // measure 54
0001
0001
0010
0000
1000
0001
1000
0000
,  // measure 55
0010
0010
0010
0000
0110
0000
1001
0000
,  // measure 56
0010
0000
0100
0000
0001
0010
0001
0000
,  // measure 57
1000
0010
0100
0000
1001
0000
1001
0000
,  // measure 58
1001
1001
1001
0000
,  // measure 59
0000
0000
0110
0110
,  // measure 60
0110
0110
0110
0000
,  // measure 61
0000
0000
0010
0010
,  // measure 62
0010
0010
0010
0000
,  // measure 63
0100
0000
0010
0000
,  // measure 64
0000
0000
0000
0000
,  // measure 65
0000
0000
0010
0000
,  // measure 66
1000
0000
0010
0000
,  // measure 67
0100
0000
0001
0000
,  // measure 68
0010
0000
0100
0000
,  // measure 69
1000
0000
0001
0000
,  // measure 70
0100
0000
0010
0000
,  // measure 71
1000
0000
0100
0000
,  // measure 72
0010
0000
0001
0000
,  // measure 73
0000
0000
0010
1000
,  // measure 74
0010
1000
0010
0100
,  // measure 75
0001
0000
0000
0000
,  // measure 76
1001
0000
0000
0000
,  // measure 77
0010
0000
0010
0000
,  // measure 78
0010
0000
0010
0000
,  // measure 79
0100
0000
0100
0000
,  // measure 80
1000
0000
1000
0000
,  // measure 81
0001
0010
0001
1000
,  // measure 82
0010
0100
0001
0010
,  // measure 83
0100
0010
0001
1000
,  // measure 84
0010
0100
0001
0010
,  // measure 85
0100
0010
0001
1000
,  // measure 86
0010
0100
0001
0010
,  // measure 87
0000
0000
0000
0000
,  // measure 88
0000
0000
0000
0000
,  // measure 89
0001
1000
0001
1000
,  // measure 90
0010
0100
0010
0100
,  // measure 91
0001
0010
0100
1000
,  // measure 92
0100
0010
0001
0000
,  // measure 93
0010
0100
0010
0001
,  // measure 94
0100
0010
0100
0001
,  // measure 95
0010
0100
0010
0100
,  // measure 96
0010
0000
1000
0001
,  // measure 97
0100
0010
0100
0001
,  // measure 98
0010
0100
0010
0001
,  // measure 99
0100
0010
0100
0001
,  // measure 100
0010
0100
0010
0001
,  // measure 101
0100
0010
0100
0001
,  // measure 102
0010
0100
0010
0010
,  // measure 103
0101
0000
0000
0000
;
