#TITLE:VORACITY;
#SUBTITLE:;
#ARTIST:MYTH & ROID;
#TITLETRANSLIT:;
#SUBTITLETRANSLIT:;
#ARTISTTRANSLIT:;
#GENRE:;
#CREDIT:;
#BANNER:VORACITY_bn.png;
#BACKGROUND:VORACITY_bg.png;
#LYRICSPATH:;
#CDTITLE:cdtitle.png;
#MUSIC:VORACITY.ogg;
#OFFSET:-0.037500;
#SAMPLESTART:56.822498;
#SAMPLELENGTH:15.000000;
#SELECTABLE:YES;
#BPMS:0.000000=200.000000
;
#STOPS:
;
#BGCHANGES:;
#KEYSOUNDS:;
#ATTACKS:;

//---------------dance-single - ----------------
#NOTES:
     dance-single:
     :
     Hard:
     9:
     0.575516,0.790064,0.761593,0.249119,0.558739,566.000000,459.000000,107.000000,35.000000,0.000000,0.000000,0.575516,0.790064,0.761593,0.249119,0.558739,566.000000,459.000000,107.000000,35.000000,0.000000,0.000000:
// measure 0
0000
0000
0000
0000
,  // measure 1
0000
0000
0000
0000
,  // measure 2
0102
1000
0100
1003
,  // measure 3
2100
0000
0000
0100
0000
0001
0000
0000
0100
3000
0000
2010
,  // measure 4
0000
0001
0010
3001
,  // measure 5
0012
0000
0010
0000
0000
1000
0000
0000
0010
0003
0000
0000
,  // measure 6
0011
0001
1000
0010
,  // measure 7
2010
0001
0010
3100
,  // measure 8
1100
1000
0001
0100
,  // measure 9
0101
1000
0101
1000
,  // measure 10
1100
0000
0000
1000
0000
0100
0000
0000
0100
1000
0000
1000
,  // measure 11
0001
0000
0001
0010
0000
0000
0110
0000
0000
1100
0000
0000
,  // measure 12
1000
0000
0000
0001
0000
0100
0000
0000
0100
0001
0000
0001
,  // measure 13
0100
0000
0100
0010
0000
0000
1010
0000
0000
0101
0000
0000
,  // measure 14
1000
0000
0000
0001
0000
1000
0000
0000
0100
1000
0000
1000
,  // measure 15
0100
0000
0100
0010
0000
0000
0011
0000
0000
1100
0000
0000
,  // measure 16
1001
0000
0000
0000
,  // measure 17
0002
0000
0203
0000
,  // measure 18
0310
0000
0000
0100
0000
0000
0010
0000
0100
0001
0000
1000
,  // measure 19
0001
0000
0000
1000
0000
0100
1000
0000
0000
1100
0000
0000
,  // measure 20
1100
0000
0000
1000
0000
0001
0100
0000
0001
1000
0000
0100
,  // measure 21
1000
0100
1000
1100
,  // measure 22
1010
0000
0000
0000
0000
0101
0000
0000
0000
1010
0000
0000
,  // measure 23
0000
0000
0101
0000
0000
0000
0011
0000
0000
0110
0000
0000
,  // measure 24
1100
0000
0000
0000
0000
0011
0000
0000
0000
1100
0000
0000
,  // measure 25
0000
0000
0011
0000
0000
0000
0101
0000
0000
0110
0000
0000
,  // measure 26
1010
0000
0000
0010
0000
0000
0100
0000
0001
0100
0000
0100
,  // measure 27
0001
0000
1000
0000
0000
0001
0000
0000
0000
0010
0000
0001
,  // measure 28
0010
0000
0100
0000
0000
1000
0000
0000
0000
1000
0000
0001
,  // measure 29
0100
0000
0010
0000
0000
0000
0220
0000
0000
0330
0000
0000
,  // measure 30
0110
0000
0000
0001
0000
1000
0100
0000
0100
0001
0000
0100
,  // measure 31
0010
0000
0010
0001
0000
0000
1000
0000
0000
1010
0000
0000
,  // measure 32
1100
0000
0001
0000
0000
0001
0100
0000
1000
0000
0000
0100
,  // measure 33
0010
0000
0000
0100
0000
0000
0001
0000
0001
1000
0000
0000
,  // measure 34
1100
0000
0000
0000
0000
0101
0000
0000
0000
1100
0000
0000
,  // measure 35
0000
0000
0101
0000
0000
0000
1100
0000
0000
1001
0000
0000
,  // measure 36
0101
0000
0000
0000
0000
1100
0000
0000
0000
0101
0000
0000
,  // measure 37
0000
0000
1100
0000
0000
0000
0101
0000
0000
1001
0000
0000
,  // measure 38
1100
0000
2000
0000
,  // measure 39
3200
0000
0300
0010
,  // measure 40
0001
0100
0000
0010
,  // measure 41
1000
0100
0000
0000
,  // measure 42
0010
0000
0002
0000
,  // measure 43
0203
0000
0300
0010
,  // measure 44
2000
0000
3200
0000
,  // measure 45
0320
0000
0000
0030
,  // measure 46
0110
0011
0110
1001
,  // measure 47
0110
0000
0000
0000
0000
0000
0001
0000
1000
0000
0000
0000
,  // measure 48
1001
0000
0100
0001
0000
1000
0001
0000
0100
0001
0000
0000
,  // measure 49
1000
0000
0100
0000
0000
0010
0000
0000
0010
0000
0000
0011
,  // measure 50
0000
0000
0001
1000
0000
0100
1000
0000
0001
1000
0000
0000
,  // measure 51
0010
0000
0100
0000
0000
0001
0000
0000
0001
0000
0000
0000
,  // measure 52
0102
1000
0010
1003
,  // measure 53
2100
0001
0010
3001
,  // measure 54
0101
1000
0101
1000
,  // measure 55
1100
0000
0000
0001
0000
1100
0000
0000
1000
0100
0000
1001
,  // measure 56
0000
0000
0100
1000
0000
0001
1000
0000
0100
1000
0000
0000
,  // measure 57
0001
0000
0100
0000
0000
0010
0000
0000
0010
0000
0000
1010
,  // measure 58
0000
0000
1000
0001
0000
0100
0001
0000
1000
0001
0000
0000
,  // measure 59
0010
0000
0100
0000
1000
0000
0010
0000
0000
0000
0000
0000
,  // measure 60
0101
1000
1100
0001
,  // measure 61
0011
1000
1010
0001
,  // measure 62
0101
1000
1010
0001
,  // measure 63
0011
0000
0000
0110
0000
0000
1100
0000
1000
0001
0000
0001
,  // measure 64
1000
0000
0000
0001
0000
0100
0000
0000
0100
0001
0000
0001
,  // measure 65
1000
0000
1000
0010
0000
0000
0110
0000
0000
0101
0000
0000
,  // measure 66
0001
0000
0000
1000
0000
0100
0000
0000
0100
1000
0000
1000
,  // measure 67
0100
0000
0100
0010
0000
0000
0011
0000
0000
1100
0000
0000
,  // measure 68
1001
0000
0000
0000
0000
0101
0000
0000
0000
1001
0000
0000
,  // measure 69
0000
0000
1100
0000
0000
0000
1001
0000
0000
0100
0000
0010
,  // measure 70
0110
0000
0000
0000
0000
1010
0000
0000
0000
1100
0000
0000
,  // measure 71
0000
0000
0011
0000
0000
0000
0202
0000
0000
0000
0303
0000
,  // measure 72
1000
0001
0000
0000
0000
1000
0100
0000
0000
0100
1000
0000
,  // measure 73
0000
0000
0001
0100
0000
0000
0201
0000
0000
0000
0000
0000
,  // measure 74
0320
0000
0000
0000
,  // measure 75
0130
0000
0100
0002
0000
0000
1000
0000
0000
0010
0000
0000
,  // measure 76
0010
0000
0000
0003
0000
0000
0001
0010
0100
1000
0010
0100
,  // measure 77
0001
1000
0010
0100
0001
1000
0010
0100
0010
1000
0100
0010
,  // measure 78
0002
0000
2000
3003
,  // measure 79
0000
0020
0000
0000
0000
0000
0000
0000
0000
0000
0000
0000
,  // measure 80
0031
0000
0000
0000
0100
0000
0000
0010
0000
0000
0100
0000
,  // measure 81
0001
0000
0000
1000
0000
0100
0000
0000
0000
0000
0000
1000
,  // measure 82
0000
0000
0001
0100
0000
0001
0100
0000
0010
0000
0000
1000
,  // measure 83
0010
0000
0000
1000
0000
0100
0000
0000
0000
0000
0000
0000
,  // measure 84
1200
0001
0010
1000
,  // measure 85
0010
0000
0000
0001
0000
0001
0000
0000
0000
0300
0000
0000
,  // measure 86
0011
0000
0000
0100
0000
0010
0100
0000
0000
0010
0000
0001
,  // measure 87
1000
0000
0000
0001
0100
0010
1000
0000
0001
0000
0000
0000
,  // measure 88
0020
0000
0030
0000
,  // measure 89
0001
0100
1000
0100
,  // measure 90
0001
0000
0100
0000
0000
1000
0000
0000
0100
0000
0000
0010
,  // measure 91
0000
1000
0100
0001
,  // measure 92
0100
0000
1000
0000
0000
0100
0000
0000
0010
0000
0000
0000
,  // measure 93
0200
1000
0010
1300
,  // measure 94
0020
0100
1000
0130
,  // measure 95
0101
1000
1100
0001
,  // measure 96
0101
0000
0000
0001
0000
1100
0000
0000
1000
0001
0000
1001
,  // measure 97
0000
0000
0100
1000
0000
0001
1000
0000
0100
1000
0000
0000
,  // measure 98
0001
0000
0100
0000
0000
0010
0000
0000
0010
0000
0000
1010
,  // measure 99
0000
0000
1000
0001
0000
0100
0001
0000
1000
0001
0000
0000
,  // measure 100
0010
0000
0100
0000
1000
0000
0010
0000
0000
0000
0000
0000
,  // measure 101
0101
1000
1100
0001
,  // measure 102
0011
1000
1010
0001
,  // measure 103
0101
1000
1010
0001
,  // measure 104
0011
0000
0000
0110
0000
0000
1100
0000
1000
0001
0000
0001
,  // measure 105
0200
1000
0010
0301
,  // measure 106
0200
0001
0010
1300
,  // measure 107
0020
0000
0000
1000
0000
0000
0100
0000
0000
0031
0000
0001
,  // measure 108
0010
0000
0010
0100
0000
0100
0001
0000
1000
0000
0000
2002
,  // measure 109
0000
0000
0000
0000
,  // measure 110
0000
0000
0000
0000
,  // measure 111
3003
0000
0000
0000
;
