#VERSION:0.83;
#TITLE:SNOBBISM;
#SUBTITLE:;
#ARTIST:Neru & z'5 feat. 鏡音リン・レン;
#TITLETRANSLIT:;
#SUBTITLETRANSLIT:;
#ARTISTTRANSLIT:Neru & z'5 feat. Kagamine Rin & Len;
#GENRE:;
#ORIGIN:;
#CREDIT:vincentw × Gameoson;
#BANNER:[Round A] - SNOBBISM.png;
#BACKGROUND:[Round A] - SNOBBISM-bg.png;
#PREVIEWVID:;
#JACKET:[Round A] - SNOBBISM-jacket.png;
#CDIMAGE:;
#DISCIMAGE:;
#LYRICSPATH:;
#CDTITLE:cdtitle.png;
#MUSIC:[Round A] - SNOBBISM.ogg;
#OFFSET:-0.376000;
#SAMPLESTART:62.775002;
#SAMPLELENGTH:15.738000;
#SELECTABLE:YES;
#BPMS:0.000=122.000;
#STOPS:;
#DELAYS:;
#WARPS:;
#TIMESIGNATURES:0.000=4=4;
#TICKCOUNTS:0.000=4;
#COMBOS:0.000=1;
#SPEEDS:0.000=1.000=0.000=0;
#SCROLLS:0.000=1.000;
#FAKES:;
#LABELS:0.000=Song Start;
#BGCHANGES:-4.000=[Round A] - SNOBBISM.avi=1.000=0=0=0=StretchNoLoop====,
99999=-nosongbg-=1.000=0=0=0 // don't automatically add -songbackground-
;
#KEYSOUNDS:;
#ATTACKS:
;

//---------------dance-single - ----------------
#NOTEDATA:;
#CHARTNAME:C 02 X 03;
#STEPSTYPE:dance-single;
#DESCRIPTION:;
#CHARTSTYLE:Pad;
#DIFFICULTY:Beginner;
#METER:2;
#RADARVALUES:0.143383,0.201834,0.021978,0.073261,0.000000,137.000000,134.000000,3.000000,10.000000,0.000000,0.000000,0.000000,0.000000,0.000000,0.143383,0.201834,0.021978,0.073261,0.000000,137.000000,134.000000,3.000000,10.000000,0.000000,0.000000,0.000000,0.000000,0.000000;
#CREDIT:vincentw;
#NOTES:
// measure 0
0000
0000
0000
0000
,  // measure 1
0000
0000
0000
0000
,  // measure 2
0000
0000
0000
0000
,  // measure 3
0000
0000
0000
0000
,  // measure 4
0000
0000
0000
0000
,  // measure 5
0000
0000
0000
0000
,  // measure 6
0000
0000
0000
0000
,  // measure 7
1001
0000
0000
0000
,  // measure 8
0000
0000
0000
0000
,  // measure 9
1000
0000
1000
0000
,  // measure 10
0001
0000
0001
0000
,  // measure 11
1000
0000
0001
0000
,  // measure 12
1000
0000
1000
0000
,  // measure 13
0000
0000
0000
0000
,  // measure 14
0010
0000
0010
0000
,  // measure 15
0100
0100
0000
0000
,  // measure 16
0010
0000
0010
0000
,  // measure 17
0100
0100
0000
0000
,  // measure 18
0001
0000
0001
0000
,  // measure 19
1000
0000
1000
0000
,  // measure 20
1001
0000
0001
0001
,  // measure 21
0001
0000
0000
0000
,  // measure 22
1000
0000
0100
0000
,  // measure 23
1000
0000
1000
0000
,  // measure 24
0001
0000
0010
0000
,  // measure 25
0001
0000
0001
0000
,  // measure 26
1000
0000
0010
0000
,  // measure 27
1000
0000
1000
0000
,  // measure 28
0001
0000
0100
0000
,  // measure 29
0001
0000
0100
0000
,  // measure 30
0001
0001
0001
0001
,  // measure 31
0000
0000
0000
0000
,  // measure 32
1000
1000
1000
0000
,  // measure 33
0001
0001
0001
0000
,  // measure 34
1000
1000
0001
0001
,  // measure 35
2000
0000
3000
0000
,  // measure 36
0100
0100
0100
0000
,  // measure 37
0010
0010
0010
0000
,  // measure 38
0100
0100
0010
0010
,  // measure 39
0200
0000
0300
0000
,  // measure 40
0010
0000
0100
0000
,  // measure 41
0010
0100
0010
0000
,  // measure 42
0001
0001
1000
1000
,  // measure 43
0002
0000
0003
0000
,  // measure 44
1000
0000
0001
0000
,  // measure 45
1000
0001
1000
0000
,  // measure 46
0010
0100
0010
0000
,  // measure 47
0100
0010
0100
0000
,  // measure 48
0010
0000
0110
0000
,  // measure 49
2000
0000
3000
0000
,  // measure 50
0002
0000
0003
0000
,  // measure 51
2000
0000
3000
0000
,  // measure 52
0002
0000
0003
0000
,  // measure 53
1000
0100
1000
0100
,  // measure 54
2000
0000
3000
0000
,  // measure 55
0001
0000
0001
0000
,  // measure 56
1000
0001
1000
0000
,  // measure 57
0001
0010
0001
0010
,  // measure 58
0002
0000
0003
0000
,  // measure 59
1000
0001
1000
0000
,  // measure 60
0010
0000
0010
0000
,  // measure 61
0010
0000
0010
0000
,  // measure 62
0100
0000
0100
0000
,  // measure 63
0100
0000
0100
0000
,  // measure 64
0001
0100
0001
0000
,  // measure 65
0100
0001
0100
0000
,  // measure 66
0010
1000
0010
0000
,  // measure 67
1000
0010
1000
0010
,  // measure 68
0200
0000
0000
0000
0000
0000
0000
0300
;

//---------------dance-single - ----------------
#NOTEDATA:;
#CHARTNAME:C 03 X 05;
#STEPSTYPE:dance-single;
#DESCRIPTION:;
#CHARTSTYLE:;
#DIFFICULTY:Easy;
#METER:3;
#RADARVALUES:0.190479,0.227064,0.043957,0.197805,0.000000,182.000000,176.000000,6.000000,27.000000,0.000000,0.000000,0.000000,0.000000,0.000000,0.190479,0.227064,0.043957,0.197805,0.000000,182.000000,176.000000,6.000000,27.000000,0.000000,0.000000,0.000000,0.000000,0.000000;
#CREDIT:vincentw;
#NOTES:
// measure 0
0000
0000
0000
0000
,  // measure 1
0000
0000
0000
0000
,  // measure 2
0000
0000
0000
0000
,  // measure 3
0000
0000
0000
0000
,  // measure 4
0000
0000
0000
0000
,  // measure 5
0000
0000
0000
0000
,  // measure 6
0000
0000
0000
0000
,  // measure 7
1001
0000
0000
0000
,  // measure 8
0100
0100
0100
0000
,  // measure 9
1001
0000
0001
0010
,  // measure 10
0001
0000
1000
0010
,  // measure 11
1000
0000
0001
1000
,  // measure 12
0001
0001
1000
0000
,  // measure 13
0200
0000
0000
0300
,  // measure 14
0010
0001
0010
0000
,  // measure 15
0100
0100
0000
0100
,  // measure 16
0010
0001
0010
0000
,  // measure 17
0001
0001
0000
0001
,  // measure 18
1000
0010
1000
0000
,  // measure 19
0100
1000
0100
0000
,  // measure 20
1001
0000
0110
0000
,  // measure 21
1001
0000
0000
0000
,  // measure 22
1000
0000
0100
0000
,  // measure 23
1000
0100
1000
0100
,  // measure 24
1000
0000
0001
0000
,  // measure 25
1000
0001
1000
0001
,  // measure 26
1000
0000
0010
0000
,  // measure 27
1000
0010
1000
0010
,  // measure 28
0100
0000
0001
0000
,  // measure 29
1000
0000
0010
0000
,  // measure 30
0100
0001
1000
0010
,  // measure 31
0000
0000
0000
0000
,  // measure 32
1000
0100
0010
0100
,  // measure 33
1000
0100
0010
0000
,  // measure 34
0001
1000
0001
1000
,  // measure 35
0002
0000
0003
0000
,  // measure 36
0001
0100
0010
0100
,  // measure 37
0001
0100
0010
0000
,  // measure 38
1000
0001
1000
0001
,  // measure 39
2000
0001
3002
1000
,  // measure 40
0003
1001
0001
0100
,  // measure 41
0010
0010
0100
0000
,  // measure 42
0001
0010
0100
1000
,  // measure 43
0002
0003
2000
3000
,  // measure 44
0010
1000
0001
0100
,  // measure 45
0001
1000
0010
0000
,  // measure 46
1000
0100
0010
0001
,  // measure 47
0000
0010
0100
1000
,  // measure 48
0000
0001
0100
0020
,  // measure 49
2000
0000
0000
3030
,  // measure 50
0000
1000
0000
0100
,  // measure 51
0000
0001
0000
0100
,  // measure 52
0000
1000
1000
0000
,  // measure 53
0002
0203
2300
3200
,  // measure 54
0302
0000
0003
0000
,  // measure 55
1000
0010
0100
0010
,  // measure 56
1000
0001
1000
0000
,  // measure 57
0002
0023
2030
3020
,  // measure 58
0032
0000
0003
0000
,  // measure 59
0010
0100
1000
0000
,  // measure 60
0002
0010
2000
3003
,  // measure 61
2000
0100
0002
3003
,  // measure 62
0200
0001
0020
0330
,  // measure 63
0020
1000
0200
0330
,  // measure 64
0010
0100
0001
0001
,  // measure 65
0010
0100
1000
1000
,  // measure 66
0001
0100
0010
0010
,  // measure 67
1000
0100
0010
0010
,  // measure 68
0200
0000
0000
0000
0000
0000
0000
0300
;

//---------------dance-single - ----------------
#NOTEDATA:;
#CHARTNAME:C 05 X 07;
#STEPSTYPE:dance-single;
#DESCRIPTION:;
#CHARTSTYLE:;
#DIFFICULTY:Medium;
#METER:5;
#RADARVALUES:0.297231,0.403669,0.146522,0.337001,0.000000,284.000000,264.000000,20.000000,46.000000,0.000000,0.000000,0.000000,0.000000,0.000000,0.297231,0.403669,0.146522,0.337001,0.000000,284.000000,264.000000,20.000000,46.000000,0.000000,0.000000,0.000000,0.000000,0.000000;
#CREDIT:vincentw;
#NOTES:
// measure 0
0000
0000
0000
0000
,  // measure 1
0000
0000
0000
0000
,  // measure 2
0000
0000
0000
0000
,  // measure 3
0000
0000
0000
0000
,  // measure 4
0000
0000
0000
0000
,  // measure 5
1000
1000
0001
0000
,  // measure 6
0001
0001
1000
0000
,  // measure 7
1001
0000
0000
0000
0000
0000
0000
1000
,  // measure 8
0000
0100
0000
0010
0000
0001
0010
0000
,  // measure 9
0010
0000
0001
0000
0010
0001
0010
0000
,  // measure 10
0001
0000
1000
0000
0001
1000
0001
0000
,  // measure 11
1000
0000
0010
0000
1000
0010
1000
0000
,  // measure 12
0010
0100
0110
0000
,  // measure 13
0020
0000
0000
1030
,  // measure 14
0001
0000
1000
0000
0001
1000
0001
0000
,  // measure 15
0100
0100
0001
0001
,  // measure 16
1000
0000
0100
0000
1000
0100
1000
0000
,  // measure 17
0001
0001
0010
0010
,  // measure 18
0100
1000
0001
1000
,  // measure 19
0100
0001
0100
0000
,  // measure 20
0101
0000
0110
1100
,  // measure 21
1001
0000
0001
0000
1000
0001
1000
0001
,  // measure 22
2000
3000
0020
0030
2000
3000
0020
0030
,  // measure 23
0200
0300
0002
0003
0200
0300
0002
0003
,  // measure 24
0020
0030
0200
0300
0020
0030
0200
0300
,  // measure 25
2000
3000
0002
0003
2000
3000
0002
0003
,  // measure 26
1000
0010
0000
0010
1000
0000
0000
0000
,  // measure 27
0001
0010
0000
0010
0001
0000
0000
0000
,  // measure 28
1000
0100
0000
0100
1000
0000
1000
0000
,  // measure 29
0001
0100
0000
0100
0001
0000
0001
0000
,  // measure 30
0010
0000
0010
0000
0010
0100
0020
0200
,  // measure 31
0000
0000
0000
0330
,  // measure 32
0002
0000
0023
0000
2030
0000
3000
0002
,  // measure 33
0000
0203
0000
2300
0000
3000
0000
0000
,  // measure 34
0001
0010
0100
0000
1000
0100
0010
0000
,  // measure 35
0001
1000
0001
0001
,  // measure 36
2000
0000
3020
0000
0032
0000
0003
2000
,  // measure 37
0000
3200
0000
0302
0000
0003
0000
0000
,  // measure 38
0001
0000
1000
0000
0010
1000
0010
0000
,  // measure 39
2000
0000
0200
3000
0002
0300
0020
0003
,  // measure 40
0030
0000
1001
0000
1000
0100
0000
0100
,  // measure 41
1000
0001
0100
0000
,  // measure 42
0001
1000
0001
0000
1000
0001
1000
0000
,  // measure 43
0010
0000
0010
0000
0100
0010
0100
0000
,  // measure 44
0001
0100
0000
0100
0001
0000
0001
0000
,  // measure 45
0010
0001
0000
0001
0010
0000
0010
0000
,  // measure 46
0100
1000
0100
0000
1000
0000
1000
0000
,  // measure 47
0010
1000
0010
0000
0100
0000
0100
0000
,  // measure 48
0202
0000
0000
0303
1010
0000
0000
0000
,  // measure 49
0002
2000
0003
3020
,  // measure 50
0000
0230
0000
2300
,  // measure 51
0000
3002
0000
0203
,  // measure 52
0000
0320
0100
0031
,  // measure 53
1000
0101
1000
0101
,  // measure 54
0001
1100
0001
1100
,  // measure 55
1000
0100
0001
0100
1000
0000
1000
0000
,  // measure 56
0001
0100
1000
0100
0001
0000
0001
0000
,  // measure 57
1000
0011
1000
0011
,  // measure 58
0001
1010
0001
1010
,  // measure 59
1000
0010
0001
0100
1000
0000
0001
0000
,  // measure 60
0000
0001
0000
0100
0000
0001
0000
0100
,  // measure 61
0000
0010
0000
1000
0000
0010
0000
1000
,  // measure 62
0000
0001
0000
0010
0000
0001
0000
0010
,  // measure 63
0000
0100
0000
1000
0000
0100
0000
1000
,  // measure 64
0001
0010
0100
0010
1000
0000
1010
0000
,  // measure 65
1000
0010
0100
0010
0001
0000
0011
0000
,  // measure 66
1000
0010
0100
0010
0001
0000
0011
0000
,  // measure 67
0001
0010
0100
0010
1000
1000
0010
0010
,  // measure 68
0200
0000
0000
0000
0000
0000
0000
0300
;

//---------------dance-single - ----------------
#NOTEDATA:;
#CHARTNAME:C 07 X 11;
#STEPSTYPE:dance-single;
#DESCRIPTION:;
#CHARTSTYLE:;
#DIFFICULTY:Hard;
#METER:7;
#RADARVALUES:0.401890,0.428898,0.109892,0.212457,0.120881,384.000000,369.000000,15.000000,29.000000,0.000000,0.000000,0.000000,0.000000,0.000000,0.401890,0.428898,0.109892,0.212457,0.120881,384.000000,369.000000,15.000000,29.000000,0.000000,0.000000,0.000000,0.000000,0.000000;
#CREDIT:vincentw;
#NOTES:
// measure 0
0000
0000
0000
0000
,  // measure 1
0000
0000
0000
0000
,  // measure 2
0000
0000
0000
0000
,  // measure 3
0000
0000
0000
0000
,  // measure 4
0000
0000
0000
0000
,  // measure 5
2000
0100
0010
3001
,  // measure 6
0002
0010
1000
0103
,  // measure 7
1001
0000
0000
0000
,  // measure 8
0000
0000
0000
0000
0000
1000
0100
0010
,  // measure 9
0001
0000
0001
0100
0010
0100
0001
0000
,  // measure 10
1000
0000
1000
0100
0010
0100
1000
0000
,  // measure 11
0010
0000
0100
0010
1000
0001
0010
0000
,  // measure 12
0100
0000
0000
0010
0000
0000
0000
0000
0010
0000
0000
0000
0100
0000
0000
1000
0000
0000
0010
0000
0000
0100
0000
0000
,  // measure 13
0002
0000
0000
1003
,  // measure 14
0001
1000
0001
0000
1000
0010
0100
0000
,  // measure 15
0010
0000
0000
0000
0000
0010
0000
0000
0000
0010
0000
0000
0000
0000
0000
0100
0000
0000
0001
0000
0000
1000
0000
0000
,  // measure 16
0100
0010
0100
0000
1000
0001
0100
0000
,  // measure 17
0001
0000
0000
0000
0000
0001
0000
0000
0000
0001
0000
0000
0000
0000
0000
1000
0000
0000
0010
0000
0000
0100
0000
0000
,  // measure 18
0001
0000
0010
0000
1000
0010
1000
0000
,  // measure 19
0010
0100
0010
0100
1000
0000
0000
0001
,  // measure 20
0010
0001
1000
0001
0100
0001
1000
0001
,  // measure 21
0020
0000
1000
0000
0031
1000
0001
1000
,  // measure 22
0100
0010
0000
0010
1000
0010
0001
0010
,  // measure 23
0100
0000
0000
1000
0000
0001
0000
0000
0000
1000
0000
0000
0010
0000
0000
1000
0000
0000
0100
0000
0000
1000
0000
0000
,  // measure 24
0001
0000
0000
0100
0000
0000
1000
0000
0000
0100
0000
0000
0010
0000
0000
0100
0000
0001
0000
0000
0000
0100
0000
0000
,  // measure 25
0100
0000
0000
0001
0000
0000
0000
0000
0000
0001
0000
0000
0000
0000
1000
0001
0000
0000
0001
0000
0000
0001
0000
0000
,  // measure 26
1000
0100
1000
0010
0100
0010
0000
1000
,  // measure 27
0001
0010
0001
0100
0010
0100
0000
0001
,  // measure 28
1000
0000
0000
0000
0000
0010
0000
0000
0000
0002
0000
0000
0000
0000
0000
1003
0000
0000
0100
0000
0000
0010
0000
0000
,  // measure 29
1000
0100
0000
0001
1000
0010
0100
0002
,  // measure 30
0200
0300
0200
0300
0100
0100
0100
0203
,  // measure 31
0000
0001
0000
0010
0000
1300
0100
0000
,  // measure 32
1100
0000
0000
0000
0000
0000
0011
0000
0000
0000
0000
0001
0100
0000
0000
0000
0000
0000
0001
0000
0000
0101
0000
0000
,  // measure 33
0000
0000
0000
1010
0000
0000
0000
0000
0010
0100
0000
0000
0000
0000
0000
1001
0000
0000
0000
0000
0000
1000
0000
0000
,  // measure 34
0100
0010
0001
1000
0010
0100
0001
1000
,  // measure 35
0001
0000
0000
2000
0000
0000
0000
0000
3000
0010
0000
0000
0100
0000
0000
0001
0000
0000
1000
0000
0000
0000
0000
0000
,  // measure 36
1001
0000
0000
0000
0000
0000
0110
0000
0000
0000
0000
0001
0010
0000
0000
0000
0000
0000
0001
0000
0000
0101
0000
0000
,  // measure 37
0000
0000
0000
1010
0000
0000
0000
0000
1000
0100
0000
0000
0000
0000
0000
0011
0000
0000
0000
0000
0000
0001
0000
0000
,  // measure 38
0100
0010
1000
0001
0010
0001
0100
0010
,  // measure 39
2000
0000
0000
0000
0000
0000
0000
0000
0000
0000
0000
0000
0000
0000
0000
0000
0000
0000
0000
0000
0000
0000
0000
0000
0000
0000
0000
0000
0000
0000
0000
0000
0000
0000
0000
0000
0000
0000
0000
0000
0000
0000
0000
0000
0000
0000
0000
3000
1200
0000
0000
0000
0000
0000
0000
0000
0000
0000
0000
0000
0000
0000
0000
0000
0000
0000
0000
0000
0000
0000
0000
0000
0000
0000
0000
0000
0000
0000
0000
0000
0000
0000
0000
0000
0000
0000
0000
0000
0000
0000
0000
0000
0000
0000
0000
0300
0102
0000
0000
0000
0000
0000
0000
0000
0000
0000
0000
0000
0000
0000
0000
0000
0000
0000
0000
0000
0000
0000
0000
0000
0000
0000
0000
0000
0000
0000
0000
0000
0000
0000
0000
0000
0000
0000
0000
0000
0000
0000
0000
0000
0000
0000
0000
0003
1001
0000
0000
0000
0000
0000
0000
0000
0000
0000
0000
0000
0000
0000
0000
0000
0000
0000
0000
0000
0000
0000
0000
0000
1000
0000
0000
0000
0000
0000
0000
0000
0000
0000
0000
0000
0000
0000
0000
0000
0000
0000
0000
0000
0000
0000
0000
0000
,  // measure 40
0010
0001
0000
0001
0010
1000
0000
1000
,  // measure 41
0010
0100
0010
0001
0100
0010
0000
0100
,  // measure 42
0001
0010
1000
0001
0100
1000
0010
1000
,  // measure 43
0002
0100
0000
0103
0000
0100
1000
1000
,  // measure 44
0100
0001
0000
0001
0100
1000
0000
1000
,  // measure 45
0100
0010
0100
0001
0010
0100
0000
0010
,  // measure 46
0001
0100
1000
0001
0010
1000
0100
1000
,  // measure 47
0000
0001
0010
1000
0001
1000
0010
0001
,  // measure 48
0000
1000
0010
0001
1000
0001
0010
1000
,  // measure 49
0020
0000
0000
0000
0000
0200
0000
0000
0000
0000
0000
0000
0000
0000
0000
0000
0000
0000
0330
0000
0000
0000
0000
0000
,  // measure 50
0000
1000
0001
0100
0000
0001
1000
0100
,  // measure 51
0000
1000
0001
0010
0000
0001
1000
0010
,  // measure 52
0000
1000
0001
1000
0100
0010
0200
0000
,  // measure 53
1000
0000
0001
0000
1000
0000
0001
0010
,  // measure 54
0000
0000
0000
2000
0000
0000
0000
0000
0000
0000
0000
0000
3300
0000
0000
0000
0000
0000
0000
0000
0000
0000
0000
1000
,  // measure 55
0001
0000
0000
0010
0000
0000
0100
0000
0000
1000
0000
0000
0001
0000
0000
0000
0000
1000
0001
0000
0000
0100
0000
0000
,  // measure 56
0010
0000
0000
1000
0000
0000
0001
0000
0000
1000
0000
0000
0010
0000
0200
0000
0000
0010
0000
0000
0000
0000
0000
0000
,  // measure 57
0001
0000
1000
0000
0001
0000
1000
0010
,  // measure 58
0000
0000
0000
0002
0000
0000
0000
0000
0000
0000
0000
0000
0303
0000
0000
0000
0000
0000
0000
0000
0000
0000
0000
1000
,  // measure 59
0001
0010
1000
0100
0001
0000
0110
0000
,  // measure 60
0002
0000
0000
0000
0000
2000
0000
0000
0000
0000
0000
0000
0000
0000
0000
0000
0000
0000
3003
0000
0000
0000
0000
0000
,  // measure 61
0000
0000
0000
0001
0000
0000
0000
0000
0100
0000
0000
0000
1000
0000
0000
0000
0000
0100
0000
0000
0000
0001
0000
0000
,  // measure 62
2000
0000
0000
0000
0000
0002
0000
0000
0000
0000
0000
0000
0000
0000
0000
0000
0000
0000
3003
0000
0000
0000
0000
0000
,  // measure 63
0000
0000
0000
1000
0000
0000
0000
0000
0100
0000
0000
0000
0001
0000
0000
0000
0000
0100
0000
0000
0000
1000
0000
0000
,  // measure 64
0100
0000
0000
0001
0000
0000
0100
0000
0020
0000
0000
0000
1030
0000
0000
0000
0000
0010
0000
0000
0000
0001
0000
0000
,  // measure 65
0100
0000
0000
1000
0000
0000
0100
0000
0020
0000
0000
0000
0031
0000
0000
0000
0000
0010
0000
0000
0000
1000
0000
0000
,  // measure 66
0100
0000
0000
0001
0000
0000
0100
0000
0020
0000
0000
0000
1000
0000
0000
0000
0000
0100
0000
0000
0000
0031
0000
0000
,  // measure 67
0100
0000
0000
1000
0000
0000
0100
0000
0020
0000
0000
0000
0001
0000
0000
0000
0000
0100
0000
0000
0000
1030
0000
0000
,  // measure 68
0200
0000
0000
0001
0000
0000
0000
0000
0010
0000
0000
0000
1000
0000
0000
0000
0000
0010
0000
0000
0000
0301
0000
0000
;

//---------------dance-single - ----------------
#NOTEDATA:;
#CHARTNAME:C 11 X 17;
#STEPSTYPE:dance-single;
#DESCRIPTION:;
#CHARTSTYLE:;
#DIFFICULTY:Challenge;
#METER:11;
#RADARVALUES:0.686562,0.807338,0.205131,0.241762,0.758253,656.000000,628.000000,28.000000,33.000000,0.000000,0.000000,0.000000,0.000000,0.000000,0.686562,0.807338,0.205131,0.241762,0.758253,656.000000,628.000000,28.000000,33.000000,0.000000,0.000000,0.000000,0.000000,0.000000;
#CREDIT:vincentw;
#NOTES:
// measure 0
0000
0000
0000
0000
,  // measure 1
0000
0000
0000
0000
,  // measure 2
0000
0000
0000
0000
,  // measure 3
0000
0000
0000
0000
,  // measure 4
0000
0000
0000
0000
,  // measure 5
0000
0000
0000
0000
,  // measure 6
0000
0000
0000
0000
,  // measure 7
1000
0000
0010
0100
0000
0010
1000
0000
0000
0001
0000
0010
0100
0000
0010
0001
0000
2000
0000
0000
0000
3010
0000
0000
,  // measure 8
0100
0000
0000
0010
0000
0000
0100
0000
0000
0010
0000
0000
0100
0000
0000
0001
0000
0000
1000
0000
0100
1000
0000
0000
,  // measure 9
2100
0000
0000
0001
0000
0000
3100
0000
1000
0100
0000
0010
0001
0000
0000
1000
0001
0000
0001
0000
0100
0000
0000
0000
,  // measure 10
0102
0000
0000
1000
0000
0000
0103
0000
0001
0100
0000
0010
1000
0000
0000
0001
1000
0000
1000
0000
0100
0000
0000
0000
,  // measure 11
2010
0000
0000
0001
0000
0000
3010
0000
1000
0010
0000
0100
0001
0000
0000
1000
0001
0000
0001
0000
0010
0000
0000
0000
,  // measure 12
0001
0000
0000
0100
0000
0000
0001
0000
1000
0000
0000
0001
0010
0000
0000
0100
0000
0100
1000
0000
1000
0010
0000
0000
,  // measure 13
2000
0000
0000
0000
0000
0000
0000
0000
0000
0000
0000
0000
0000
0000
0000
0000
0000
0000
0000
0000
0000
0000
0000
0000
0000
0000
0000
0000
0000
0000
0000
0000
0000
0000
0000
0000
0000
0000
0000
0000
0000
0000
0000
0000
0000
0000
0000
0000
0000
0000
0000
0000
0000
0000
0000
0000
0000
0000
0000
0000
0000
0000
0000
0000
0000
0000
0000
0000
0000
0000
0000
0000
0000
0000
0000
0000
0000
0000
0000
0000
0000
0000
0000
0000
0000
0000
0000
0000
0000
0000
0000
0000
0000
0000
0000
0000
0000
0000
0000
0000
0000
0000
0000
0000
0000
0000
0000
0000
0000
0000
0000
0000
0000
0000
0000
0000
0000
0000
0000
0000
0000
0000
0000
0000
0000
0000
0000
0000
0000
0000
0000
0000
0000
0000
0000
0000
0000
0000
0000
0000
0000
0000
0000
3000
1001
0000
0000
0000
0000
0000
0000
0000
0000
0000
0000
0000
0000
0000
0000
0000
0000
0000
0000
0000
0000
0000
0000
0000
0000
0000
0000
0000
0000
0000
0000
0000
0000
0000
0000
0000
0000
0000
0000
0000
0000
0000
0000
0000
0000
0000
0000
0000
,  // measure 14
0001
0000
0100
0001
0000
0000
1000
0000
0100
1000
0000
0001
0000
0000
0010
0001
0000
0000
1000
0000
0000
0010
0000
0000
,  // measure 15
0001
0000
0000
0010
0000
1000
0000
0000
0000
0001
0000
0000
1000
0000
0000
0100
0000
0100
0010
0000
0010
0001
0000
0000
,  // measure 16
1000
0000
0010
1000
0000
0000
0001
0000
0010
0001
0000
1000
0000
0000
0100
1000
0000
0000
0001
0000
0000
0100
0000
0000
,  // measure 17
1000
0000
0000
0100
0000
0001
0000
0000
0000
1000
0000
0000
0001
0000
0000
0100
0000
0000
0010
0000
0000
1000
0000
0000
,  // measure 18
0100
0000
0000
0010
0000
0000
0001
0000
0010
0000
0000
0100
0000
0000
0100
1000
0000
0000
0001
0000
0000
1000
0000
0000
,  // measure 19
0010
0000
0000
0010
0000
0000
0010
0000
1000
0100
0000
1000
0002
0000
0000
0000
0000
0000
0003
0000
0000
1000
0000
0000
,  // measure 20
1010
0000
0000
0010
0000
0000
1000
0000
0000
0001
0000
0001
0010
0000
0010
1000
0000
1000
0010
0000
0010
0001
0000
0000
,  // measure 21
1000
0000
0000
0010
0000
0000
0100
0000
0000
0001
0000
0010
0001
0000
0000
1000
0000
0000
1000
0000
0000
1000
0000
0000
,  // measure 22
0012
0000
0000
1003
0000
0000
0100
0000
1000
0001
0000
0000
0021
0000
0000
0130
0000
0000
1000
0000
0001
0100
0000
0000
,  // measure 23
0102
0000
0000
1003
0000
0000
0010
0000
1000
0001
0000
0000
0201
0000
0000
0310
0000
0000
1000
0000
0000
0100
0000
0000
,  // measure 24
2100
0000
0000
3001
0000
0000
0100
0000
0001
1000
0000
0000
1200
0000
0000
0310
0000
0000
0001
0000
1000
0010
0000
0000
,  // measure 25
2010
0000
0000
3001
0000
0000
0010
0000
0001
1000
0000
0000
0010
0000
1000
0100
0000
1000
0010
0000
1000
0100
0000
0000
,  // measure 26
0001
0000
0000
0100
0000
0010
0000
0000
0100
1000
0000
0000
0001
0000
0000
0100
0000
0000
0010
0000
0000
0001
0000
0000
,  // measure 27
1000
0000
1000
0100
0000
0100
0010
0000
0010
0100
0000
0100
0001
0000
0000
1000
0000
0000
0100
0000
0000
1000
0000
0000
,  // measure 28
0001
0000
0000
0010
0000
0100
0000
0000
1000
0001
0000
0000
1000
0000
0000
0010
0000
0000
0100
0000
0000
0001
0000
0000
,  // measure 29
1000
0000
0000
0100
0000
0010
0000
0000
0001
1000
0000
0000
0001
0000
0000
0100
0000
0000
0010
0000
0000
1000
0000
0000
,  // measure 30
1001
0100
1001
0010
1001
1000
1001
0001
,  // measure 31
0000
0000
1000
0010
0000
0010
0001
0000
1000
0100
0000
0100
0001
0000
1000
0100
0000
0010
0002
0000
0000
0000
0000
0000
,  // measure 32
1003
0000
0000
0010
0000
0000
0101
0000
0000
1000
0000
0100
0010
0000
0000
0001
0000
0000
1100
0000
0000
0001
0000
0000
,  // measure 33
0010
0000
0000
1100
0000
0000
0001
0000
0100
0010
0000
0000
1000
0000
0000
0101
0000
0000
1000
0000
0000
0001
0000
0000
,  // measure 34
1000
0100
0001
1000
0010
1000
0001
0100
,  // measure 35
1000
0000
0001
0010
0000
0001
0100
0000
0010
0000
0000
1000
0100
0000
1000
0010
0000
0100
0002
0000
0000
0000
0000
0000
,  // measure 36
1003
0000
0000
0100
0000
0000
0011
0000
0000
1000
0000
0010
0100
0000
0000
0001
0000
0000
1010
0000
0000
0001
0000
0000
,  // measure 37
0100
0000
0000
1010
0000
0000
0001
0000
0010
0100
0000
0000
1000
0000
0000
0011
0000
0000
1000
0000
0000
0001
0000
0000
,  // measure 38
1000
0000
0000
0010
0000
0000
0001
0000
0000
1000
0000
0000
0100
0000
0100
1000
0000
1000
0001
0000
0001
0010
0000
0000
,  // measure 39
0011
0010
1010
1000
1100
0100
0101
0001
,  // measure 40
0100
0010
0100
0010
0100
0010
0001
0000
0000
1000
0000
0000
0010
0000
0000
0100
0000
0001
0000
0000
0001
0010
0000
0000
,  // measure 41
0001
0000
0100
1000
0000
0100
0001
0000
0000
1000
0000
0100
0001
0000
0100
1000
0000
0000
0010
0000
0000
0100
0000
0000
,  // measure 42
0001
0000
0010
0001
0000
0000
1000
0000
0100
1000
0000
0000
0001
0000
0000
0010
0000
0010
0100
0000
0000
1000
0000
0000
,  // measure 43
0001
0000
1000
0010
0000
1000
0100
0000
0010
0000
0000
0001
0010
0000
0001
0100
0000
0010
1000
0000
1000
0010
0000
0010
,  // measure 44
0100
0000
0100
0001
0000
0000
1000
0000
0000
0001
0000
0000
0010
0000
0000
0001
0000
1000
0000
0000
1000
0100
0000
0000
,  // measure 45
1000
0000
0010
0100
0000
0010
1000
0000
0100
0010
0000
0100
1000
0000
0000
0001
0000
0010
0000
0000
0010
0001
0000
0000
,  // measure 46
0100
1000
0002
0010
1000
0100
1000
0013
,  // measure 47
1000
0100
0001
2000
0100
0001
3020
0031
,  // measure 48
2000
0100
0001
3020
0001
0100
2030
0010
,  // measure 49
0001
0000
0000
0000
0000
0200
0000
0000
0000
0000
0000
0000
0000
0000
0000
0000
0000
0000
3300
0000
0000
0000
0000
0000
,  // measure 50
0000
0000
0000
0000
0000
0000
0000
0000
0000
0000
0000
0000
0000
0000
0000
0000
0000
0000
0001
0000
0001
1000
0000
1000
,  // measure 51
0010
0000
0010
0100
0000
0100
0001
0000
0000
0010
0000
0000
1000
0000
0000
0100
0000
0000
0001
0000
0000
1000
0000
0000
,  // measure 52
0000
0000
0001
0010
0000
0010
1000
0000
0001
0100
0000
0100
1000
0000
0001
0100
0000
0010
1000
0000
0000
0000
0000
0000
,  // measure 53
0001
0000
0000
0100
0000
0010
0100
0000
0000
1000
0000
0000
0001
0000
0000
0010
0000
0100
0010
0000
0000
1000
0000
0000
,  // measure 54
0001
0000
1000
0010
0000
0001
0010
0000
1000
0000
0000
0001
0010
0000
1000
0010
0000
0001
0000
0000
0000
0100
0000
0100
,  // measure 55
0010
0000
0000
1000
0000
0010
0100
0000
0001
0100
0000
0010
1000
0000
0000
0000
0000
0010
1000
0000
1000
0001
0000
0001
,  // measure 56
0010
0000
0010
0100
0000
0100
1000
0000
1000
0001
0000
0001
0100
0000
0020
0000
0000
0200
0000
0000
0000
0330
0000
0000
,  // measure 57
0001
0000
0000
0010
0000
0100
0010
0000
0000
1000
0000
0000
0001
0000
0000
0100
0000
0010
0100
0000
0000
1000
0000
0000
,  // measure 58
0001
0000
1000
0100
0000
0001
0100
0000
1000
0000
0000
0001
0100
0000
1000
0100
0000
0001
0000
0000
0000
0010
0000
0010
,  // measure 59
0001
0000
0001
0100
0000
0100
0010
0000
0010
1000
0000
1000
0100
0000
0000
0000
0000
1000
0100
0000
0001
0100
0000
1000
,  // measure 60
0001
0000
0200
0000
0000
0002
0000
0000
0000
0000
0000
0000
0000
0000
0000
0000
0000
0000
0303
0000
0000
0000
0000
0000
,  // measure 61
1000
0000
0000
0001
0000
0000
0100
0000
0001
0000
0000
0010
0001
0000
0000
0000
0000
1000
0010
0000
0001
0010
0000
1000
,  // measure 62
0001
0000
0020
0000
0000
0002
0000
0000
0000
0000
0000
0000
0000
0000
0000
0000
0000
0000
0033
0000
0000
0000
0000
0000
,  // measure 63
1000
0000
0000
1000
0000
0000
0001
0100
0001
0100
0000
0010
1000
0000
0010
0100
0000
1000
0000
0000
0100
0001
0000
1000
,  // measure 64
0001
0000
0010
0100
0000
0010
1000
0000
0010
0100
0000
0010
0001
0000
1000
0010
0000
1000
0001
0000
1000
0100
0000
1000
,  // measure 65
0002
0000
0000
2003
0000
0000
3010
0100
0010
0100
0000
0001
0010
0000
0010
1000
0000
0001
0100
0000
0100
1000
0000
0001
,  // measure 66
1000
0000
0100
0010
0000
0100
0001
0000
0100
0010
0000
0100
1000
0000
0001
0010
0000
0001
1000
0000
0001
0100
0000
0000
,  // measure 67
0002
0000
0000
2003
0000
0000
3001
0010
0001
0010
0000
0001
0100
0000
0100
1000
0000
1000
0010
0000
0010
0001
0000
0001
,  // measure 68
0200
0000
0000
0010
0000
0000
0000
0000
1000
0000
0000
0000
0010
0000
0000
0000
0000
0001
0000
0000
0000
0310
0000
0000
;
