#VERSION:0.83;
#TITLE:SCARY BANQUET;
#SUBTITLE:;
#ARTIST:NIKITA;
#TITLETRANSLIT:;
#SUBTITLETRANSLIT:;
#ARTISTTRANSLIT:;
#GENRE:;
#CREDIT:;
#MUSIC:SCARY BANQUET.ogg;
#BANNER:SCARY BANQUET.png;
#BACKGROUND:SCARY BANQUET-bg.png;
#CDTITLE:;
#SAMPLESTART:27.964;
#SAMPLELENGTH:15.000;
#SELECTABLE:YES;
#OFFSET:-1.108;
#BPMS:0.000=125.000
,16.000=250.000
,64.000=125.000
,80.000=250.000
,176.000=125.000
,208.000=250.000
,272.000=62.500
,276.000=250.000
,404.000=125.000
;
#STOPS:;
#SPEEDS:0.000=1.000=0.000=0;
#SCROLLS:0.000=1.000;
#TICKCOUNTS:0.000=4;
#TIMESIGNATURES:0.000=4=4;
#LABELS:0.000=Song Start;
#COMBOS:0.000=1;
#ORIGIN:;
#PREVIEWVID:;
#JACKET:SCARY BANQUET-jacket.png;
#CDIMAGE:;
#DISCIMAGE:;
#BGCHANGES:0.000=[Round A] - SCARY BANQUET.avi=1.000=0=0=0=StretchNoLoop====,
99999.000=-nosongbg-=1.000=0=0=0=StretchNoLoop====
;
#FGCHANGES:;

//--------------- dance-single - ----------------
#NOTEDATA:;
#STEPSTYPE:dance-single;
#DESCRIPTION:;
#DIFFICULTY:Beginner;
#METER:2;
#RADARVALUES:0,0,0,0,0;
#NOTES:
0000
0000
0000
0000
,
0000
0000
0000
0000
,
0000
0000
0000
0000
,
0000
0000
0000
0000
,
1000
0000
0000
0000
,
1000
0000
0000
0000
,
0001
0000
0000
0000
,
0001
0000
0000
0000
,
1000
0000
0000
0000
,
1000
0000
0000
0000
,
0001
0000
0000
0000
,
0001
0000
0000
0000
,
0100
0000
0000
0000
,
0100
0000
0000
0000
,
0010
0000
0000
0000
,
0010
0000
0000
0000
,
2000
0000
3000
0000
,
2000
0000
3000
0000
,
0002
0000
0003
0000
,
0002
0000
0003
0000
,
0100
0000
0100
0000
,
0200
0000
0300
0000
,
0100
0000
0100
0000
,
0200
0000
0300
0000
,
0010
0000
0010
0000
,
0020
0000
0030
0000
,
0010
0000
0010
0000
,
0020
0000
0030
0000
,
1001
0000
0000
0000
,
0001
0000
0000
0000
,
1001
0000
0000
0000
,
1000
0000
0000
0000
,
0010
0000
0000
0000
,
0100
0000
0000
0000
,
0010
0000
0000
0000
,
0100
0000
0000
0000
,
0110
0000
0000
0000
,
0100
0000
0000
0000
,
0010
0000
0000
0000
,
0010
0000
0000
0000
,
2002
0000
0000
0000
,
3003
0000
0000
0000
,
0200
0000
0000
0000
,
0300
0000
0000
0000
,
0010
0000
0010
0000
,
1000
0000
1000
0000
,
0001
0000
0001
0000
,
0100
0000
0100
0000
,
0010
0000
0100
0000
,
0010
0000
0100
0000
,
0001
0000
1000
0000
,
0001
0000
1001
0000
,
0010
0000
0000
0000
,
0100
0000
0100
0000
,
0100
0000
0000
0000
,
1000
0000
1000
0000
,
1000
0000
0000
0000
,
0001
0000
0001
0000
,
0001
0000
0000
0000
,
0020
0000
0030
0000
,
0000
0000
0100
0000
,
0100
0000
0100
0000
,
0000
0000
0001
0000
,
0001
0000
0001
0000
,
0000
0000
0010
0000
,
0010
0000
0010
0000
,
0010
0000
0000
0000
,
0110
0000
0000
0000
,
2002
0000
3003
0000
,
1000
0000
0000
0000
,
1000
0000
0000
0000
,
0001
0000
0000
0000
,
0001
0000
0000
0000
,
1000
0000
0000
0000
,
1000
0000
0000
0000
,
0001
0000
0000
0000
,
0001
0000
0000
0000
,
0010
0000
0000
0000
,
0010
0000
0000
0000
,
0100
0000
0000
0000
,
0100
0000
0000
0000
,
0010
0000
0000
0000
,
0010
0000
0000
0000
,
0100
0000
0000
0000
,
0100
0000
0000
0000
,
0001
0000
0001
0000
,
0002
0000
0003
0000
,
0001
0000
0001
0000
,
0002
0000
0003
0000
,
1000
0000
1000
0000
,
2000
0000
3000
0000
,
1000
0000
1000
0000
,
2000
0000
3000
0000
,
0100
0000
0100
0000
,
0200
0000
0300
0000
,
0010
0000
0010
0000
,
0020
0000
0030
0000
,
0100
0000
0000
0000
,
0100
0000
0000
0000
,
0010
0000
0000
0000
,
0010
0000
0000
0000
,
0220
0000
0000
0000
,
0330
0000
0000
0000
,
1001
0000
0000
0000
;

//--------------- dance-single - ----------------
#NOTEDATA:;
#STEPSTYPE:dance-single;
#DESCRIPTION:;
#DIFFICULTY:Easy;
#METER:4;
#RADARVALUES:0,0,0,0,0;
#NOTES:
0000
0000
0000
0000
,
0000
0000
0000
0000
,
0000
0000
0000
0000
,
0000
0000
0000
0000
,
0100
0000
0100
0000
,
0001
0000
1000
0000
,
0001
0000
0001
0000
,
0010
0000
0100
0000
,
0010
0000
0010
0000
,
0001
0000
0100
0000
,
0001
0000
1000
0000
,
1000
0000
0010
0000
,
0100
0000
0000
0001
,
0000
0000
1001
0000
,
1000
0000
0000
0010
,
0000
0000
0110
0000
,
0200
0300
0100
0010
,
2000
3000
1000
0001
,
0020
0030
0010
0100
,
2000
3000
1000
1001
,
0001
0000
0010
0000
,
0100
1000
0100
0000
,
1000
0000
0001
0000
,
0010
0100
0010
0000
,
0001
0000
0100
0000
,
0010
1000
0010
0000
,
0100
0000
0001
1000
,
0001
0000
0110
0000
,
0020
0000
0030
0000
,
0001
0010
0001
0000
,
2000
0000
3000
0000
,
0010
1000
0010
0000
,
0100
0000
0100
0001
,
1000
0000
1000
0100
,
0010
0000
0010
0001
,
0002
0000
0003
0100
,
0200
0000
0300
0010
,
0010
0000
0100
0010
,
2000
0000
0010
3000
,
0200
0000
0001
0300
,
0010
0000
0000
0100
,
0000
0000
0110
0000
,
1000
0000
0000
0001
,
0000
0000
0000
1001
0000
0000
0000
0000
,
0020
0030
0001
1000
,
0002
0003
0100
0010
,
0200
0300
0010
1000
,
0020
0030
2000
3000
,
0001
0100
0001
0010
,
0010
0001
1000
0001
,
0200
0300
0100
0010
,
2000
0000
0000
0000
3000
0000
0000
0000
2002
0000
0000
3003
0000
0000
0000
0000
,
0010
0000
0001
0000
,
0100
0001
0100
0000
,
0010
0000
1000
0000
,
0001
1000
0001
0000
,
0100
0000
0100
0000
,
0010
0000
0010
0000
,
1000
0000
0001
0000
,
2002
0000
3003
0000
,
0000
0010
0100
0000
,
0010
1000
0010
0100
,
0000
0001
1000
0000
,
0002
0000
0000
0023
0000
0000
0000
0000
,
0030
0100
1000
0100
,
0010
0000
0001
0010
,
0001
0000
0001
0000
,
1000
0000
1000
0000
,
2002
0000
3003
0000
,
1000
0000
1000
0001
,
0000
0001
1000
0000
,
0100
0000
0100
0010
,
0000
0010
0100
0000
,
0001
0000
0001
0100
,
0000
0100
0001
0000
,
1000
0000
1000
0010
,
0000
0010
1000
0000
,
0100
0000
0100
1000
,
0000
1000
0100
0000
,
0001
0000
0001
0010
,
0000
0010
0001
0000
,
0100
0000
0100
0001
,
0000
0001
0100
0000
,
0010
0000
0100
0000
,
0001
0000
1001
0000
,
2000
0000
3001
0000
,
1000
0000
0100
0000
,
0020
0000
0130
0000
,
0010
0000
0001
0000
,
0200
0000
0301
0000
,
1000
0000
0001
0000
,
0100
0000
0010
0000
,
2000
0000
3001
0000
,
0100
0000
0100
0000
,
0010
0000
0100
0000
,
1000
0000
1000
0000
,
0001
0000
1000
0000
,
0002
0000
0003
0000
,
1000
0000
0100
0000
,
2000
0000
3000
0000
,
0010
0000
0100
0000
,
0020
0000
0000
0000
,
0030
0000
0000
0000
,
0110
0000
0000
0000
;

//--------------- dance-single - ----------------
#NOTEDATA:;
#STEPSTYPE:dance-single;
#DESCRIPTION:;
#DIFFICULTY:Medium;
#METER:6;
#RADARVALUES:0,0,0,0,0;
#NOTES:
0000
0000
0000
0000
,
0000
0000
0000
0000
,
0000
0000
0000
0000
,
0000
0000
0000
0000
,
0002
0000
0013
0001
,
0100
0001
1000
0010
,
2000
0000
3001
0100
,
0010
0100
0001
0010
,
0200
0000
1300
0010
,
1000
0001
0100
0010
,
2000
0000
3100
1000
,
0010
0100
0001
0010
,
0001
0000
0000
1000
0000
0000
0010
0000
,
0000
1000
0000
0000
0100
0000
0100
0000
,
0010
0000
0000
0001
0000
0000
0100
0000
,
0000
0001
0000
0000
1000
0000
1000
0000
,
0001
0000
0010
0000
0001
0100
0001
0100
,
0010
0000
1000
0000
0010
0100
0010
0100
,
0001
0000
1000
0000
0001
0010
0001
0010
,
0100
0000
1000
0010
1000
0000
1001
0000
,
0100
0000
0010
0000
,
0100
0001
1000
0001
,
0010
0000
0100
0000
,
0010
0001
1000
0001
,
0100
0000
0001
0000
,
0100
0010
1000
0010
,
0100
0000
0001
0010
,
0001
0000
0110
0000
,
2000
0000
3000
0001
,
0010
0000
0000
0010
0000
0000
0001
0000
,
0200
0000
0300
0010
,
1000
0000
0000
1000
0000
0000
0010
0000
,
0100
0000
0000
0100
0000
0000
0001
0000
,
0010
0000
0000
0100
0000
0000
0010
0000
,
0001
0000
0000
1000
0000
0001
0000
0020
,
0000
0000
0030
0100
,
2000
0000
3000
0001
,
0001
0000
0000
0100
0000
0000
0010
0000
,
0010
0000
0000
1000
0000
0000
0000
0010
,
0100
0000
0000
0010
0000
0000
1000
0000
,
2000
0000
0000
3002
0000
0000
0023
0000
,
0000
0032
0000
0000
0103
0000
0100
0000
,
0020
0000
0000
0230
0000
0000
0302
0000
,
0000
1003
0000
1001
0000
0000
0001
0000
,
1000
0000
0000
0100
0000
0000
1000
0000
0010
0000
0100
0000
0001
0000
0000
0000
,
0010
0000
0000
0100
0000
0000
0010
0000
0001
0000
1000
0000
0010
0000
0000
0000
,
0100
0000
0000
0100
0000
0000
0010
0000
1000
0000
0000
0000
0001
0000
0000
0000
,
1000
0000
0000
1000
0000
0000
0001
0000
0010
0000
0000
0000
0001
0000
1000
0000
,
0100
0000
0000
0010
0000
0000
0100
0000
1000
0000
0000
0000
0010
0000
0100
0000
,
0010
0000
0000
1000
0000
0000
0010
0000
0100
0000
0000
0000
0001
0000
0000
0000
,
1000
0000
0000
0010
0000
0000
1000
0000
0100
0000
1000
0000
0010
0000
0100
0000
,
0001
0000
0000
0001
0000
0000
0100
0000
0010
0000
0000
0110
0000
0000
0100
0000
,
0001
0000
0000
1000
0000
0000
0001
0000
,
0010
0100
1000
0010
,
0100
0000
0000
0010
0000
0000
0100
0000
,
1000
0010
0100
0001
,
0100
0000
0000
0100
0000
0000
0010
0000
,
1000
0100
0010
0001
,
0010
0000
0000
0010
0000
0000
0001
0000
,
2002
0000
0000
0000
0000
3003
0000
0000
,
0000
0100
0001
0100
,
0010
0000
0000
0100
0000
0000
0001
0000
,
0000
1000
0010
1000
,
0100
0000
0000
2000
0000
0000
0000
0000
,
3000
0010
0100
0001
,
0100
0000
0000
0010
0000
0000
1000
0000
,
0001
0000
0000
0011
0000
0000
0010
0000
,
0100
0000
0000
1100
0000
0000
1000
0000
,
0220
0000
0000
0000
0000
0000
0000
0000
0330
0000
0000
0100
0010
0100
0001
1000
,
0100
0000
0000
1000
0000
0000
0010
0000
,
0000
0100
0000
0000
0001
0000
0001
0000
,
1000
0000
0000
0010
0000
0000
0100
0000
,
0000
0001
0000
0000
0010
0000
0010
0000
,
0100
0000
0000
1000
0000
0000
0001
0000
,
0000
0010
0000
0000
0100
0000
0100
0000
,
1000
0000
0000
0010
0000
0000
0100
0000
,
0000
0001
0000
0000
0010
0000
0010
0000
,
0100
0000
0000
1000
0000
0000
0010
0000
,
0000
1000
0000
0000
0001
0000
0001
0000
,
0010
0000
0000
0001
0000
0000
0100
0000
,
0000
0001
0000
0000
1000
0000
1000
0000
,
0100
0000
0000
0010
0000
0000
0001
0000
,
0000
0010
0000
0000
0100
0000
0100
0000
,
1000
0000
0000
0001
0000
0000
0100
0000
,
0000
0001
0000
0000
0010
0000
0010
0000
,
0110
0000
0100
1000
,
0010
0000
0100
0001
,
0010
0000
0001
1000
,
0100
0000
1000
0001
,
0010
0000
0100
1000
,
0001
0000
0100
0010
,
1000
0000
0000
0001
0000
1000
0000
0200
,
0000
0300
1000
0100
,
0010
0000
0000
0001
0000
0000
0100
0000
,
0001
0000
1000
0010
,
0010
0000
0000
0100
0000
0001
0000
2000
,
0000
3100
0010
0001
,
1000
0000
0000
0010
0000
0000
1000
0000
,
0001
0100
0001
0010
,
0100
0000
0000
1000
0000
0100
0000
0020
,
0000
0000
0002
0033
,
2002
0003
0010
0001
,
3200
0000
0020
0330
,
2002
0000
0000
0000
,
0000
0000
0000
0000
,
3003
0000
0000
0000
;

//--------------- dance-single - ----------------
#NOTEDATA:;
#STEPSTYPE:dance-single;
#DESCRIPTION:;
#DIFFICULTY:Hard;
#METER:9;
#RADARVALUES:0.538423,0.905316,0.277469,0.477864,0.107905,489,453,36,62,0,0,0,0,0,0.538423,0.905316,0.277469,0.477864,0.107905,489,453,36,62,0,0,0,0,0;
#CHARTNAME:;
#CHARTSTYLE:;
#CREDIT:;
#NOTES:
0000
0000
0000
0000
,
0000
0000
0000
0000
,
0000
0000
0000
0000
,
0000
0000
0000
0000
,
1000
0000
1000
0010
0100
0000
0001
0000
,
0100
0010
1000
0010
,
0100
0000
0100
0001
0010
0000
0001
0000
,
1000
0010
0100
0001
,
0010
0000
0010
0100
1000
0000
0001
0000
,
0010
0001
0100
0001
,
2000
0000
0000
3100
1000
0000
0020
0000
,
0230
0302
0023
0230
,
1300
1000
0000
0001
0001
0000
0100
0100
,
0000
0010
0010
0000
1010
0000
1010
0000
,
0001
0001
0000
0100
0100
0000
0010
0010
,
0000
1000
1000
0000
1001
0000
1001
0000
,
0100
0000
0001
0000
0010
0000
0001
0000
1000
0001
1000
0001
0100
0000
0010
0000
,
1000
0000
0100
0000
0010
0000
0100
0000
1000
0100
1000
0100
0010
0000
0001
0000
,
0100
0000
0010
0000
1000
0000
0010
0000
0100
0001
0100
0001
1000
0000
0010
0000
,
0100
0000
0000
0000
0001
0000
0010
0000
0100
0000
0000
0000
1000
0000
0000
0000
0002
0000
0000
0000
0003
0000
0100
0010
2000
0000
0000
0000
3000
0000
0000
0000
,
0001
1000
0010
0100
,
0001
1000
0100
1000
0001
0000
0010
0000
,
0100
1000
0010
0100
,
0010
1000
0001
1000
0010
0000
0100
0000
,
0001
1000
0100
0010
,
0001
0010
0100
0010
0001
0000
0100
0000
,
0010
0000
0100
0001
1000
0000
0010
0000
,
0200
0000
0000
0000
0300
0000
0001
1000
0020
0000
0000
0000
0030
0000
0000
0000
,
2002
0000
0000
0000
3003
0000
0100
0010
,
1000
0000
0001
1000
0000
0000
0010
0000
,
0220
0000
0000
0000
0330
0000
1000
0010
,
0100
0000
0001
0100
0000
0000
0010
0000
,
1000
0000
0000
2000
0000
0000
3001
0000
,
1000
0000
0010
0200
0000
0000
0310
0000
,
1000
0000
0100
2000
0000
3002
0000
0023
,
0000
0000
0000
0000
0030
0000
0100
1000
,
2002
0000
3003
1000
,
2000
0000
0000
0001
0000
3000
0010
0000
,
0020
0000
0000
0001
0000
0030
0000
0100
,
0010
0000
1000
0200
0000
0000
0310
0000
,
0020
0000
0031
0002
0000
0000
1000
0000
,
0000
0100
0000
0000
1003
0010
1000
0000
,
0100
0000
0010
0100
0000
1000
0001
0100
,
0000
0010
0000
1001
0000
0000
1000
0100
,
0010
0000
0100
1000
0000
0000
0010
0000
0100
0000
0001
0000
0010
0000
0001
0000
,
1000
0000
0010
1000
0000
0001
0100
0010
0100
0000
0001
0000
0010
0000
0100
0000
,
0010
0000
0000
0010
0000
0000
0001
0000
1000
0000
0000
0001
0100
0000
0010
0000
,
1000
0000
0100
2000
0000
0000
3010
0000
0200
0000
0000
0000
0310
0000
1000
0000
,
0001
0000
0000
1000
0000
0000
0010
0000
0200
0000
0000
0000
0301
0000
1000
0000
,
0010
0000
0000
0100
0000
0000
0010
0000
2000
0000
0000
0000
3002
0000
0000
0000
,
0103
0000
0000
0001
0000
0000
0100
0000
0010
0000
1000
0000
0100
0000
0010
0000
,
0001
0000
0000
0001
0000
0000
0100
0000
0010
0000
1000
1001
0000
0000
0001
0100
,
0020
0000
0000
2030
0000
0000
3010
0000
,
0200
0302
0023
0230
,
1300
0000
0100
0002
0000
0103
1000
0010
,
0100
0000
0001
0000
0010
0100
0010
0000
,
0001
0000
0000
0002
0000
0000
1003
0000
,
0002
0010
1000
0103
,
0010
0000
0000
0020
0000
0000
0130
0000
,
0202
0000
0000
0303
,
0000
0010
0100
0010
,
0001
0000
1000
0200
0000
0000
1300
0000
,
0000
0001
0100
0010
,
1000
0000
0000
2020
0000
0000
0000
0000
,
3030
0100
0001
0100
,
0010
0000
0000
1000
0000
0000
0001
0000
,
0011
0000
0000
0110
0000
0000
0100
0000
,
1100
0000
0000
1001
0000
0000
0001
0000
,
0210
0000
0000
0001
0010
0000
1000
0000
0310
0000
0000
0100
0001
0010
0100
1000
,
0010
0000
0000
0100
0000
0000
0001
0000
,
0000
0100
0000
0000
1001
0000
1001
0000
,
0100
0000
0000
1000
0000
0000
0010
0000
,
0000
1000
0000
0000
1001
0000
1001
0000
,
0001
0000
0000
1000
0000
0000
0100
0000
,
0000
1000
0000
0000
0110
0000
0110
0000
,
0100
0000
0000
0001
0000
0000
0010
0000
,
0000
0001
0000
0000
0110
0000
0110
0000
,
1000
1000
0000
0001
0001
0000
0010
0010
,
0000
0001
0001
0000
0101
0000
0101
0000
,
0010
0010
0000
1000
1000
0000
0100
0100
,
0000
1000
1000
0000
1010
0000
1010
0000
,
0100
0100
0000
0001
0001
0000
1000
1000
,
0000
0001
0001
0000
0011
0000
0011
0000
,
0100
0010
0100
1000
0010
0000
0100
0010
,
0100
0001
1000
0000
1100
0000
1100
0000
,
0200
0000
0000
0310
0100
0000
0001
0000
,
1000
0000
0000
1001
0000
0000
0001
0000
,
0020
0000
0000
0130
0010
0000
0001
0000
,
1000
0000
0000
1010
0000
0000
0010
0000
,
0200
0000
0000
0301
0100
0000
0010
0000
,
1000
0000
0000
1100
0000
0000
0100
0010
,
0001
0000
0001
2000
0000
3020
0000
0230
,
0000
0301
0010
1000
,
0100
0000
0000
0200
0000
0000
0301
0000
,
2000
3000
0100
0010
,
0010
0000
0100
1000
0000
0001
1000
0020
,
0000
0130
0001
0010
,
0100
0000
1000
2000
0000
0000
3010
0000
,
0100
0010
1000
0001
,
0200
0000
0000
0302
0000
0203
0000
0320
,
0000
0000
0000
0000
1030
0000
0100
1000
,
2010
0000
0000
0001
0010
0000
0001
0000
,
0200
0000
0000
0000
3300
0000
0010
0001
0200
0000
0000
0000
0000
0000
0300
0000
,
0020
0100
1000
0100
,
0001
0000
0100
2000
,
0000
0000
0000
0000
,
0000
0000
0000
0000
0000
0000
0000
0000
0000
0000
0000
0000
0000
0000
0000
0000
0000
0000
0000
0000
0000
0000
0000
0000
0000
3030
0000
0000
0000
0000
0000
0000
;
