#TITLE:Robot Rock;
#SUBTITLE:;
#ARTIST:Daft Punk;
#TITLETRANSLIT:;
#SUBTITLETRANSLIT:;
#ARTISTTRANSLIT:;
#GENRE:;
#CREDIT:;
#MUSIC:Robot Rock.ogg;
#BANNER:;
#BACKGROUND:;
#CDTITLE:;
#SAMPLESTART:18.903;
#SAMPLELENGTH:17.098;
#SELECTABLE:YES;
#OFFSET:0.000;
#BPMS:0.000=115.000
,15.000=108.000
,16.000=112.000
,17.000=115.000
,23.000=110.000
,24.000=114.000
,32.000=111.925
,95.250=114.750
,96.000=55.975
,111.500=55.775
,112.000=111.950
,175.500=112.150
,176.000=111.585
,203.500=111.500
,206.500=118.500
;
#STOPS:31.250=2.120;
#DISPLAYBPM:56.000:112.000;
#BGCHANGES:;
#FGCHANGES:;

//--------------- dance-single - ----------------
#NOTES:
     dance-single:
     :
     Beginner:
     1:
     0,0,0,0,0:
0000
0000
0000
0000
,
0000
0000
0000
0000
,
0000
0000
0000
0000
,
0000
0000
0000
0000
,
0010
0000
0010
0000
,
0010
0000
0010
0000
,
0010
0000
0010
0000
,
0010
0000
0010
0000
,
0100
0000
0000
0000
,
0100
0000
0000
0000
,
0100
0000
0000
0000
,
0100
0000
0000
0000
,
1000
0000
0000
0000
,
1000
0000
0000
0000
,
0001
0000
0000
0000
,
0001
0000
0000
0000
,
0010
0000
0000
0000
,
0100
0000
0000
0000
,
1000
0000
0000
0000
,
0001
0000
0000
0000
,
1000
0000
0000
0000
,
0010
0000
0000
0000
,
0100
0000
0000
0000
,
0001
0000
0000
0000
,
0020
0030
0020
0030
,
0020
0030
0020
0030
,
0200
0300
0200
0300
,
0200
0300
0200
0300
,
0010
0000
0010
0000
,
1000
0000
0000
0000
,
0010
0000
0010
0000
,
0001
0000
0000
0000
,
0100
0000
0100
0000
,
1000
0000
0000
0000
,
0100
0000
0100
0000
,
0001
0000
0000
0000
,
1000
0000
0010
0000
,
1000
0000
0000
0000
,
0001
0000
0010
0000
,
0001
0000
0000
0000
,
1000
0000
0100
0000
,
1000
0000
0000
0000
,
0001
0000
0100
0000
,
0001
0000
0000
0000
,
0100
0000
0100
0000
,
0001
0000
0010
0000
,
0100
0000
0100
0000
,
1000
0000
0010
0000
,
1000
0000
1000
0000
,
0010
0000
0001
0000
,
0001
0000
0010
0000
,
0000
0000
0000
0000
,
1001
0000
0000
0000
;

//--------------- dance-single - ----------------
#NOTES:
     dance-single:
     :
     Easy:
     3:
     0,0,0,0,0:
0000
0000
0000
0000
,
0000
0000
0000
0000
,
0000
0000
0000
0000
,
0000
0000
0000
0000
,
0010
0010
0010
0010
,
0010
0010
0010
0010
,
0010
0010
0010
0010
,
0010
0000
0010
0000
0010
0000
0020
0030
,
0001
1001
0100
0000
,
0010
1001
0100
0000
,
1000
0110
0001
0000
,
1000
0110
0001
0000
,
0010
1001
0100
0000
,
0010
1001
0100
0000
,
0001
0110
1000
0000
,
0001
0110
1000
0000
,
0010
1100
0001
0000
,
0010
1100
0001
0000
,
1000
0011
0100
0000
,
1000
0011
0100
0000
,
0010
1001
0100
0000
,
0010
1001
0100
0000
,
1000
0110
0001
0000
,
1000
0110
0001
0000
,
0010
0100
0010
0000
,
1000
0001
1000
0000
,
0100
1000
0100
0000
,
0010
0001
0010
0000
,
0010
0001
1000
0100
,
1000
0001
0100
0100
,
0010
1000
0001
0010
,
0100
1000
0010
0010
,
0100
0001
1000
0100
,
0010
0001
1000
1000
,
0010
1000
0001
0010
,
0100
1000
0001
0001
,
1000
0001
0100
0100
,
0001
1000
0100
0100
,
1000
0001
0010
0010
,
0001
1000
0010
0010
,
0100
0001
0010
0010
,
0100
1000
0010
0010
,
1000
0010
0100
0100
,
0001
0010
0100
0100
,
0010
0010
1001
0000
,
0010
0010
1001
0000
,
0010
0010
1001
0000
,
0010
0010
1001
0000
,
0100
0100
1001
0000
,
0100
0100
1001
0000
,
0100
0000
0100
0000
1001
0000
0000
0220
,
0000
0000
0000
0000
0000
0000
0000
0330
,
1001
0000
0000
0000
;

//--------------- dance-single - ----------------
#NOTES:
     dance-single:
     :
     Medium:
     5:
     0,0,0,0,0:
0000
0000
0000
0000
,
0000
0000
0000
0000
,
0000
0000
0000
0000
,
0000
0000
0000
0000
,
0100
0100
0100
0100
,
0100
0100
0100
0010
,
0100
0100
0100
0100
,
0100
0000
0100
0000
0100
0000
0020
0030
,
1001
0000
0010
0000
1000
0010
0100
0000
,
1001
0000
0010
0000
1000
0100
0010
0000
,
0110
0000
0010
0000
0001
1000
0010
0000
,
1001
0000
0100
0000
0001
0010
0100
0000
,
1001
0000
0100
0000
0010
1000
0100
0000
,
1001
0000
0010
0000
0001
0100
0010
0000
,
0110
0000
0100
0000
1000
0010
0001
0000
,
0110
0000
0010
0000
1000
0001
0010
0000
,
1001
0000
0100
0000
1000
0010
0100
0000
,
0110
0000
1000
0000
0001
0010
0100
0000
,
1001
0000
0100
0000
0001
0010
0100
0000
,
1001
0000
0010
0000
1000
0010
0100
0000
,
1001
0000
0100
0000
0010
1000
0100
0000
,
0110
0000
1000
0000
0001
0010
0100
0000
,
1001
0000
0010
0000
0100
1000
0001
0000
,
1001
0000
0100
0000
0010
1000
0001
0000
,
0100
0010
0100
0000
0100
0010
0100
0000
,
1000
0001
1000
0000
1000
0001
1000
0000
,
0010
0100
0010
0000
0010
0100
0010
0000
,
0001
0000
0000
0000
0000
0000
0000
0000
0000
0000
0000
0000
1000
0000
0000
0000
0000
0000
0000
0000
0000
0000
0000
0000
0001
0000
0000
0000
0000
0000
0000
0000
0000
0000
0000
0000
0000
0000
0000
0000
0000
0000
0000
0000
0000
0000
0000
0000
0001
0000
0000
0000
0000
0000
0000
0000
0000
0000
0000
0000
1000
0000
0000
0000
0000
0000
0000
0000
0000
0000
0000
0000
0002
0000
0000
0000
0000
0000
0000
0000
0000
0000
0000
0000
0000
0000
0000
0000
0000
0000
0000
0003
0000
0000
0000
0000
,
1001
0000
0100
0001
0010
0000
0100
0000
,
1001
0000
0010
1000
0100
0000
0010
0000
,
1001
0000
0100
1000
0010
0000
0100
0000
,
1001
0000
0010
0001
0100
0000
0010
0000
,
0110
0000
0010
1000
0100
0000
0010
0000
,
0110
0000
0010
0001
0100
0000
0010
0000
,
1001
0000
0010
0100
1000
0000
0010
0000
,
1001
0000
0010
0100
0001
0000
0010
0000
,
0200
0000
0000
0000
1300
0000
0000
0000
0010
0000
0200
0000
0300
0200
0000
0300
,
0200
0301
0010
0100
,
2000
0000
0000
0000
3010
0000
0000
0000
0100
0000
0002
0000
0003
0002
0000
0003
,
0002
1003
0100
0010
,
0002
0000
0000
0000
0103
0000
0000
0000
0010
0000
2000
0000
3000
2000
0000
3000
,
2000
3001
0010
0100
,
2000
0000
0000
0000
3010
0000
0000
0000
0100
0000
0002
0000
0003
0002
0000
0003
,
0002
1003
0100
0010
,
0001
0000
2002
3003
0100
0000
0100
0000
,
0010
0000
2002
3003
0100
0000
0100
0000
,
0010
0000
2002
3003
0100
0000
0100
0000
,
0010
0000
2002
3003
0100
0000
0100
0000
,
1000
0000
0022
0033
0100
0000
1000
0000
,
0010
0000
0202
0303
0010
0000
1000
0000
,
0010
0000
2200
3300
0001
0000
0010
0200
,
0000
0000
0000
0000
0000
0000
0000
0300
,
1001
0000
0000
0000
;

//--------------- dance-single - ----------------
#NOTES:
     dance-single:
     :
     Hard:
     7:
     0,0,0,0,0:
0000
0000
0000
0000
,
0000
0000
0000
0000
,
0000
0000
0000
0000
,
0000
0000
0000
0000
,
1001
0110
1001
0110
,
1001
0000
0000
0000
0110
0000
0000
0000
1001
0000
0000
0000
0100
0010
0000
0000
,
1001
0110
1001
0110
,
1001
0000
0000
0000
0110
0000
0000
0000
1001
0000
0000
0000
0010
0200
0300
0000
,
1001
0000
0000
0000
0020
0000
0000
0000
0130
0000
0001
0000
0000
0001
0000
0000
,
1001
0000
0200
0000
0310
1000
0001
0000
,
1001
0000
0000
0000
0020
0000
0000
0000
0130
0000
1000
0000
0000
1000
0000
0000
,
1001
0000
0020
0000
0130
0001
0010
0000
,
1001
0000
0000
0000
0200
0000
0000
0000
0310
0000
0010
0000
0000
0010
0000
0000
,
1001
0000
0200
0000
1300
0001
0010
0000
,
1001
0000
0000
0000
0200
0000
0000
0000
0310
0000
0010
0000
0000
0010
0000
0000
,
1001
0000
0200
0000
1300
0010
0100
0000
,
1001
0000
0000
0000
0020
0000
0000
0000
0130
0000
1000
0000
0000
1000
0000
0000
,
1001
0000
0002
0000
1003
0100
0010
0000
,
1001
0000
0000
0000
0200
0000
0000
0000
0310
0000
0001
0000
0000
0001
0000
0000
,
1001
0000
2000
0000
3010
0100
0001
0000
,
1001
0000
0000
0000
0200
0000
0000
0000
1300
0000
0001
0000
0000
0001
0000
0000
,
1001
0000
0020
0000
0130
0001
0010
0000
,
0110
0000
0000
0000
2000
0000
0000
0000
3001
0000
0010
0000
0000
0010
0000
0000
,
1001
0000
0200
0000
1300
0001
0010
0000
,
0001
0000
0000
0000
1000
0000
0000
0000
0000
0000
0001
0000
0000
1000
0000
0000
0001
0000
0000
0000
1000
0000
0000
0000
0010
0000
0010
0000
0010
0000
0010
0000
,
1000
0000
0000
0000
0001
0000
0000
0000
0000
0000
1000
0000
0000
0001
0000
0000
1000
0000
0000
0000
0001
0000
0000
0000
0010
0000
0010
0000
0010
0000
0010
0000
,
0001
0000
0000
0000
1000
0000
0000
0000
0000
0000
0001
0000
0000
1000
0000
0000
0001
0000
0000
0000
1000
0000
0000
0000
0100
0000
0100
0000
0100
0000
0100
0000
,
1000
0000
0000
0000
0000
0000
0000
0000
0000
0000
0000
0000
0001
0000
0000
0000
0000
0000
0000
0000
0000
0000
0000
0000
0000
0000
0000
0000
0000
0000
1000
0000
0000
0000
0000
0000
0000
0000
0000
0001
0000
0000
0000
0000
0000
0000
0000
0000
1000
0000
0000
0000
0000
0000
0000
0000
0000
0000
0000
0000
0002
0000
0000
0000
0000
0000
0000
0000
0000
0000
0000
0000
0000
0000
0000
0000
0000
0000
0000
0000
0000
0000
0000
0000
0000
0000
0000
0000
0000
0000
0000
0000
0000
0000
0003
0000
,
1001
0000
0000
0000
0010
0000
1000
0000
0100
0000
0010
0000
0000
0001
0000
0000
,
1001
0000
1000
0010
0100
0001
0010
0000
,
1001
0000
0000
0000
0100
0000
1000
0000
0001
0000
0010
0000
0000
0100
0000
0000
,
1001
0000
1000
0010
0100
0001
1000
0000
,
1001
0000
0000
0000
0010
0000
1000
0000
0001
0000
0010
0000
0000
0100
0000
0000
,
1001
0000
1000
0010
1000
0100
0010
0000
,
1001
0000
0000
0000
0001
0000
0010
0000
0100
0000
1000
0000
0000
0001
0000
0000
,
1001
0000
1000
0010
0100
0001
0100
0000
,
1001
0000
0000
0000
0010
0000
1000
0000
0100
0000
0010
0000
0000
0010
0000
0000
,
1001
0000
0010
1000
0100
0010
0001
0000
,
1001
0000
0000
0000
0100
0000
0001
0000
0010
0000
0100
0000
0000
0100
0000
0000
,
1001
0000
0100
0001
0010
0100
1000
0000
,
1001
0000
0000
0000
1000
0000
0001
0000
0010
0000
1000
0000
0000
1000
0000
0000
,
1001
0000
0010
0001
1000
0001
0010
0000
,
0110
0000
0000
0000
0100
0000
1000
0000
0001
0000
0010
0000
0000
0010
0000
0000
,
1001
0000
0100
1000
0001
0010
0100
0000
,
1001
0000
0000
0000
0020
0000
0000
0000
0130
0000
0000
0100
0000
0000
0100
0000
,
1001
0000
0000
0000
0020
0000
0000
0000
0130
0000
0000
0100
0000
0000
0100
0000
,
1001
0000
0000
0000
0020
0000
0000
0000
0130
0000
0000
0100
0000
0000
0100
0000
,
1001
0000
0000
0000
0020
0000
0000
0000
0130
0000
0000
0100
0000
0000
0100
0000
,
1100
0000
0000
0000
0020
0000
0000
0000
0031
0000
0000
0100
0000
0000
0010
0000
,
1100
0000
0000
0000
0020
0000
0000
0000
0031
0000
0000
0100
0000
0000
0010
0000
,
0011
0000
0000
0000
0200
0000
0000
0000
1300
0000
0000
0010
0000
0000
0202
0000
,
0000
0000
0000
0000
0000
0000
0000
0303
,
1100
0000
0000
0000
;

//--------------- dance-single - ----------------
#NOTES:
     dance-single:
     :
     Challenge:
     9:
     0,0,0,0,0:
0000
0000
0000
0000
,
0000
0000
0000
0000
,
0000
0000
0000
0000
,
0000
0000
0000
0000
,
1001
1001
1001
1001
,
1001
0000
0000
0000
1001
0000
0000
0000
1001
0000
0000
0000
0001
0100
0000
0000
,
1001
1001
1001
1001
,
1001
0000
0000
0000
1001
0000
0000
0000
1001
0000
0000
0000
0001
0200
0300
0000
,
1001
0000
0000
0000
0001
0100
0010
1000
0002
0000
0010
0000
0000
0010
0000
0003
,
1001
0000
0000
0000
0100
1000
0001
0010
0100
1000
0002
0000
0010
0000
0000
0003
,
1001
0000
0000
0000
1000
0010
0100
0001
0200
0000
0010
0000
0000
0010
0300
0000
,
1001
0000
0000
0000
0001
0010
0100
1000
0100
0010
0002
0000
0100
0000
0003
0000
,
1001
0000
0000
0000
1000
0001
0010
0100
2000
0000
0001
0000
0000
0001
3000
0000
,
1001
0000
0000
0000
1000
0010
0100
0001
0100
0010
2000
0000
0100
0000
3000
0000
,
0110
0000
0000
0000
0010
1000
0100
0010
0002
0000
0010
0000
0000
0010
0003
0000
,
1001
0000
0000
0000
0001
0100
0010
1000
0010
0100
0002
0000
1000
0000
0003
0000
,
1001
0000
0000
0000
1000
0100
0010
0100
2000
0000
0001
0000
0000
0001
3000
0000
,
1001
0000
0000
0000
0001
0010
0100
1000
0100
0010
0002
0000
1000
0000
0003
0000
,
0101
0000
0000
0000
1000
0010
0100
0001
0200
0000
0010
0000
0000
0010
0300
0000
,
1001
0000
0000
0000
0001
0010
0100
1000
0100
1000
0002
0000
0010
0000
0003
0000
,
1001
0000
0000
0000
1000
0010
0100
0001
0200
0000
0010
0000
0000
0010
0300
0000
,
1001
0000
0000
0000
0010
0100
0001
1000
0010
0100
0002
0000
1000
0000
0003
0000
,
1001
0000
0000
0000
0100
1000
0001
0010
0200
0000
1000
0000
0000
1000
0300
0000
,
1001
0000
0000
0000
0001
0100
0001
1000
0010
1000
0002
0000
0010
0000
0003
0000
,
1001
0000
0000
0000
0010
0000
0000
0000
1001
0000
0200
0000
0300
0200
0000
0300
1001
0000
0000
0000
0010
0000
0000
0000
1000
0001
1000
0000
0010
0000
0100
0000
,
1001
0000
0000
0000
0010
0000
0000
0000
1001
0000
0200
0000
0300
0200
0000
0300
1001
0000
0000
0000
0010
0000
0000
0000
1000
0001
1000
0000
0001
0000
0010
0000
,
1001
0000
0000
0000
0100
0000
0000
0000
1001
0000
0020
0000
0030
0020
0000
0030
1001
0000
0000
0000
0100
0000
0000
0000
1000
0100
1000
0000
0001
0000
0010
0000
,
1001
0000
0000
0000
0000
0000
0000
0000
0000
0000
0000
0000
0100
0000
0000
0000
0000
0000
0000
0000
0000
0000
0000
0000
1001
0000
0000
0000
0000
0000
0020
0000
0000
0000
0000
0000
0030
0000
0000
0020
0000
0000
0000
0000
0000
0030
0000
0000
1001
0000
0000
0000
0000
0000
0000
0000
0000
0000
0000
0000
2000
0000
0000
0000
0000
0000
0000
0000
0000
0000
0000
0000
0002
0000
0000
0000
0000
0000
0000
0000
0000
0000
0000
0000
0000
0000
0000
0000
0000
0000
0000
3003
0000
0000
0000
0000
,
1001
0000
0000
0000
1000
0001
0010
0100
2000
0000
0001
0000
0000
0100
3000
0000
,
1001
0000
0000
0000
0001
0100
0010
1000
0001
0100
0020
0000
0100
0000
0030
0000
,
1001
0000
0000
0000
1000
0010
0100
0001
0200
0000
0001
0000
0000
0010
0300
0000
,
1001
0000
0000
0000
0001
0010
0100
1000
0100
0010
0002
0000
1000
0000
0003
0000
,
1001
0000
0000
0000
1000
0001
0100
0001
2000
0000
0010
0000
0000
0100
3000
0000
,
1001
0000
0000
0000
0001
1000
0100
1000
0001
0010
0002
0000
1000
0000
0003
0000
,
1001
0000
0000
0000
1000
0010
0100
0001
0200
0000
1000
0000
0000
0001
0300
0000
,
1001
0000
0000
0000
0100
1000
0001
0010
0100
1000
0002
0000
0010
0000
0003
0000
,
0020
0000
0000
0000
0000
0000
0000
0000
0031
0000
1000
0000
0001
0000
0010
0000
0100
0000
0000
0000
0020
0000
0000
0000
0000
0030
0020
0000
0000
0000
0000
0030
,
0020
0000
0000
0000
0130
1000
0001
0010
0100
1000
0001
0000
1000
0000
0000
0000
,
0200
0000
0000
0000
0000
0000
0000
0000
0310
0000
0001
0000
1000
0000
0100
0000
0010
0000
0000
0000
0200
0000
0000
0000
0000
0300
0200
0000
0000
0000
0000
0300
,
0200
0000
0000
0000
0310
0001
1000
0001
0010
0100
1000
0000
0010
0000
0000
0000
,
2000
0000
0000
0000
0000
0000
0000
0000
3001
0000
0100
0000
0010
0000
0100
0000
0001
0000
0000
0000
2000
0000
0000
0000
0000
3000
2000
0000
0000
0000
0000
3000
,
2000
0000
0000
0000
3001
0010
0100
1000
0100
0010
0001
0000
1000
0000
0000
0000
,
0002
0000
0000
0000
0000
0000
0000
0000
1003
0000
0010
0000
0100
0000
0001
0000
0100
0000
0000
0000
0002
0000
0000
0000
0000
0003
0002
0000
0000
0000
0000
0003
,
0002
0000
0000
0000
1003
0010
0100
0001
1000
0100
0010
0000
0100
0000
0000
0000
,
1001
0000
0000
0000
0020
0000
0030
0000
1001
0000
0000
1100
0000
0000
0101
0000
,
1001
0000
0000
0000
0200
0000
0300
0000
1001
0000
0000
0011
0000
0000
1010
0000
,
1001
0000
0000
0000
0020
0000
0030
0000
1001
0000
0000
0101
0000
0000
1100
0000
,
1001
0000
0000
0000
0020
0000
0030
0000
1001
0000
0000
1010
0000
0000
0011
0000
,
1001
0000
0000
0000
0200
0000
0300
0000
1010
0000
0000
0101
0000
0000
0110
0000
,
1001
0000
0000
0000
0020
0000
0030
0000
1100
0000
0000
0011
0000
0000
0110
0000
,
1001
0000
0000
0000
0200
0000
0300
0000
0101
0000
0000
1100
0000
0000
2020
0000
,
0000
0000
0000
0000
0000
0000
0000
0000
0000
0000
0000
0000
0000
0000
0000
3030
,
0101
0000
0000
0000
;

//--------------- dance-double - ----------------
#NOTES:
     dance-double:
     :
     Easy:
     2:
     0,0,0,0,0:
00000000
00000000
00000000
00000000
,
00000000
00000000
00000000
00000000
,
00000000
00000000
00000000
00000000
,
00000000
00000000
00000000
00000000
,
00010000
00010000
00010000
00010000
,
00010000
00010000
00010000
00010000
,
00010000
00010000
00010000
00010000
,
00010000
00000000
00010000
00000000
00010000
00000000
00020000
00030000
,
00011000
00000000
01000000
00010000
,
00100000
00000000
01000000
00000000
,
10010000
00000000
01000000
00010000
,
00001000
00000000
00000010
00000000
,
00001001
00000000
00000001
00000100
,
00000010
00000000
00010000
00000000
,
00011000
00000000
00001000
00100000
,
00010000
00000000
01000000
00000000
,
10010000
00000000
10000000
01000000
,
00010000
00000000
00001000
00000000
,
00000101
00000000
00000010
00000001
,
00000100
00000000
00000010
00000000
,
00011000
00000000
01000000
00010000
,
00100000
00000000
01000000
00000000
,
10010000
00000000
10000000
00100000
,
01000000
00000000
00001000
00000000
,
00011000
00001000
00001000
00000000
,
00011000
00010000
00010000
00000000
,
00000100
00001000
00000100
00000000
,
01000000
00010000
01000000
00000000
,
00100000
10000000
00000000
01000000
,
00010000
00001000
00000000
00010000
,
00001000
00000010
00000000
00000100
,
00000001
00000010
00000000
00000100
,
00010000
00001000
00000000
01000000
,
00010000
00100000
00000000
01000000
,
10000000
00010000
00000000
10000000
,
00100000
00010000
00000000
00001000
,
00011000
00000000
00010000
00010000
,
00011000
00000000
00000100
00001000
,
00001100
00000000
00001000
00000001
,
00001001
00000000
00000001
00000010
,
00000011
00000000
00010000
00001000
,
00011000
00000000
01000000
00010000
,
01010000
00000000
00100000
10000000
,
10100000
00000000
10000000
01000000
,
11000000
00000000
00100000
00100000
,
00100000
00000000
00001000
00001000
,
00001000
00000000
00010000
00010000
,
00010000
00000000
00000010
00000010
,
00000010
00000000
00001000
00001000
,
00001000
00000000
00000100
00000100
,
00000100
00000000
00000000
00000000
00000010
00000000
00000000
00000020
,
00000000
00000000
00000000
00000030
,
00011000
00000000
00000000
00000000
;

//--------------- dance-double - ----------------
#NOTES:
     dance-double:
     :
     Medium:
     6:
     0,0,0,0,0:
00000000
00000000
00000000
00000000
,
00000000
00000000
00000000
00000000
,
00000000
00000000
00000000
00000000
,
00000000
00000000
00000000
00000000
,
00020000
00030000
00020000
00030000
00020000
00030000
00020000
00030000
,
00020000
00030000
00020000
00030000
00020000
00030000
00001000
00001000
,
00020000
00030000
00020000
00030000
00020000
00030000
00020000
00030000
,
00020000
00030000
00020000
00030000
00020000
00030000
00002000
00003000
,
00011000
00000000
00010000
01000000
00100000
00000000
10000000
00000000
,
01100000
00000000
00100000
00010000
00001000
00000000
00010000
00000000
,
00001010
00000000
00000100
00000001
00000010
00000000
00000100
00000000
,
00011000
00000000
01000000
00010000
00100000
00000000
01000000
00000000
,
10010000
00000000
10000000
00100000
00010000
00000000
00001000
00000000
,
00001001
00000000
00000010
00000100
00000001
00000000
00001000
00000000
,
00010100
00000000
00001000
00100000
01000000
00000000
10000000
00000000
,
01010000
00000000
00100000
00001000
00010000
00000000
00000010
00000000
,
00001001
00000000
00000100
00000010
00000001
00000000
00001000
00000000
,
00010100
00000000
00001000
01000000
00010000
00000000
10000000
00000000
,
01100000
00000000
01000000
00010000
00100000
00000000
00001000
00000000
,
00010100
00000000
00001000
00000100
00000001
00000000
00000100
00000000
,
00001001
00000000
00000010
00000100
00000001
00000000
00010000
00000000
,
01001000
00000000
00010000
00100000
01000000
00000000
10000000
00000000
,
00110000
00000000
01000000
00001000
00010000
00000000
00000100
00000000
,
00001001
00000000
00000010
00000100
00000001
00000000
00001000
00000000
,
00001010
00000000
00000000
00000000
00010000
00000000
00010000
00000000
00010000
00000000
00000000
00000000
00001000
01000000
00001000
00000000
,
01000000
00000000
00000000
00000000
00100000
00000000
10000000
00000000
01000000
00000000
00000000
00000000
00100000
00001000
00100000
00000000
,
00001000
00000000
00000000
00000000
00010000
00000000
00000010
00000000
00001000
00000000
00000000
00000000
00000001
00000100
00000001
00000000
,
00001000
00000000
00000100
00010000
00001000
00000000
00100000
00000000
,
01100000
00000000
00000000
00000000
01000000
00000000
00000000
00000000
10000000
00000000
10000000
00000000
00000000
00010000
00000000
00000000
,
01000000
00000000
00001000
00000000
00010000
00001000
00000100
00000000
,
00001000
00000000
00000000
00000000
00000001
00000000
00000000
00000000
00000100
00000000
00000010
00000000
00000000
00000010
00000000
00000000
,
00000010
00000000
00001000
00000000
00000100
00010000
00001000
00000000
,
01000000
00000000
00000000
00000000
00010000
00000000
00000000
00000000
00100000
00000000
01000000
00000000
00000000
01000000
00000000
00000000
,
01000000
00000000
10000000
00000000
00010000
00100000
00001000
00000000
,
00010000
00000000
00000000
00000000
00000010
00000000
00000000
00000000
00001000
00000000
00000001
00000000
00000000
00000001
00000000
00000000
,
00000001
00000000
00000100
00000000
00000001
00001000
00000010
00000000
,
00001010
00000000
00000101
00000000
00001000
00000100
00010000
00000000
,
00011000
00000000
01010000
00000000
01000000
00010000
00100000
00000000
,
01100000
00000000
11000000
00000000
10000000
00100000
00010000
00000000
,
00011000
00000000
00001010
00000000
00001000
00000010
00000001
00000000
,
00000101
00000000
00001100
00000000
00000100
00010000
00001000
00000000
,
00011000
00000000
01010000
00000000
00100000
01000000
10000000
00000000
,
00110000
00000000
00011000
00000000
00010000
00000010
00001000
00000000
,
00000101
00000000
00001100
00000000
00001000
00010000
01000000
00000000
,
00011000
00000000
00000000
00000000
01010000
00000000
00000000
00000000
00100000
00000000
00000000
00100000
00000000
00000000
00100000
00000000
,
01000000
00000000
00000000
00000000
10010000
00000000
00000000
00000000
01000000
00000000
00000000
01000000
00000000
00000000
01000000
00000000
,
01000000
00000000
00000000
00000000
00011000
00000000
00000000
00000000
00000100
00000000
00000000
00000100
00000000
00000000
00000100
00000000
,
00000100
00000000
00000000
00000000
00001001
00000000
00000000
00000000
00000010
00000000
00000000
00000010
00000000
00000000
00000010
00000000
,
00000010
00000000
00000000
00000000
00000101
00000000
00000000
00000000
00001000
00000000
00000000
00001000
00000000
00000000
00001000
00000000
,
00001000
00000000
00000000
00000000
00110000
00000000
00000000
00000000
01000000
00000000
00000000
01000000
00000000
00000000
01000000
00000000
,
01000000
00000000
00000000
00000000
10010000
00000000
00000000
00000000
00100000
00000000
00000000
00100000
00000000
00000000
00220000
00000000
,
00000000
00000000
00000000
00000000
00000000
00000000
00000000
00000000
00000000
00000000
00000000
00000000
00000000
00330000
00000000
00000000
,
00001100
00000000
00000000
00000000
;

//--------------- dance-double - ----------------
#NOTES:
     dance-double:
     :
     Hard:
     8:
     0,0,0,0,0:
00000000
00000000
00000000
00000000
,
00000000
00000000
00000000
00000000
,
00000000
00000000
00000000
00000000
,
00000000
00000000
00000000
00000000
,
00011000
00011000
00011000
00011000
,
00011000
00000000
00000000
00000000
00011000
00000000
00000000
00000000
00011000
00000000
00000000
00000000
00010000
00001000
00000000
00000000
,
00011000
00011000
00011000
00011000
,
00011000
00000000
00000000
00000000
00011000
00000000
00000000
00000000
00011000
00000000
00000000
00000000
00001000
00020000
00030000
00000000
,
00011000
00000000
00000000
00000000
00001000
01000000
00001000
01000000
00001000
00000000
00000000
00000000
00100000
00000000
00000000
00000000
,
10010000
00000000
00000000
00000000
01000000
00010000
01000000
00010000
01000000
00000000
00000000
00000000
00001000
00000000
00000000
00000000
,
00011000
00000000
00000000
00000000
00010000
00000100
00010000
00000100
00010000
00000000
00000000
00000000
00000010
00000000
00000000
00000000
,
00001001
00000000
00000000
00000000
00000100
00000001
00000100
00000001
00000100
00000000
00000000
00000000
00000010
00000000
00000000
00000000
,
00011000
00000000
00000000
00000000
01000000
00010000
01000000
00010000
01000000
00000000
00000000
00000000
00100000
00000000
00000000
00000000
,
10010000
00000000
00000000
00000000
10000000
01000000
10000000
01000000
10000000
00000000
00000000
00000000
00010000
00000000
00000000
00000000
,
00101000
00000000
00000000
00000000
00010000
00000100
00010000
00000100
00010000
00000000
00000000
00000000
00000001
00000000
00000000
00000000
,
00001010
00000000
00000000
00000000
00000100
00000001
00000100
00000001
00000100
00000000
00000000
00000000
00000010
00000000
00000000
00000000
,
00011000
00000000
00000000
00000000
00000100
00001000
00000100
00001000
00000100
00000000
00000000
00000000
01000000
00000000
00000000
00000000
,
00011000
00000000
00000000
00000000
00100000
01000000
00100000
01000000
00100000
00000000
00000000
00000000
10000000
00000000
00000000
00000000
,
01010000
00000000
00000000
00000000
00001000
00010000
00001000
00010000
00001000
00000000
00000000
00000000
00010000
00000000
00000000
00000000
,
00001100
00000000
00000000
00000000
00000010
00000001
00000010
00000001
00000010
00000000
00000000
00000000
00001100
00000000
00000000
00000000
,
00011000
00000000
00000000
00000000
01000000
00010000
01000000
00010000
01000000
00000000
00000000
00000000
10100000
00000000
00000000
00000000
,
00110000
00000000
00000000
00000000
00010000
00001000
00010000
00001000
00010000
00000000
00000000
00000000
00001100
00000000
00000000
00000000
,
00001001
00000000
00000000
00000000
00000001
00000010
00000001
00000010
00000001
00000000
00000000
00000000
00001010
00000000
00000000
00000000
,
01010000
00000000
00000000
00000000
00010000
00001000
00010000
00001000
00010000
00000000
00000000
00000000
00101000
00000000
00000000
00000000
,
01100000
00000000
00000000
00000000
01000000
00000000
00000000
00000000
00000000
00000000
01000000
00000000
00000000
01000000
00000000
00000000
01000000
00000000
00000000
00000000
00010000
00000000
00000000
00000000
00001000
00000000
00010000
00000000
00000100
00000000
00001000
00000000
,
00000001
00000000
00000000
00000000
00000100
00000000
00000000
00000000
00000000
00000000
00000010
00000000
00000000
00000010
00000000
00000000
00000010
00000000
00000000
00000000
00010000
00000000
00000000
00000000
00001000
00000000
01000000
00000000
00010000
00000000
10000000
00000000
,
00100000
00000000
00000000
00000000
01000000
00000000
00000000
00000000
00000000
00000000
00010000
00000000
00000000
00010000
00000000
00000000
00010000
00000000
00000000
00000000
00100000
00000000
00000000
00000000
00001000
00000000
00010000
00000000
00000100
00000000
00001000
00000000
,
00000010
00000000
00000000
00000000
00000100
00000000
00000000
00000000
00000000
00000000
00000001
00000000
00000000
00001000
00000000
00000000
00000010
00000000
00000000
00000000
00010000
00000000
00000000
00000000
00022000
00000000
00000000
00000000
00000000
00033000
00000000
00000000
,
00011000
00000000
00000000
00000000
00001000
00010000
00001000
00010000
00001000
00000000
00000000
00000000
01001000
00000000
00000000
00000000
,
00110000
00000000
00000000
00000000
01000000
10000000
01000000
10000000
01000000
00000000
00000000
00000000
00110000
00000000
00000000
00000000
,
00011000
00000000
00000000
00000000
00001000
00000001
00001000
00000001
00001000
00000000
00000000
00000000
00000110
00000000
00000000
00000000
,
00001001
00000000
00000000
00000000
00000010
00010000
00000010
00010000
00000010
00000000
00000000
00000000
00011000
00000000
00000000
00000000
,
01010000
00000000
00000000
00000000
00100000
00001000
00100000
00001000
00100000
00000000
00000000
00000000
11000000
00000000
00000000
00000000
,
00110000
00000000
00000000
00000000
00001000
00000100
00001000
00000100
00001000
00000000
00000000
00000000
00001010
00000000
00000000
00000000
,
00000101
00000000
00000000
00000000
00000001
00000010
00000001
00000010
00000001
00000000
00000000
00000000
00001010
00000000
00000000
00000000
,
01010000
00000000
00000000
00000000
00010000
00001000
00010000
00001000
00010000
00000000
00000000
00000000
00110000
00000000
00000000
00000000
,
00001100
00000000
00000000
00000000
00011000
00000000
00000000
00000000
01000000
00000000
00010000
00000000
00000000
00010000
00000000
00000000
,
00010000
00000000
00000000
00000000
11000000
00000000
00000000
00000000
00100000
00010000
00100000
00000000
00011000
00000000
00000000
00000000
,
00001010
00000000
00000000
00000000
00000100
00000000
00000000
00000000
00000001
00000000
00000010
00000000
00000000
00000010
00000000
00000000
,
00000010
00000000
00000000
00000000
00011000
00000000
00000000
00000000
01000000
00010000
01000000
00000000
10010000
00000000
00000000
00000000
,
10100000
00000000
00000000
00000000
01000000
00000000
00000000
00000000
00010000
00000000
00100000
00000000
00000000
00100000
00000000
00000000
,
00100000
00000000
00000000
00000000
00011000
00000000
00000000
00000000
00000100
00001000
00000100
00000000
00001001
00000000
00000000
00000000
,
00000110
00000000
00000000
00000000
00001000
00000000
00000000
00000000
00000010
00000000
00010000
00000000
00000000
00010000
00000000
00000000
,
00010000
00000000
00000000
00000000
00011000
00000000
00000000
00000000
01000000
00010000
01000000
00000000
10010000
00000000
00000000
00000000
,
10010000
00000000
00000000
00000000
00100000
00000000
00000000
00000000
01000000
00000000
00000000
00010000
00000000
00000000
00001000
00000000
,
00010000
00000000
00000000
00000000
00001100
00000000
00000000
00000000
00000010
00000000
00000000
00000001
00000000
00000000
00000100
00000000
,
00000010
00000000
00000000
00000000
00011000
00000000
00000000
00000000
01000000
00000000
00000000
00010000
00000000
00000000
00100000
00000000
,
01000000
00000000
00000000
00000000
10010000
00000000
00000000
00000000
10000000
00000000
00000000
00100000
00000000
00000000
01000000
00000000
,
00001000
00000000
00000000
00000000
00011000
00000000
00000000
00000000
00010000
00000000
00000000
00000100
00000000
00000000
00001000
00000000
,
00000001
00000000
00000000
00000000
00001001
00000000
00000000
00000000
00000001
00000000
00000000
00000100
00000000
00000000
00000010
00000000
,
00010000
00000000
00000000
00000000
00011000
00000000
00000000
00000000
00001000
00000000
00000000
00100000
00000000
00000000
22000000
00000000
,
00000000
00000000
00000000
00000000
00000000
00000000
00000000
00000000
00000000
00000000
00000000
00000000
00000000
33000000
00000000
00000000
,
00011000
00000000
00000000
00000000
;

//--------------- dance-double - ----------------
#NOTES:
     dance-double:
     :
     Challenge:
     9:
     0,0,0,0,0:
00000000
00000000
00000000
00000000
,
00000000
00000000
00000000
00000000
,
00000000
00000000
00000000
00000000
,
00000000
00000000
00000000
00000000
,
00011000
01010000
00011000
00001100
,
00011000
00000000
00000000
00000000
01010000
00000000
00000000
00000000
00011000
00000000
00000000
00000000
00001000
00000100
00000000
00000000
,
00011000
00110000
00011000
00001010
,
00011000
00000000
00000000
00000000
00000000
00000000
00000000
00000000
00000000
00000000
00000000
00000000
00110000
00000000
00000000
00000000
00000000
00000000
00000000
00000000
00000000
00000000
00000000
00000000
00011000
00000000
00000000
00000000
00000000
00000000
00000000
00000000
00000000
00000000
00000000
00000000
00001000
00000000
00000000
00000020
00000030
00000000
00000000
00000000
00000000
00000000
00000000
00000000
,
00001001
00000000
00000000
00000000
00000001
00000100
00000010
00000100
00000001
00000000
00001000
00000000
00000000
00001000
00000000
00000000
,
00011000
00000000
00000000
00000000
01000000
00010000
10000000
00100000
01000000
00001000
01000000
00000000
00100000
00000000
00000000
00000000
,
10010000
00000000
00000000
00000000
01000000
00010000
01000000
00001000
00100000
00000000
00001000
00000000
00000000
00001000
00000000
00000000
,
00011000
00000000
00000000
00000000
00010000
00000100
00001000
00000001
00001000
00000010
00000100
00000000
00000010
00000000
00000000
00000000
,
00001001
00000000
00000000
00000000
00001000
00000010
00010000
00001000
01000000
00000000
00010000
00000000
00000000
00010000
00000000
00000000
,
10010000
00000000
00000000
00000000
10000000
01000000
00100000
01000000
10000000
00010000
00100000
00000000
00001000
00000000
00000000
00000000
,
00011000
00000000
00000000
00000000
00010000
00000100
00001000
00000100
00000010
00000000
00000001
00000000
00000000
00000001
00000000
00000000
,
00001001
00000000
00000000
00000000
00000010
00001000
00000010
00010000
00000100
00010000
00001000
00000000
01000000
00000000
00000000
00000000
,
00110000
00000000
00000000
00000000
01000000
10000000
01000000
00100000
00010000
00000000
01000000
00000000
00000000
01000000
00000000
00000000
,
00011000
00000000
00000000
00000000
00010000
00000100
00001000
00000100
00000010
00000001
00001000
00000000
00001001
00000000
00000000
00000000
,
00000101
00000000
00000000
00000000
00000010
00001000
00000010
00010000
00001000
00000000
00010000
00000000
00000000
00010000
00000000
00000000
,
00011000
00000000
00000000
00000000
01000000
00001000
00100000
00010000
10000000
01000000
10000000
00000000
00100000
00000000
00000000
00000000
,
01010000
00000000
00000000
00000000
00010000
01000000
00001000
00010000
00000100
00000000
00001000
00000000
00000000
00001000
00000000
00000000
,
00001001
00000000
00000000
00000000
00000010
00001000
00000010
00010000
00001000
01000000
00010000
00000000
00100000
00000000
00000000
00000000
,
11000000
00000000
00000000
00000000
10000000
01000000
00100000
01000000
10000000
00000000
00010000
00000000
00000000
00010000
00000000
00000000
,
00011000
00000000
00000000
00000000
00001000
00000100
00001000
00000001
00001000
00000010
00000100
00000000
00000001
00000000
00000000
00000000
,
00002002
00000000
00000000
00000000
00000000
00000000
00000000
00000000
00003003
00000000
00000000
00000000
00000200
00000000
00000000
00000000
00000000
00000000
00000000
00000000
00000300
00000000
00000000
00000000
00010000
00000000
00000000
00000000
00000000
00000000
00001000
00000000
00000000
00000000
00000000
00000000
00000000
00000000
00000000
01000000
00000000
00000000
00000000
00000000
00000000
00000000
00000000
00000000
02020000
00000000
00000000
00000000
00000000
00000000
00000000
00000000
03030000
00000000
00000000
00000000
00200000
00000000
00000000
00000000
00000000
00000000
00000000
00000000
00300000
00000000
00000000
00000000
01000000
00000000
00000000
10000000
00000000
00000000
01000000
00000000
00000000
00000000
00000000
00000000
00100000
00000000
00000000
00000000
00000000
00000000
00001000
00000000
00000000
00000000
00000000
00000000
,
00022000
00000000
00000000
00000000
00000000
00000000
00000000
00000000
00033000
00000000
00000000
00000000
00000020
00000000
00000000
00000000
00000000
00000000
00000000
00000000
00000030
00000000
00000000
00000000
00001000
00000000
00000000
00000000
00000000
00000000
00000001
00000000
00000000
00000000
00000000
00000000
00000000
00000000
00000000
00000100
00000000
00000000
00000000
00000000
00000000
00000000
00000000
00000000
00002020
00000000
00000000
00000000
00000000
00000000
00000000
00000000
00003030
00000000
00000000
00000000
00020000
00000000
00000000
00000000
00000000
00000000
00000000
00000000
00030000
00000000
00000000
00000000
00001000
00000000
00000000
01000000
00000000
00000000
00010000
00000000
00000000
00000000
00000000
00000000
10000000
00000000
00000000
00000000
00000000
00000000
00100000
00000000
00000000
00000000
00000000
00000000
,
22000000
00000000
00000000
00000000
00000000
00000000
00000000
00000000
33000000
00000000
00000000
00000000
02000000
00000000
00000000
00000000
00000000
00000000
00000000
00000000
03000000
00000000
00000000
00000000
00100000
00000000
00000000
00000000
00000000
00000000
00001000
00000000
00000000
00000000
00000000
00000000
00000000
00000000
00000000
00010000
00000000
00000000
00000000
00000000
00000000
00000000
00000000
00000000
00002002
00000000
00000000
00000000
00000000
00000000
00000000
00000000
00003003
00000000
00000000
00000000
00000020
00000000
00000000
00000000
00000000
00000000
00000000
00000000
00000030
00000000
00000000
00000000
00000001
00000000
00000000
00000010
00000000
00000000
00000001
00000000
00000000
00000000
00000000
00000000
00001000
00000000
00000000
00000000
00000000
00000000
00000100
00000000
00000000
00000000
00000000
00000000
,
00022000
00000000
00000000
00000000
00000000
00000000
00000000
00000000
00033000
00000000
00000000
00000000
00200000
00000000
00000000
00000000
00000000
00000000
00000000
00000000
00300000
00000000
00000000
00000000
01000000
00000000
00000000
00000000
00000000
00000000
00010000
00000000
00000000
00000000
00000000
00000000
00000000
00000000
00000000
10000000
00000000
00000000
00000000
00000000
00000000
00000000
00000000
00000000
00220000
00000000
00000000
00000000
00000000
00000000
00000000
00000000
00330000
00000000
00000000
00000000
20000000
00000000
00000000
00000000
00000000
00000000
00000000
00000000
30000000
00000000
00000000
00000000
20020000
00000000
00000000
00000000
00000000
00000000
00000000
00000000
00000000
00000000
00000000
00000000
00000000
00000000
00000000
00000000
00000000
00000000
30030000
00000000
00000000
00000000
00000000
00000000
,
10010000
00000000
00000000
00000000
10000000
00010000
01000000
00010000
00100000
00000000
00001000
00000000
00000000
00001000
00000000
00000000
,
00011000
00000000
00000000
00000000
00010000
00000100
00001000
00000010
00001000
00000001
00000100
00000000
00000101
00000000
00000000
00000000
,
00001010
00000000
00000000
00000000
00001000
00000100
00010000
00001000
01000000
00000000
00010000
00000000
00000000
00010000
00000000
00000000
,
00110000
00000000
00000000
00000000
01000000
10000000
00010000
00100000
00001000
00010000
00000100
00000000
00001000
00000000
00000000
00000000
,
00001001
00000000
00000000
00000000
00001000
00000010
00000100
00000001
00001000
00000000
00010000
00000000
00000000
00010000
00000000
00000000
,
00011000
00000000
00000000
00000000
00001000
01000000
00010000
00100000
01000000
10000000
01000000
00000000
00100000
00000000
00000000
00000000
,
10010000
00000000
00000000
00000000
10000000
01000000
00100000
01000000
10000000
00000000
00010000
00000000
00000000
00010000
00000000
00000000
,
00011000
00000000
00000000
00000000
00010000
00000100
00001000
00000100
00001000
00000001
00001000
00000000
00000010
00000000
00000000
00000000
,
00001001
00000000
00000000
00000000
00000001
00000100
00000010
00001000
00000100
00000000
00010000
00000000
00000000
00010000
00000000
00000000
,
00011000
00000000
00000000
00000000
00001000
01000000
00010000
01000000
00100000
10000000
00010000
00000000
01000000
00000000
00000000
00000000
,
10010000
00000000
00000000
00000000
10000000
01000000
00100000
01000000
10000000
00000000
00010000
00000000
00000000
00010000
00000000
00000000
,
00011000
00000000
00000000
00000000
00010000
00000100
00001000
00000001
00001000
00000010
00001000
00000000
00000001
00000000
00000000
00000000
,
00001010
00000000
00000000
00000000
00000100
00010000
00001000
01000000
00010000
00000000
00100000
00000000
00000000
00100000
00000000
00000000
,
01100000
00000000
00000000
00000000
01000000
10000000
01000000
00100000
00010000
00100000
00001000
00000000
00010000
00000000
00000000
00000000
,
00011000
00000000
00000000
00000000
00010000
00000100
00001000
00000001
00001000
00000000
00000010
00000000
00000000
00000010
00000000
00000000
,
00001010
00000000
00000000
00000000
00001000
00000100
00010000
00001000
01000000
00010000
10000000
00000000
00100000
00000000
00000000
00000000
,
10010000
00000000
00000000
00000000
00000000
00000000
00000000
00000000
00000000
00000000
00000000
00000000
02200000
00000000
00000000
00000000
00000000
00000000
00000000
00000000
03300000
00000000
00000000
00000000
00010000
00000000
00000000
00000000
00000000
00000000
00000000
00000000
00000000
00011000
00000000
00000000
00000000
00000000
00000000
00000000
00000000
00000000
01010000
00000000
00000000
00000000
00000000
00000000
,
00010000
00000000
00000000
00000000
00000000
00000000
00000000
00000000
00000000
00000000
00000000
00000000
00000202
00000000
00000000
00000000
00000000
00000000
00000000
00000000
00000303
00000000
00000000
00000000
00001000
00000000
00000000
00000000
00000000
00000000
00000000
00000000
00000000
00001010
00000000
00000000
00000000
00000000
00000000
00000000
00000000
00000000
00011000
00000000
00000000
00000000
00000000
00000000
,
01000000
00000000
00000000
00000000
00000000
00000000
00000000
00000000
00000000
00000000
00000000
00000000
00220000
00000000
00000000
00000000
00000000
00000000
00000000
00000000
00330000
00000000
00000000
00000000
01000000
00000000
00000000
00000000
00000000
00000000
00000000
00000000
00000000
10100000
00000000
00000000
00000000
00000000
00000000
00000000
00000000
00000000
00110000
00000000
00000000
00000000
00000000
00000000
,
01000000
00000000
00000000
00000000
00000000
00000000
00000000
00000000
00000000
00000000
00000000
00000000
00022000
00000000
00000000
00000000
00000000
00000000
00000000
00000000
00033000
00000000
00000000
00000000
00000100
00000000
00000000
00000000
00000000
00000000
00000000
00000000
00000000
00001010
00000000
00000000
00000000
00000000
00000000
00000000
00000000
00000000
00000011
00000000
00000000
00000000
00000000
00000000
,
00000100
00000000
00000000
00000000
00000000
00000000
00000000
00000000
00000000
00000000
00000000
00000000
00002002
00000000
00000000
00000000
00000000
00000000
00000000
00000000
00003003
00000000
00000000
00000000
00001000
00000000
00000000
00000000
00000000
00000000
00000000
00000000
00000000
00011000
00000000
00000000
00000000
00000000
00000000
00000000
00000000
00000000
01001000
00000000
00000000
00000000
00000000
00000000
,
00100000
00000000
00000000
00000000
00000000
00000000
00000000
00000000
00000000
00000000
00000000
00000000
22000000
00000000
00000000
00000000
00000000
00000000
00000000
00000000
33000000
00000000
00000000
00000000
00100000
00000000
00000000
00000000
00000000
00000000
00000000
00000000
00000000
00110000
00000000
00000000
00000000
00000000
00000000
00000000
00000000
00000000
00010010
00000000
00000000
00000000
00000000
00000000
,
00001000
00000000
00000000
00000000
00000000
00000000
00000000
00000000
00000000
00000000
00000000
00000000
00002002
00000000
00000000
00000000
00000000
00000000
00000000
00000000
00003003
00000000
00000000
00000000
00000010
00000000
00000000
00000000
00000000
00000000
00000000
00000000
00000000
00001010
00000000
00000000
00000000
00000000
00000000
00000000
00000000
00000000
02020000
00000000
00000000
00000000
00000000
00000000
,
00000000
00000000
00000000
00000000
00000000
00000000
00000000
00000000
00000000
00000000
00000000
00000000
00000000
03030000
00000000
00000000
,
00101000
00000000
00000000
00000000
;
