#TITLE:Nervai;
#SUBTITLE:;
#ARTIST:Vidas Bareikis;
#TITLETRANSLIT:;
#SUBTITLETRANSLIT:;
#ARTISTTRANSLIT:;
#GENRE:;
#CREDIT:;
#MENUCOLOR:;
#METERTYPE:DDR;
#BANNER:[Round A] - Nervai.png;
#BACKGROUND:[Round A] - Nervai-bg.png;
#LYRICSPATH:;
#CDTITLE:./CDTITLES/NONE.PNG;
#MUSIC:Nervai.ogg;
#OFFSET:0.000;
#SAMPLESTART:53.771;
#SAMPLELENGTH:15.000;
#SELECTABLE:YES;
#LISTSORT:;
#BPMS:0.000=183.000;
#STOPS:;
#BGCHANGES:0.000=[Round A] - Nervai.avi=1.000=0=0=0,
99999=-nosongbg-=1.000=0=0=0 // don't automatically add -songbackground-
;
#ATTACKS:;

//---------------dance-single - ----------------
#NOTES:
     dance-single:
     :
     Beginner:
     2:
     0.158,0.169,0.000,0.000,0.000:
0000
0000
0000
0000
,
0000
0000
0000
0000
,
0000
0000
0000
0000
,
0000
0000
0000
0000
,
0000
0000
0000
0000
,
0000
0000
0000
0000
,
0000
0000
0000
0000
,
0000
0000
0000
0000
,
0000
0000
0000
0000
,
0000
0000
0000
0000
,
0010
0000
0010
0000
,
0010
0000
0000
0000
,
0100
0000
0100
0000
,
0100
0000
0000
0000
,
0001
0000
0001
0000
,
0001
0000
0000
0000
,
1000
0000
1000
0000
,
0000
0001
0000
0001
,
0001
0000
0001
0000
,
0000
1000
0000
1000
,
1000
0000
1000
0000
,
0000
0010
0000
0010
,
0010
0000
0010
0000
,
0000
0100
0000
0100
,
0100
0000
0100
0000
,
0000
0001
0000
0001
,
0000
1000
0000
1000
,
0000
0010
0000
0010
,
0000
0100
0000
0100
,
0100
0000
0000
0000
,
0001
0000
0000
0000
,
1000
0000
0000
0000
,
0100
0000
0000
0000
,
1000
0000
1000
0000
,
1000
0000
0000
0000
,
0001
0000
0001
0000
,
0001
0000
0000
0000
,
0100
0000
0100
0000
,
0100
0000
0000
0000
,
0010
0000
0010
0000
,
0010
0000
0000
0000
,
1000
0000
0000
0000
,
1000
0000
1000
0000
,
0001
0000
0000
0000
,
0001
0000
0001
0000
,
1000
0000
0000
0000
,
1000
0000
1000
0000
,
0001
0000
0000
0000
,
0100
0000
0100
0000
,
0010
0000
0000
0010
,
0010
0000
0010
0000
,
0100
0000
0000
0100
,
0100
0000
0100
0000
,
0001
0000
0000
0001
,
0001
0000
0001
0000
,
1000
0000
0000
1000
,
1000
0000
1000
0000
,
0001
0000
0001
0000
,
0010
0000
0010
0000
,
0100
0000
0100
0000
,
1000
0000
1000
0000
,
0010
0000
0000
0000
,
0100
0000
0000
0000
,
0001
0000
1000
0000
,
0000
0001
0000
0001
,
0001
0000
0001
0000
,
0000
1000
0000
1000
,
1000
0000
1000
0000
,
0000
0010
0000
0010
,
0010
0000
0010
0000
,
0000
0100
0000
0100
,
0100
0000
0100
0000
,
0010
0000
0010
0000
,
1000
0000
1000
0000
,
0001
0000
0001
0000
,
0100
0000
0100
0000
,
0010
0000
0100
0000
,
0010
0000
0100
0000
,
0001
0000
1000
0000
,
0001
0001
0001
0000
,
0000
1000
0000
1000
,
1000
0000
1000
0000
,
0000
0001
0000
0001
,
0001
0000
0001
0000
,
0000
0100
0000
0100
,
0100
0000
0100
0000
,
0000
0010
0000
0010
,
0010
0000
0010
0000
,
0000
1000
0000
1000
,
1000
0000
0001
0000
,
0000
0001
0000
0001
,
0001
0000
1000
0000
,
0000
0010
0000
0010
,
0010
0000
0100
0000
,
0000
0100
0000
0100
,
0100
0000
0000
0000
;

//---------------dance-single - ----------------
#NOTES:
     dance-single:
     :
     Easy:
     4:
     0.346,0.418,0.164,0.207,0.000: // measure 1
0000
0000
0000
0000
,  // measure 2
0000
0000
0000
0000
,  // measure 3
0000
0000
0000
0000
,  // measure 4
0000
0000
0000
0000
,  // measure 5
0000
0000
0000
0000
,  // measure 6
0000
0000
0000
0000
,  // measure 7
0000
0000
0000
0000
,  // measure 8
0000
0000
0000
0000
,  // measure 9
0000
0000
0000
0000
,  // measure 10
0000
0000
0000
0000
,  // measure 11
0010
0000
0010
0000
,  // measure 12
0100
0000
0100
0000
,  // measure 13
0001
0000
0001
0000
,  // measure 14
1000
1000
0000
0000
,  // measure 15
0000
0001
0000
0001
,  // measure 16
0001
0000
1000
0000
,  // measure 17
0010
0010
0100
0100
,  // measure 18
0000
0001
0010
0001
,  // measure 19
1000
0100
0010
0001
,  // measure 20
0000
1000
0100
1000
,  // measure 21
0001
0010
0100
1000
,  // measure 22
0010
0100
0010
0100
,  // measure 23
0001
1000
0010
0000
,  // measure 24
1000
0100
0010
0001
,  // measure 25
0100
0001
1000
0000
,  // measure 26
0001
0010
0001
1000
,  // measure 27
0010
0100
1001
0000
,  // measure 28
1000
0100
0110
0000
,  // measure 29
0001
0100
0110
0000
,  // measure 30
1000
0010
1000
0001
,  // measure 31
1000
0100
0010
0000
,  // measure 32
0001
0100
0001
0010
,  // measure 33
0100
0010
0001
0000
,  // measure 34
1000
0010
2000
0000
,  // measure 35
3100
0010
0001
0100
,  // measure 36
0001
0010
0002
0000
,  // measure 37
1003
0010
0100
0010
,  // measure 38
1000
0000
0100
1000
,  // measure 39
0001
0000
0100
0001
,  // measure 40
0020
0000
0100
0100
,  // measure 41
0230
0000
0000
0300
,  // measure 42
0010
0010
0002
0103
,  // measure 43
0001
0010
0100
1000
,  // measure 44
0010
0010
2000
3100
,  // measure 45
0010
0001
2002
3003
,  // measure 46
0100
0100
0020
1030
,  // measure 47
0010
0100
0001
1000
,  // measure 48
0100
0100
0020
0031
,  // measure 49
1000
0100
0220
0330
,  // measure 50
0001
0100
0001
1000
,  // measure 51
0010
0100
0010
1010
,  // measure 52
1000
0100
1000
0001
,  // measure 53
0010
0100
0010
0011
,  // measure 54
0001
0100
0001
0010
,  // measure 55
0100
0010
0001
1001
,  // measure 56
1000
0100
1000
0010
,  // measure 57
0100
0010
0110
0000
,  // measure 58
1000
0000
1000
0000
,  // measure 59
0100
0000
0100
0000
,  // measure 60
0001
0000
0001
0000
,  // measure 61
0010
0000
0010
0000
,  // measure 62
1000
1000
0100
0100
,  // measure 63
0010
0010
0001
0001
,  // measure 64
1000
0001
0200
0300
,  // measure 65
0001
0010
0001
0100
,  // measure 66
0001
0010
0200
0300
,  // measure 67
1000
0010
1000
0100
,  // measure 68
0010
0001
0200
0300
,  // measure 69
0001
0010
1001
0000
,  // measure 70
1000
0010
0110
0000
,  // measure 71
0001
0010
1100
0000
,  // measure 72
1000
0010
0101
0000
,  // measure 73
1000
0100
2000
3010
,  // measure 74
0100
0001
0010
0001
,  // measure 75
0001
0100
0002
0013
,  // measure 76
0001
0100
0110
0000
,  // measure 77
0010
1000
0002
0103
,  // measure 78
0001
0010
0100
1000
,  // measure 79
0010
1000
0200
0310
,  // measure 80
0001
1000
0110
0000
,  // measure 81
0100
0100
0010
1000
,  // measure 82
0100
0010
0001
1001
,  // measure 83
0100
0100
0010
0100
,  // measure 84
0001
0010
0100
1100
,  // measure 85
1000
1000
0001
0100
,  // measure 86
0010
0100
0010
1001
,  // measure 87
1000
0100
0010
0001
,  // measure 88
0100
0001
0022
0033
,  // measure 89
0001
0100
1000
0100
,  // measure 90
0001
0010
0220
0330
,  // measure 91
1000
0100
0001
0100
,  // measure 92
1000
0010
0220
0330
,  // measure 93
0001
0010
0100
0010
,  // measure 94
0001
1000
0220
0330
,  // measure 95
1000
0010
0100
0010
,  // measure 96
2002
0000
0000
0000
,  // measure 97
0000
0000
0000
0000
,  // measure 98
0000
0000
0000
3003
;

//---------------dance-single - ----------------
#NOTES:
     dance-single:
     :
     Medium:
     7:
     0.451,0.453,0.057,0.185,0.000: // measure 1
0000
0000
0000
0000
,  // measure 2
0000
0000
0000
0000
,  // measure 3
0000
0000
0000
0000
,  // measure 4
0000
0000
0000
0000
,  // measure 5
0000
0000
0000
0000
,  // measure 6
0000
0000
0000
0000
,  // measure 7
0000
0000
0000
0000
,  // measure 8
0000
0000
0000
0000
,  // measure 9
0000
0000
0000
0000
,  // measure 10
0000
0000
0000
0000
,  // measure 11
0010
0000
0010
0000
,  // measure 12
0100
0000
0100
0000
,  // measure 13
0001
0000
0001
0000
,  // measure 14
1000
1000
2000
3000
,  // measure 15
0010
0000
0100
0000
0010
0100
0010
0000
,  // measure 16
1000
0000
0001
0000
1000
0001
1000
0000
,  // measure 17
0001
0000
0010
0000
0100
1000
0100
0000
,  // measure 18
0000
1000
0001
0000
0100
0001
0100
0000
,  // measure 19
0001
0000
0010
0000
0100
1000
0001
1000
,  // measure 20
0000
0001
0010
0000
0001
0100
0001
0000
,  // measure 21
1000
0000
0010
0000
0100
0010
1000
0010
,  // measure 22
1000
1000
0100
0100
,  // measure 23
0010
0000
0010
0000
0001
1000
0001
0000
,  // measure 24
0010
0010
0001
0001
,  // measure 25
0100
0000
0100
0010
0100
0000
0010
0000
,  // measure 26
1000
0000
0100
1000
0100
0000
0010
0000
,  // measure 27
0001
0000
0100
0001
0100
0000
0001
0000
,  // measure 28
1000
0000
0001
1000
0020
0000
1030
0000
,  // measure 29
0001
0000
1000
0001
0200
0000
0301
0000
,  // measure 30
1000
0100
1000
0000
0001
0000
0010
0000
,  // measure 31
0001
0100
0001
0000
1000
0000
0010
0000
,  // measure 32
1000
0000
0100
0010
0001
0000
1000
0000
,  // measure 33
0001
0010
0100
0000
2000
0000
3000
0000
,  // measure 34
0010
0000
0100
0010
0200
0000
0310
0000
,  // measure 35
1000
0000
0100
0000
0010
0100
1000
0000
,  // measure 36
0010
0000
0100
0010
0200
0000
0310
0000
,  // measure 37
0100
0000
0001
1000
0010
0000
1000
0000
,  // measure 38
0001
0000
0010
0200
1000
0000
0301
0000
,  // measure 39
1000
0000
0010
0200
0001
0000
1300
0000
,  // measure 40
0001
0000
0010
0001
0000
0001
0100
0000
,  // measure 41
0010
0000
1000
0100
0020
0000
0130
0000
,  // measure 42
1000
0000
0100
2000
0000
0000
3001
0000
,  // measure 43
0100
0000
0001
0100
0001
0000
0010
0000
,  // measure 44
0001
0000
0100
0002
0000
0000
1003
0000
,  // measure 45
0010
0000
0100
0010
0200
0000
0300
0000
,  // measure 46
0010
0000
1000
0002
0000
0000
0013
0000
,  // measure 47
0001
0000
0100
0001
0100
0000
0010
0000
,  // measure 48
0100
0000
0001
2000
0000
0000
3100
0000
,  // measure 49
1000
0000
0100
0010
0002
0000
0003
0000
,  // measure 50
1000
0000
0100
1000
0100
0000
1000
0000
,  // measure 51
0001
0000
0100
0001
0010
0000
0110
0000
,  // measure 52
0001
0000
0100
0001
0100
0000
0010
0000
,  // measure 53
1000
0000
0100
1000
0010
0000
0110
0000
,  // measure 54
0010
0000
0100
0001
1000
0000
0010
0000
,  // measure 55
0100
0000
0001
1000
0010
0000
0110
0000
,  // measure 56
1000
0000
0100
0010
0001
0000
0010
0000
,  // measure 57
0100
0000
1000
0001
0200
0000
0300
0000
,  // measure 58
0001
0001
0100
0100
,  // measure 59
0010
0010
1000
1000
,  // measure 60
0001
0001
0010
0010
,  // measure 61
1000
1000
0100
0100
,  // measure 62
0001
0010
0100
1000
,  // measure 63
0001
0010
0100
1000
,  // measure 64
0001
0010
1000
0100
,  // measure 65
1001
0000
0010
0000
0100
0001
0100
0000
,  // measure 66
0001
0000
0010
0100
1000
1000
0000
1000
,  // measure 67
0001
0000
0100
0000
0010
1000
0010
0000
,  // measure 68
1000
0000
0100
0010
0001
0001
0000
0001
,  // measure 69
0010
0000
0100
0000
0010
0001
0100
0000
,  // measure 70
0001
0000
0100
0010
2000
0000
3000
0000
,  // measure 71
0010
0000
0100
0001
1000
0000
0001
0000
,  // measure 72
1000
0000
0100
0010
0002
0000
0003
0000
,  // measure 73
1000
0000
0100
2000
0010
0000
3001
0000
,  // measure 74
0100
0000
0001
0010
0100
0000
0010
0000
,  // measure 75
0001
0000
0100
0002
1000
0000
0013
0000
,  // measure 76
1000
0000
0100
1000
0010
0000
0110
0000
,  // measure 77
0001
0000
0100
0002
0010
0000
1003
0000
,  // measure 78
0010
0000
0100
0001
1000
0000
0010
0000
,  // measure 79
1000
0000
0100
2000
0010
0000
3100
0000
,  // measure 80
0010
0000
0100
0001
0010
0000
0110
0000
,  // measure 81
0001
0010
0001
0000
1000
0000
1000
0000
,  // measure 82
0001
0010
0001
0000
0100
0010
1000
0000
,  // measure 83
1000
0010
1000
0000
0001
0000
0001
0000
,  // measure 84
1000
0010
1000
0000
0100
0010
0001
0000
,  // measure 85
0100
0001
0100
0000
0010
0000
0010
0000
,  // measure 86
0100
0001
1000
0000
0001
0010
0100
0000
,  // measure 87
1000
0100
1000
0000
0010
0000
0010
0000
,  // measure 88
0100
0001
1000
0000
0220
0000
0330
0000
,  // measure 89
0001
0010
0001
0010
0100
0000
0100
0000
,  // measure 90
1000
0010
1000
0000
0001
0100
0010
0000
,  // measure 91
1000
0010
1000
0010
0100
0000
0100
0000
,  // measure 92
0001
0010
0100
0000
0010
0001
1000
0000
,  // measure 93
0001
0100
0010
0100
0001
0000
0001
0000
,  // measure 94
1000
0100
0010
0000
0100
1000
0001
0000
,  // measure 95
0100
0010
0100
0000
0010
0100
0010
0000
,  // measure 96
2002
0000
0000
0000
,  // measure 97
0000
0000
0000
0000
,  // measure 98
0000
0000
0000
3003
;

//---------------dance-single - ----------------
#NOTES:
     dance-single:
     :
     Hard:
     9:
     0.651,0.662,0.242,0.264,0.075: // measure 1
0000
0000
0000
0000
,  // measure 2
0000
0000
0000
0000
,  // measure 3
0000
0000
0000
0000
,  // measure 4
0000
0000
0000
0000
,  // measure 5
0000
0000
0000
0000
,  // measure 6
0000
0000
0000
0000
,  // measure 7
0000
0000
0000
0000
,  // measure 8
0000
0000
0000
0000
,  // measure 9
0000
0000
0000
0000
,  // measure 10
0000
0000
0000
0000
,  // measure 11
0010
0010
0100
0100
,  // measure 12
0001
0001
1000
1000
,  // measure 13
0001
0021
0001
0130
,  // measure 14
1000
1020
1000
0130
,  // measure 15
0010
0100
0010
0000
0100
0010
0100
0000
,  // measure 16
0001
1000
0001
0000
1000
0100
1000
0000
,  // measure 17
0001
0001
0010
0010
0100
0100
1000
0001
,  // measure 18
0100
0001
0010
0100
0010
0001
0100
0010
,  // measure 19
0100
0001
0010
0100
1000
0001
1000
1010
,  // measure 20
0000
0100
0010
1000
0100
0010
0100
1000
,  // measure 21
0100
0010
0001
0100
0001
0010
0001
0011
,  // measure 22
0100
0100
1000
1000
,  // measure 23
0010
0000
0010
0100
0001
0010
0100
0000
,  // measure 24
0010
0010
0001
0001
,  // measure 25
0100
0000
0010
1000
0001
0000
1000
0000
,  // measure 26
0010
1000
0010
0100
0001
0100
0001
0010
,  // measure 27
0100
0010
0001
0100
0201
0000
0310
0000
,  // measure 28
0001
0010
0100
0010
0012
0000
1003
0000
,  // measure 29
1000
0010
0100
0010
2010
0000
3001
0000
,  // measure 30
1000
0100
0010
0100
1000
0010
0100
0001
,  // measure 31
1000
0100
1100
0100
1000
1010
0100
0010
,  // measure 32
1000
0000
0100
0010
0001
0100
0001
0010
,  // measure 33
0011
0001
0100
0010
0110
0001
0200
0000
,  // measure 34
0310
0000
1000
0100
0010
0100
1000
0010
,  // measure 35
0100
0000
0001
0010
0100
0010
0001
0100
,  // measure 36
0010
0000
0100
0001
1000
0010
1000
0001
,  // measure 37
1000
0100
0001
0100
1000
0010
0001
0010
,  // measure 38
1000
0000
0100
2000
0010
0000
3001
0100
,  // measure 39
0001
0000
0010
0200
1000
0000
0301
0000
,  // measure 40
1000
0000
0000
0100
1000
0000
0100
0000
0010
0000
0000
0001
0010
0000
0001
0000
,  // measure 41
0100
0000
0000
0010
0100
0000
0001
0000
1000
0000
0000
0000
1001
0000
0000
0000
,  // measure 42
0021
0000
0031
0020
0100
0000
0031
0000
,  // measure 43
1000
0100
0010
0100
1000
0010
0100
0000
,  // measure 44
1020
0000
1030
0020
1000
0000
0130
0000
,  // measure 45
1000
0000
0000
0100
0010
0000
0100
0000
1000
0000
0000
0000
1001
0000
0000
0000
,  // measure 46
0210
0000
0301
0200
0010
0000
1300
0000
,  // measure 47
0001
0100
0010
0100
0001
0010
0100
0000
,  // measure 48
0120
0000
0031
0020
0001
0000
1030
0000
,  // measure 49
0010
0000
0000
0001
0100
0000
0010
0000
0100
0000
0000
0000
0110
0000
0000
0000
,  // measure 50
1000
0100
0010
0100
1000
0010
0100
0010
,  // measure 51
1000
0100
0010
0100
1000
0100
1100
0000
,  // measure 52
0001
0100
0010
0100
0001
0010
0100
0010
,  // measure 53
0001
0100
0010
0100
0001
1000
1001
0000
,  // measure 54
0010
1000
0100
0001
0100
1000
0010
0100
,  // measure 55
0001
0010
1000
0010
0001
0100
0101
0000
,  // measure 56
0010
0001
0100
1000
0100
0001
0010
1000
,  // measure 57
0010
0000
0000
0001
0100
0000
0010
0000
0100
0000
0000
0000
0110
0000
0000
0000
,  // measure 58
2000
3100
0200
0301
,  // measure 59
0002
0013
0020
1030
,  // measure 60
2000
3010
0020
0031
,  // measure 61
0002
0103
0200
1300
,  // measure 62
0010
0000
0000
0100
0010
0000
0100
0000
0001
0000
0000
0000
1001
0000
0000
0000
,  // measure 63
0010
0000
0000
0100
0010
0000
0100
0000
1000
0000
1000
0000
0001
0000
0001
0000
,  // measure 64
1000
1000
0010
0010
0100
0100
0001
1000
,  // measure 65
0100
1000
0010
1000
0001
0010
0100
0010
,  // measure 66
0001
0100
0010
0100
0001
0011
0000
1000
,  // measure 67
0100
1000
0010
1000
0010
0100
0010
1000
,  // measure 68
0001
0010
0100
1000
0100
1100
0000
1000
,  // measure 69
0010
0100
0001
0010
0001
0012
0000
1003
,  // measure 70
0010
0100
0010
1000
2010
0000
3001
1000
,  // measure 71
0100
0010
0100
1000
0010
0100
0001
0010
,  // measure 72
0100
0000
0000
0010
0100
0000
0010
0000
0001
0000
0000
0000
1001
0000
0000
0000
,  // measure 73
2010
0000
3010
2000
0100
0000
3001
0000
,  // measure 74
0001
0100
0010
1000
0001
0010
0100
0000
,  // measure 75
0012
0000
0103
0002
0010
0000
1003
0000
,  // measure 76
0010
0000
0000
0100
0010
0000
0100
0000
0001
0000
0100
0000
0001
0000
1000
0000
,  // measure 77
2100
0000
3100
2000
0010
0000
3001
0000
,  // measure 78
1000
0100
0010
0001
0100
0010
1000
0000
,  // measure 79
0120
0000
1030
0020
0100
0000
1030
0001
,  // measure 80
0010
0000
0000
0100
1000
0000
0001
0000
0010
0000
0000
0000
0110
0000
0000
0000
,  // measure 81
0001
0010
0100
0010
0001
0100
0010
0100
,  // measure 82
0001
0000
0010
0000
0100
0000
0010
0000
0001
0000
0010
0001
0010
0000
0000
0000
,  // measure 83
0001
0100
0010
0100
0001
0010
0100
0010
,  // measure 84
0001
0000
0100
0000
0010
0000
0100
0000
0001
0000
1000
0001
1000
0000
0000
0000
,  // measure 85
0010
1000
0100
0001
0100
1000
0010
0100
,  // measure 86
0001
0000
0010
0000
1000
0000
0010
0000
0001
0000
0100
0001
0100
0000
0000
0000
,  // measure 87
0010
0001
0100
1000
0100
0001
0010
1000
,  // measure 88
0010
0000
0000
0001
0100
0000
0010
0000
0200
0000
0000
0000
0310
0000
0000
0000
,  // measure 89
1000
1000
0100
0100
0010
0010
0001
0001
,  // measure 90
0100
0000
0100
0000
0010
0000
0100
0000
0001
0000
1000
0001
1000
0000
0000
0000
,  // measure 91
0001
0001
0010
0010
0100
0100
1000
1000
,  // measure 92
0001
0000
0001
0000
0100
0000
0100
0000
0010
0000
0100
0010
0100
0000
0000
0000
,  // measure 93
0010
0000
1000
0010
1000
0000
0001
0000
1000
0000
0100
0000
0010
0000
0100
0000
,  // measure 94
1000
0000
0001
1000
0001
0000
1000
0000
0001
0000
1000
0100
1000
0000
0000
0000
,  // measure 95
0001
0000
0001
0000
0100
0000
0100
0000
0010
0000
0100
0010
0100
0000
0010
0000
,  // measure 96
2002
0000
0000
0000
,  // measure 97
0000
0000
0000
0000
,  // measure 98
0000
0000
0000
3003
;
