#TITLE:NE ONE;
#SUBTITLE:;
#ARTIST:Survive Said the Prophet;
#TITLETRANSLIT:;
#SUBTITLETRANSLIT:;
#ARTISTTRANSLIT:;
#GENRE:Post-hardcore;
#CREDIT:TiKAL+;
#MUSIC:NEONE.ogg;
#BANNER:bn.png;
#BACKGROUND:bg.png;
#CDTITLE:cdtitle.png;
#SAMPLESTART:77.956;
#SAMPLELENGTH:24.000;
#SELECTABLE:YES;
#OFFSET:-0.003;
#BPMS:0.000=160.000;
#STOPS:;
#BGCHANGES:;
#FGCHANGES:;

//--------------- dance-single - ----------------
#NOTES:
     dance-single:
     :
     Challenge:
     9:
     0,0,0,0,0:
0000
0000
0000
0000
,
0000
0000
0000
0000
,
0000
0000
0000
0000
,
0000
0000
0000
0000
,
0000
0000
0000
0000
,
0000
0000
0000
0000
,
0000
0000
0000
0000
,
0000
0000
0000
0000
,
1000
0000
1000
0000
0010
0010
0100
0010
,
0000
1000
0000
0001
0000
0010
0100
0000
,
1000
1000
0100
0010
0000
0001
1000
0001
,
0100
0010
0100
0001
0000
2000
0000
3000
,
0001
0000
0001
0000
0010
0010
0100
0010
,
0000
0001
0000
1000
0000
0010
0100
0002
,
0000
0000
0103
2000
0000
0000
3100
0020
,
0000
0000
1030
0200
0000
0000
0310
0001
,
0011
0000
1000
0010
1000
0000
0100
0000
,
1100
0000
0001
0100
0001
1000
0100
0002
,
0000
0000
0103
2000
0000
0000
3100
0020
,
0000
0000
0031
0200
0000
0000
0310
1000
,
1010
0000
0001
0010
0001
0000
0100
0000
,
0101
0000
1000
0100
1000
0001
0100
2000
,
0000
0000
3100
0002
0000
0000
0013
0200
,
0000
0000
1300
0020
0000
0000
0130
0001
,
1001
1000
0001
0100
0010
1000
0010
0100
,
0020
0000
0000
0000
1030
0000
1000
0000
0001
0000
0010
0000
0001
0000
1000
0001
,
1000
0100
0010
0100
0001
0000
0100
1000
,
0002
0203
0320
2030
,
3001
0000
1000
0001
1000
0000
0100
0000
0010
0000
0001
0000
0010
0000
0100
0000
,
0020
0000
0000
0000
0031
0000
0001
0000
1000
0000
0010
0000
1000
0000
0001
1000
,
0001
0010
0100
0010
1000
0000
1000
0010
,
0100
0000
0010
0000
0002
0000
0000
0003
0001
0000
0100
0000
0010
0000
0200
0000
,
0000
0300
0010
1000
0100
0010
0100
2000
,
0000
3002
0000
0003
1000
0010
0100
0020
,
0000
0030
0100
0001
0010
0100
0010
0002
,
0000
2003
0000
3000
0001
0100
0010
2000
,
0000
3200
0000
0320
0000
0230
0000
0302
,
0000
0000
0103
1000
0001
0010
0100
2000
,
0000
3020
0000
0230
0000
0320
0000
0032
,
0000
0000
0000
0000
0013
0000
0000
0000
1000
0000
0001
0000
0100
0000
0010
1000
,
0010
0000
1000
0100
0000
1100
0000
1000
,
0000
0010
0110
0000
0100
0001
1000
0000
,
0001
0010
0001
0000
0101
0000
0001
0011
,
0000
0000
0010
0000
0110
0000
0000
0000
0100
0000
1000
0000
0001
1000
0001
1000
,
0001
0000
0100
0001
0000
0011
0000
0001
,
0000
0100
0110
0000
0010
1000
0001
0000
,
1000
0100
1000
0000
1010
0000
1000
1100
,
0000
0000
0100
0000
0010
0000
0001
0000
1000
0000
0010
0100
0001
1000
0001
1000
,
0002
0000
0000
0000
0100
0000
0000
0000
0100
0000
0003
0001
0100
0000
0010
0000
,
1000
0000
0100
0110
0010
0000
0001
1001
,
1000
0000
0010
0000
1000
0000
0010
0000
0100
0001
0100
0001
1000
0100
1000
0100
,
0000
M000
000M
00M0
0M00
M000
0M00
000M
,
1001
1000
0010
1000
0001
0001
0010
0001
,
0000
0101
0000
1100
0000
1000
0001
0000
,
0100
0100
0010
1000
0000
0100
0010
0010
,
0001
0000
0100
0000
0001
0000
1000
0000
0000
0000
1010
0000
0000
0000
1000
0001
,
0200
0000
0302
0000
1003
1000
0100
1000
,
0000
1010
0000
0011
0000
0001
0010
0002
,
0000
0000
0103
2000
0000
0000
3100
0020
,
0000
0000
1030
0200
0000
0000
0310
0001
,
1000
0000
0010
0000
1010
0000
0001
0010
,
0100
0000
0010
0000
0000
0000
0001
1000
0001
0000
1000
0000
0010
0000
2000
0000
,
0000
0000
3100
0002
0000
0000
0103
0020
,
0000
0000
0031
0200
0000
0000
0310
1000
,
0001
0000
0010
0000
0011
0000
1000
0010
,
0100
0000
0010
0000
0000
0000
1000
0001
1000
0000
0100
0000
0010
0000
0001
0000
,
1001
0000
1000
0010
1000
0001
0010
0220
,
0000
0000
0000
0000
0000
0330
1000
0001
,
0101
0000
0101
0000
0100
0100
0100
0110
,
0000
0101
0000
1001
0000
1000
0100
0002
,
0000
0000
0103
0020
0000
0000
0130
2000
,
0000
0000
3010
0200
0000
0000
0301
1000
,
1100
0000
1100
0000
0100
0100
0100
0110
,
0000
1100
0000
1001
0000
0001
0100
2000
,
0000
0000
3100
0020
0000
0000
0130
0002
,
0000
0000
0013
0001
0010
0001
0200
0000
0310
0000
1000
0001
0100
0000
0010
1000
,
0001
0000
0011
0000
0011
0000
0010
0110
,
0000
0011
0000
1001
0000
1000
0010
0002
,
0000
0000
0013
0200
0000
0000
0310
2000
,
0000
0000
3100
0020
0000
0000
0031
1000
,
0010
0000
0100
0001
0100
0001
1000
0100
0010
0000
0010
0000
0010
0000
0011
0000
,
0000
0000
1001
0000
0000
0000
1000
0010
1000
0001
1000
0100
1000
0100
0010
0001
,
1000
0010
0001
0010
0100
0010
1000
0001
,
0010
0000
0110
0000
0000
0000
1001
0000
0000
0000
0001
0100
0001
0100
0010
1000
;
