#TITLE:Hello, Morning;
#SUBTITLE:;
#ARTIST:Nor feat. キズナアイ;
#TITLETRANSLIT:;
#SUBTITLETRANSLIT:;
#ARTISTTRANSLIT:Nor feat. Kizuna AI;
#GENRE:Future Bass;
#CREDIT:ledgam3r1279 (song), CuzcoBlocko (steps);
#BANNER:[Round A] - Hello, Morning.png;
#BACKGROUND:[Round A] - Hello, Morning-bg.png;
#LYRICSPATH:;
#CDTITLE:cdtitle.png;
#MUSIC:Hello, Morning.ogg;
#OFFSET:-1.501;
#SAMPLESTART:74.625;
#SAMPLELENGTH:15.000;
#SELECTABLE:YES;
#BPMS:0.000=80.000,29.875=160.000,96.000=80.000,99.500=160.000,99.750=80.000,99.875=40.000,100.000=80.000,130.000=160.430,131.500=160.000,131.750=80.000,131.875=40.000,132.000=160.000;
#STOPS:29.875=0.797,
130.000=0.094,
130.250=0.094,
130.500=0.094,
130.750=0.094,
131.000=0.047,
131.125=0.047,
131.250=0.047,
131.375=0.047;
#BGCHANGES:;
#KEYSOUNDS:;
#ATTACKS:;

//---------------dance-single - Warming up after a 3 month hiatus.----------------
#NOTES:
     dance-single:
     ITG 08 X 13:
     Challenge:
     8:
     0.387575,0.619344,0.318839,0.811589,0.173912,468.000000,413.000000,55.000000,140.000000,0.000000,0.000000,0.387575,0.619344,0.318839,0.811589,0.173912,468.000000,413.000000,55.000000,140.000000,0.000000,0.000000:
// measure 0
0000
0000
0000
0000
,  // measure 1
0000
0000
0000
0000
,  // measure 2
0000
0000
0000
0000
,  // measure 3
0000
0000
0000
0000
,  // measure 4
2100
0000
0000
0100
0000
0000
0001
0000
0000
0100
0000
0000
3100
0000
0000
0000
,  // measure 5
0102
0000
0000
0100
0000
0000
1000
0000
0000
0100
0000
0000
0103
0000
0000
0000
,  // measure 6
2001
0001
0010
3001
1002
0010
1000
1003
,  // measure 7
1010
0010
0100
0100
0001
0001
1000
1000
0400
0040
0000
0000
0330
0000
0000
0000
,  // measure 8
0002
0100
0103
0000
0001
0002
0103
0020
,  // measure 9
0000
0000
0130
0000
0001
0000
0020
0000
0130
0000
2000
3000
2000
0000
3000
0000
,  // measure 10
0002
0100
0103
0000
0001
0002
0013
2000
,  // measure 11
0000
3000
0012
0000
1000
0000
0100
0000
,  // measure 12
2003
0100
3100
0000
1000
2000
3100
0020
,  // measure 13
0000
0000
0130
0000
1000
0000
0020
0000
0130
0000
0002
0003
0002
0000
0003
0000
,  // measure 14
0021
0000
0000
0030
0100
0000
2000
0000
0010
3000
0000
0000
0200
0000
0001
0300
,  // measure 15
0010
0000
0200
0000
0001
0300
0100
0010
0100
0000
1000
0000
1001
0000
0000
0000
,  // measure 16
0400
0040
0000
0000
0000
0000
0000
0330
1000
0000
2000
0000
3100
0000
0020
0000
,  // measure 17
0000
0000
0130
0000
1000
0000
0020
0000
0130
0000
0002
0003
0002
0000
0003
0000
,  // measure 18
2000
0100
3100
0000
1000
2000
3010
0002
,  // measure 19
0000
0003
2010
0000
0001
0000
0100
0000
,  // measure 20
3002
0100
0103
0000
0001
0002
0103
0020
,  // measure 21
0000
0000
0130
0000
0001
0000
0020
0000
0130
0000
2000
3000
2000
0000
3000
0000
,  // measure 22
1020
0000
0000
0030
0100
0000
0002
0000
0010
0003
0000
0000
0200
0000
1000
0300
,  // measure 23
0010
0000
0200
0000
1000
0300
0100
0010
0100
0000
0001
0000
2002
0000
0000
0000
,  // measure 24
3003
0000
0000
0000
0000
0000
0000
0000
0000
0000
0000
0000
0000
0000
0000
0000
1000
0000
0010
0000
0100
0000
0001
0000
4000
0400
0000
0000
3300
0000
0000
0000
,  // measure 25
0011
0000
0000
0000
0001
0100
0000
0100
0001
1000
0000
0000
1001
0000
1000
0000
,  // measure 26
1100
0000
0000
0000
0100
1000
0000
0010
0100
0000
0001
0000
0101
0000
0001
0000
,  // measure 27
1001
0000
0000
0000
1000
0100
0000
0100
1000
0001
0000
0000
1001
0000
1000
0000
,  // measure 28
1010
0000
0000
0000
0000
0000
0001
0000
0010
0000
0000
0000
0100
0000
0000
0000
0010
0000
0100
0000
0000
0000
1000
0100
0010
0000
0001
0000
1001
0000
0000
0000
,  // measure 29
0101
0000
0000
0100
0001
0000
1000
0000
0001
0100
0000
0000
0001
0000
1000
0000
,  // measure 30
1100
0000
0000
0100
1000
0000
0010
0000
1000
0100
0000
0000
1000
0000
0001
0000
,  // measure 31
0011
0000
1100
0000
0101
0000
1000
0010
1000
0001
0100
0000
1010
0000
1001
0000
,  // measure 32
0011
0000
0010
0000
0100
0000
1000
0000
1001
0000
1000
0000
0010
0000
0100
0000
0001
0000
0010
0000
0100
0000
1000
0000
0004
0400
0000
0000
0303
0000
0000
0000
,  // measure 33
0120
0000
0000
0000
4030
0004
0000
3000
0013
0000
0020
0000
0130
0000
2100
0000
,  // measure 34
0000
0000
3001
0000
0001
0000
2000
0000
3010
0000
0200
0302
0203
0300
0000
0000
,  // measure 35
0210
0000
0000
0000
0304
4000
0000
0003
3100
0000
0200
0000
0310
0000
0012
0000
,  // measure 36
0000
0000
0103
0000
0120
0000
0000
0000
2030
0000
0000
0000
3200
0000
0000
0300
,  // measure 37
0120
0000
0000
0000
0034
4000
0000
0003
3010
0000
0020
0000
0130
0000
0102
0000
,  // measure 38
0000
0000
1003
0000
0010
0000
0002
0000
0013
0000
2000
3002
2003
3000
0100
0000
,  // measure 39
0120
0000
0000
0030
0001
0000
2000
0000
0001
3000
0000
0000
0201
0000
0000
0300
,  // measure 40
0010
0000
0200
0000
1000
0300
0100
0010
0100
0000
0001
0000
1001
0000
0000
0000
,  // measure 41
0040
0400
0000
0000
0000
0000
0000
0330
1000
0000
0020
0000
0130
0000
0102
0000
,  // measure 42
0000
0000
1003
0000
1000
0000
0002
0000
0013
0000
0200
2300
3200
0300
0000
0000
,  // measure 43
0210
0000
0000
0000
4300
0004
0000
3000
0103
0000
0200
0000
0310
0000
2010
0000
,  // measure 44
0000
0000
3100
0000
0120
0000
0000
0000
0032
0000
0000
0000
0203
0000
0000
0300
,  // measure 45
0120
0000
0000
0000
4030
0004
0000
3000
0013
0000
0020
0000
0130
0000
2100
0000
,  // measure 46
0000
0000
3001
0000
0010
0000
2000
0000
3010
0000
0002
2003
3002
0003
0100
0000
,  // measure 47
0120
0000
0000
0030
1000
0000
0002
0000
1000
0003
0000
0000
1200
0000
0000
0300
,  // measure 48
0001
0000
0200
0000
0010
0300
0000
0000
0400
4000
0000
0000
3300
0000
0000
0000
,  // measure 49
0002
0100
0103
0000
0001
0002
0103
2000
,  // measure 50
0000
0000
3100
0000
0001
0000
2000
0000
3100
0000
0020
0230
0320
0030
0000
0000
,  // measure 51
0002
0100
0103
0000
0001
0002
0013
2000
,  // measure 52
0000
0000
3000
0000
0012
0000
0000
0003
1002
0000
0000
0003
0102
0000
0000
0000
,  // measure 53
2003
0100
3100
0000
1000
2000
3100
0002
,  // measure 54
0000
0000
0103
0000
1000
0000
0002
0000
0103
0000
0020
0230
0320
0030
0000
0000
,  // measure 55
2010
0000
3001
0200
1300
0000
0002
0103
,  // measure 56
1000
0000
0002
0000
0010
0003
0001
1000
0001
0000
0100
0000
0110
0000
0000
0000
,  // measure 57
0400
0004
0000
0000
0000
0000
0000
0300
1003
0000
2000
0000
3200
0300
0002
0000
,  // measure 58
0000
0000
0103
0000
1000
0000
0002
0000
0103
0000
0020
0230
0320
0030
0000
0000
,  // measure 59
2000
0100
3100
0000
1000
2000
3010
0002
,  // measure 60
0000
0000
0003
0000
2010
0000
0000
3000
2001
0000
0000
3000
2100
0000
0000
0000
,  // measure 61
3002
0100
0103
0000
0001
0002
0103
2000
,  // measure 62
0000
0000
3100
0000
0001
0000
2000
0000
3100
0000
0020
0230
0320
0030
0000
0000
,  // measure 63
0012
0000
1003
0200
0301
0000
2000
3100
,  // measure 64
0001
0000
2000
0000
0010
3000
1000
0001
0010
0000
0100
0000
0100
0000
0000
0000
;
