#VERSION:0.83;
#TITLE:Galacti[x]Discord;
#SUBTITLE:;
#ARTIST:Ange\;art vs brz;
#TITLETRANSLIT:;
#SUBTITLETRANSLIT:;
#ARTISTTRANSLIT:;
#GENRE:Techno;
#ORIGIN:;
#CREDIT:;
#BANNER:[Round A] - Galacti[x]Discord.png;
#BACKGROUND:[Round A] - Galacti[x]Discord-bg.png;
#PREVIEWVID:;
#JACKET:[Round A] - Galacti[x]Discord-jacket.png;
#CDIMAGE:;
#DISCIMAGE:;
#LYRICSPATH:;
#CDTITLE:cdtitle.png;
#MUSIC:[Round A] - Galacti[x]Discord.ogg;
#OFFSET:-0.452745;
#SAMPLESTART:75.119408;
#SAMPLELENGTH:14.182220;
#SELECTABLE:YES;
#BPMS:0.000=135.000,
104.000=67.500,
120.000=135.000;
#STOPS:;
#DELAYS:;
#WARPS:;
#TIMESIGNATURES:0.000=4=4;
#TICKCOUNTS:0.000=4;
#COMBOS:0.000=1;
#SPEEDS:0.000=1.000=0.000=0;
#SCROLLS:0.000=1.000;
#FAKES:;
#LABELS:0.000=Song Start;
#BGCHANGES:;
#KEYSOUNDS:;
#ATTACKS:
;

//---------------dance-single - ----------------
#NOTEDATA:;
#CHARTNAME:09-14;
#STEPSTYPE:dance-single;
#DESCRIPTION:;
#CHARTSTYLE:;
#DIFFICULTY:Challenge;
#METER:9;
#RADARVALUES:0.659681,0.719046,0.230095,0.261832,0.789463,582.000000,553.000000,29.000000,33.000000,176.000000,0.000000,4.000000,0.000000,0.000000,0.659681,0.719046,0.230095,0.261832,0.789463,582.000000,553.000000,29.000000,33.000000,176.000000,0.000000,4.000000,0.000000,0.000000;
#CREDIT:;
#NOTES:
// measure 0
0000
0000
0000
0000
,  // measure 1
0000
0000
0000
0000
,  // measure 2
1000
0001
0010
1000
0001
0100
1000
0001
,  // measure 3
0010
1000
0010
0001
0100
1000
0001
0010
,  // measure 4
1000
0001
0100
0001
1000
0001
0100
0001
,  // measure 5
1000
0000
0000
0100
0000
0000
0010
0000
0000
0001
0000
0000
0010
0000
0000
0000
0000
0000
0001
0000
0000
0000
0000
0000
1000
0000
0000
0000
0000
0000
0001
0000
0100
0000
0001
0000
0100
0000
0000
0000
0000
0000
0010
0000
0000
1000
0000
0000
,  // measure 6
0001
0010
1000
0001
0100
1000
0001
0100
,  // measure 7
1000
0001
0010
1000
0100
0001
0100
1000
,  // measure 8
0010
1000
0001
0010
0001
1000
0001
0100
,  // measure 9
0010
0000
0010
0000
0010
0000
0010
0000
0100
0010
0100
0010
0100
0010
0100
0010
,  // measure 10
1000
0200
0301
0200
1300
0200
0301
0100
,  // measure 11
4000
0000
3010
1000
0010
M00M
0010
0001
0100
0000
0000
1001
0000
0000
0011
0000
,  // measure 12
1000
0000
1000
0000
0010
0000
0010
0000
0100
0000
0100
0000
0001
0000
1000
0100
,  // measure 13
0010
0000
0000
0000
0000
0000
0100
0000
0000
0010
0000
0000
0001
0000
0000
0100
0000
0000
0010
0000
0000
0000
0000
0000
0100
0000
0000
0000
0000
0000
1001
0000
0000
0000
0000
0000
0001
0000
1000
0000
0001
0000
1000
0000
0000
0001
0000
0000
,  // measure 14
0010
0000
0000
0000
1010
0000
0000
0000
0011
0000
0000
0001
0100
0000
0010
0000
,  // measure 15
1000
1010
0000
0011
0001
0100
2001
0000
,  // measure 16
3100
0000
1000
0001
1000
0M10
0M10
0001
1001
0000
0000
1000
0100
0000
0010
0000
,  // measure 17
0001
0000
0100
0000
1000
0000
0100
0000
0001
0100
0001
0100
0010
1000
0010
1000
,  // measure 18
0001
0000
0001
0000
0010
MM0M
0010
0000
1000
0000
1000
0100
1000
0000
0010
MM0M
,  // measure 19
0010
0000
0001
0000
01M0
01M0
1000
0000
0010
0000
0010
0000
0101
0000
0000
0000
,  // measure 20
1001
0000
1000
0000
0010
MM0M
0010
0000
0001
0000
0001
0100
0001
0000
0010
MM0M
,  // measure 21
0010
0000
1000
0000
01M0
01M0
0001
0000
0010
0100
1000
0000
1100
0000
0000
0000
,  // measure 22
1001
0000
0000
0000
0000
0000
0001
0000
0000
0000
0000
0000
0100
0000
0000
M0MM
0000
0000
0100
0000
0000
0000
0000
0000
1000
0000
0000
0000
0000
0000
0010
0000
1000
0000
0010
0000
1000
0000
0000
0000
0000
0000
0100
0000
0000
0010
0000
0000
,  // measure 23
0001
0000
0001
0000
01M0
01M0
1000
0010
1000
0000
0100
0010
0001
0000
0100
0010
,  // measure 24
1000
0000
0000
0000
0000
0000
1000
0000
0000
0000
0000
0000
0100
0000
0000
M0MM
0000
0000
0100
0000
0000
0000
0000
0000
0001
0000
0000
0000
0000
0000
0010
0000
0001
0000
0010
0000
0001
0000
0000
0000
0000
0000
0100
0000
0000
0000
0000
0000
,  // measure 25
1001
0000
0000
1000
0010
0000
1000
0000
1100
0000
0000
0110
0000
0000
0011
0000
,  // measure 26
M00M
M00M
M00M
M00M
M00M
M00M
M00M
M001
M00M
M00M
M00M
M00M
M00M
M00M
M00M
100M
,  // measure 27
M00M
M00M
M00M
M00M
M00M
M00M
M00M
M001
M00M
M00M
M00M
M00M
100M
M001
100M
M001
,  // measure 28
100M
M00M
M00M
100M
M00M
M00M
M00M
100M
M001
M00M
M00M
M001
M00M
M00M
M00M
M001
,  // measure 29
100M
0000
M00M
0000
M00M
0000
100M
0000
M00M
0000
M00M
0000
M00M
0000
100M
0000
M001
0000
100M
0010
M00M
0010
M001
0000
M001
0100
M00M
0100
100M
0000
M001
0000
,  // measure 30
1000
0010
1000
0200
0000
1300
0100
0002
,  // measure 31
0000
1003
0020
0000
0230
0000
2300
0000
,  // measure 32
3001
0010
0001
0200
0000
0301
0100
2000
,  // measure 33
0000
3100
0020
0000
2030
0000
3001
0000
,  // measure 34
0011
0100
1000
0020
0000
1030
0010
0002
,  // measure 35
0000
0013
0001
0200
0000
0301
0100
1000
,  // measure 36
0010
0000
0100
0000
0001
0100
0000
0001
0000
0001
0000
1000
0100
0000
0010
0000
,  // measure 37
0100
0000
0010
0001
0100
0000
1001
0000
0010
1000
0100
0000
0040
0000
0030
0000
,  // measure 38
0001
0000
1000
0010
0000
0010
1000
0000
0001
0000
0010
0100
0000
0001
0000
0100
,  // measure 39
1000
0000
0001
0010
0000
0010
0001
0000
1000
0000
0010
0100
0000
1000
0000
0100
,  // measure 40
0010
0100
0001
1000
0000
1000
0010
1000
0000
1000
0001
1000
0100
0010
0001
1000
,  // measure 41
0010
0000
0000
0000
0000
0000
1000
0000
0000
0100
0000
0000
M0MM
0000
0000
0100
0000
0000
0001
0000
0000
0000
0000
0000
0001
0000
0000
0010
0000
0000
MM0M
0000
0000
0010
0000
0000
1000
0000
0000
0000
0000
0000
0100
0000
0010
0000
0100
0000
,  // measure 42
0010
0000
0001
1000
0000
1000
0001
0000
0100
0000
0010
0001
0000
0010
0000
0100
,  // measure 43
0001
0000
1000
0001
0000
0001
1000
0000
0100
0000
0010
1000
0000
0010
0000
0100
,  // measure 44
0010
0100
1000
0001
0000
0001
0010
0001
0000
0001
1000
0001
0100
0010
1000
0001
,  // measure 45
0100
0000
0000
0000
0000
0000
0100
0000
0000
0000
0000
0000
0001
0000
0000
0000
0000
0000
0010
0000
0000
0001
0000
0000
1000
0000
0000
0000
0000
0000
0010
0000
0000
1000
0000
0000
0001
0000
0000
0000
0000
0000
1000
0000
0001
0000
1000
0000
,  // measure 46
0001
0000
0010
0000
0001
01M0
0000
01M0
0000
01M0
0000
01MM
1000
0000
0012
0000
,  // measure 47
1003
0000
0010
0000
1000
01M0
0000
01M0
0000
01M0
0000
M1M0
0001
0000
2010
0000
,  // measure 48
3001
0000
0010
0000
0001
01M0
0000
01M0
0000
01M0
0000
01MM
1000
0000
1020
0000
,  // measure 49
0130
0000
0001
0000
0010
0100
0000
0001
0000
0100
0000
0010
0001
0000
1002
0000
,  // measure 50
1003
0000
0100
0000
1000
0M10
0000
0M10
0000
0M10
0000
MM10
0001
0000
2010
0000
,  // measure 51
3001
0000
0100
0000
0001
0M10
0000
0M10
0000
0M10
0000
0M1M
1000
0000
0012
0000
,  // measure 52
1003
0000
0100
0000
1000
0M10
0000
0M10
0000
0M10
0000
MM10
0001
0000
1002
0000
,  // measure 53
0103
0000
0000
0000
0001
0000
1000
0000
0001
0000
0000
0000
0010
0000
0000
0000
0100
0000
0000
0000
0010
0000
0001
0000
4000
0000
0040
0000
0000
3000
0000
0030
,  // measure 54
1000
0000
0020
1030
0001
0000
2000
3000
0001
0000
2000
3000
0100
0010
0000
0010
,  // measure 55
0001
0000
0020
0031
1000
0000
0002
0003
1000
0000
0002
0003
0100
0000
0010
0010
,  // measure 56
1000
0000
0002
1003
0100
0000
0020
0030
0100
0000
0020
0030
1001
0000
0000
0000
,  // measure 57
0001
0000
0000
0000
0000
0000
1000
0000
0000
0010
0000
0000
0000
0000
0000
0010
0000
0000
1000
0000
0000
0000
0000
0000
0001
0000
0000
0000
0000
0000
0010
0000
0000
0001
0000
0000
0100
0000
0000
0000
0000
0000
0001
0000
1000
0000
0001
0000
,  // measure 58
1000
0000
0001
0100
M0MM
0100
1000
0000
0001
0010
0100
0000
1100
0000
0100
1000
,  // measure 59
0001
0000
1000
0010
MM0M
0010
0001
0000
1000
0010
0100
0000
0101
0000
0001
1000
,  // measure 60
0100
0010
0100
0010
0100
0010
0100
0010
0001
1000
0100
0010
0100
0000
0010
0001
,  // measure 61
0100
0000
0010
0000
0100
0010
0000
1000
0000
0001
0000
0010
0100
0000
0010
0000
,  // measure 62
2000
0000
3000
0000
;

//---------------dance-single - ----------------
#NOTEDATA:;
#CHARTNAME:08-11;
#STEPSTYPE:dance-single;
#DESCRIPTION:;
#CHARTSTYLE:;
#DIFFICULTY:Hard;
#METER:8;
#RADARVALUES:0.530465,0.495894,0.341175,0.198358,0.412584,468.000000,425.000000,43.000000,25.000000,47.000000,0.000000,0.000000,0.000000,0.000000,0.530465,0.495894,0.341175,0.198358,0.412584,468.000000,425.000000,43.000000,25.000000,47.000000,0.000000,0.000000,0.000000,0.000000;
#CREDIT:;
#NOTES:
// measure 0
0000
0000
0000
0000
,  // measure 1
0000
0000
0000
0000
,  // measure 2
1000
0001
0010
0100
0010
0001
0100
0001
,  // measure 3
0010
0100
0001
0100
0010
0001
0100
0010
,  // measure 4
0001
0010
0100
0001
0100
0010
0100
0001
,  // measure 5
1000
1100
0000
0110
0000
0011
0000
1001
,  // measure 6
0001
1000
0010
0100
0010
1000
0100
0010
,  // measure 7
1000
0010
0100
1000
0010
0100
1000
0100
,  // measure 8
0010
1000
0100
0010
0100
1000
0100
0010
,  // measure 9
0001
0001
1000
1000
0001
0100
0020
2000
,  // measure 10
3030
0011
0000
1010
0000
0011
0000
1010
,  // measure 11
0100
0000
0001
0000
0001
0000
0010
0000
0110
0000
0000
0011
0000
0000
1001
0000
,  // measure 12
1000
0010
1000
0010
0001
0010
0001
0010
,  // measure 13
1000
1000
0100
1000
0001
0100
0001
0000
,  // measure 14
1001
0000
0000
0000
1001
0000
0000
0000
1001
0000
0000
0100
0010
0000
0100
0000
,  // measure 15
0000
1001
0000
1001
0010
0010
2001
0000
,  // measure 16
3100
0000
0000
0000
0100
0000
0000
0000
1001
0000
0000
1000
0010
0000
0100
0000
,  // measure 17
0001
0001
1000
1000
0001
0010
1000
0010
,  // measure 18
0001
0000
0100
0000
0001
0000
0100
0000
0001
0000
0100
0010
0100
0000
0001
0000
,  // measure 19
0010
0000
0010
0000
0100
0010
0100
0000
1000
0000
0001
0000
0101
0000
0000
0000
,  // measure 20
1000
0000
0100
0000
1000
0000
0100
0000
1000
0000
0100
0010
0100
0000
1000
0000
,  // measure 21
0010
0000
0010
0000
0100
0010
0100
0000
0001
0000
1000
0000
1100
0000
0000
0000
,  // measure 22
0001
0000
0010
0000
0100
0000
1000
0000
0001
0000
0010
0100
0010
0000
0001
0000
,  // measure 23
1000
0000
0010
0000
0100
0010
0100
0000
0001
0000
1000
0000
0100
0000
0010
0000
,  // measure 24
0001
0000
0100
0000
1000
0000
0100
0000
0001
0000
0100
0010
0100
0000
0001
0000
,  // measure 25
2002
0000
0000
0000
3003
0000
0000
0000
1001
0000
0000
0110
0000
0000
1001
0000
,  // measure 26
0M00
0M00
0M00
0M00
0M00
0M00
0M00
0100
0M00
0M00
0M00
0M00
0M00
0M00
0M00
0100
,  // measure 27
0M00
0M00
0M00
0M00
0M00
0M00
0M00
0100
0M00
0M00
0M00
0M00
0100
0100
0100
0100
,  // measure 28
0100
0M00
0M00
0100
0M00
0M00
0M00
0100
0100
0M00
0M00
0100
0M00
0M00
0M00
0100
,  // measure 29
0100
0000
0M00
0000
0M00
0000
0100
0000
0M00
0000
0M00
0000
0M00
0000
0100
0000
0100
0000
0M00
1001
0M00
0000
1M01
0000
0M00
1001
0M00
0000
1M00
0000
0M01
0000
,  // measure 30
1000
0100
1000
0002
0000
0103
0001
2000
,  // measure 31
0000
3001
0020
0000
0032
0000
2003
0000
,  // measure 32
3001
0100
0001
2000
0000
3100
1000
0002
,  // measure 33
0000
0103
0020
0000
2030
0000
3001
0000
,  // measure 34
0011
0100
1000
0020
0000
0130
0001
0020
,  // measure 35
0000
0130
1000
0020
0000
0130
0001
0010
,  // measure 36
1000
0000
0010
0000
0001
0000
0000
1000
0000
0010
0000
0000
0001
0000
0010
0000
,  // measure 37
1000
0000
0001
0100
0010
1000
0100
0000
,  // measure 38
1000
0000
0000
0100
0000
0000
1000
0000
0010
0000
0000
0001
0000
0010
0000
0000
,  // measure 39
1000
0000
0000
0100
0000
0000
1000
0000
0010
0000
0000
0001
0000
0000
1000
0000
,  // measure 40
0100
0000
0000
0010
0000
0000
0000
0010
0000
0000
0100
0000
0001
0000
0100
0000
,  // measure 41
1000
0000
0000
0100
0000
0000
0001
0000
0000
0010
0000
0000
0100
0000
1000
0000
,  // measure 42
0001
0000
0000
0100
0000
0000
0001
0000
0010
0000
0000
1000
0000
0010
0000
0000
,  // measure 43
0001
0000
0000
0100
0000
0000
0001
0000
0010
0000
0000
1000
0000
0000
0001
0000
,  // measure 44
0100
0000
0000
0010
0000
0000
0000
0010
0000
0000
0100
0000
1000
0000
0001
0000
,  // measure 45
0100
0100
0001
1000
0100
0010
0001
1000
,  // measure 46
0010
0000
1000
0000
0100
1000
0000
0100
0000
0100
0000
0100
1000
0000
0002
0000
,  // measure 47
0013
0000
0001
0000
0100
0001
0000
0100
0000
0100
0000
0100
0001
0000
2000
0000
,  // measure 48
3010
0000
1000
0000
0100
1000
0000
0100
0000
0100
0000
0100
1000
0000
0020
0000
,  // measure 49
0130
0000
0001
0000
1000
0100
0000
0010
0000
0001
0000
0100
0010
0000
2000
0000
,  // measure 50
3001
0000
0010
0000
0100
0010
0000
0100
0000
0100
0000
0100
0010
0000
0002
0000
,  // measure 51
1003
0000
0010
0000
0100
0010
0000
0100
0000
0100
0000
0100
0010
0000
2000
0000
,  // measure 52
3001
0000
0010
0000
0100
0010
0000
0100
0000
0100
0000
0100
1000
0000
0020
0000
,  // measure 53
0130
0001
0010
1000
0010
0001
0100
0010
,  // measure 54
1010
0000
0000
0110
0000
0000
1010
0000
0000
0000
1100
0000
0001
0000
0000
0000
,  // measure 55
0011
0000
0000
0110
0000
0000
0011
0000
0000
0000
0101
0000
1000
0000
0000
0000
,  // measure 56
1100
0000
0000
0101
0000
0000
1100
0000
0000
0000
1001
0000
0010
0000
0000
0000
,  // measure 57
0001
0000
0100
0010
0000
0100
0010
0000
1000
0000
0100
0000
0001
0000
0100
0000
,  // measure 58
1000
0000
0001
0100
0000
0001
0100
0000
0001
0000
0100
0000
1001
0000
0000
0000
,  // measure 59
1000
0000
0001
0010
0000
0001
0010
0000
0001
0000
0010
0000
1001
0000
0000
0000
,  // measure 60
1000
0010
0001
0010
1000
0010
0110
0000
,  // measure 61
0001
0000
0010
0000
0001
0010
0000
0100
0000
0010
0000
0100
1000
0000
0010
0000
,  // measure 62
0002
0000
0003
0000
;

//---------------dance-single - ----------------
#NOTEDATA:;
#CHARTNAME:05-07;
#STEPSTYPE:dance-single;
#DESCRIPTION:;
#CHARTSTYLE:;
#DIFFICULTY:Medium;
#METER:5;
#RADARVALUES:0.334374,0.396715,0.126949,0.372912,0.031737,295.000000,279.000000,16.000000,47.000000,0.000000,0.000000,0.000000,0.000000,0.000000,0.334374,0.396715,0.126949,0.372912,0.031737,295.000000,279.000000,16.000000,47.000000,0.000000,0.000000,0.000000,0.000000,0.000000;
#CREDIT:;
#NOTES:
// measure 0
0000
0000
0000
0000
,  // measure 1
0000
0000
0000
0000
,  // measure 2
2000
3200
0320
0230
,  // measure 3
2300
3020
0230
2300
,  // measure 4
3200
0320
2030
3200
,  // measure 5
0300
0011
0000
1100
0000
0011
0000
1000
,  // measure 6
0002
0203
0320
0032
,  // measure 7
0023
0230
0302
0023
,  // measure 8
0230
0302
0203
0320
,  // measure 9
0031
1000
0001
1000
0001
1000
0001
0000
,  // measure 10
0100
0100
0010
0010
,  // measure 11
0100
0000
0001
0000
0010
0000
0000
0000
0100
0000
0000
0100
0000
0000
0100
0000
,  // measure 12
0010
0001
0100
0010
,  // measure 13
2002
0000
0000
3003
,  // measure 14
1000
0000
1000
0000
1000
0000
0100
1000
,  // measure 15
0010
1000
0000
1000
0010
1000
0100
0000
,  // measure 16
1001
0000
1001
0000
1001
0000
0100
0001
,  // measure 17
0010
0000
0010
0000
0100
0010
0001
0000
,  // measure 18
1000
0000
0010
0000
0001
0000
0100
1000
,  // measure 19
0010
0000
0001
0000
0100
1000
1000
0000
,  // measure 20
0001
0000
0010
0000
1000
0000
0100
0001
,  // measure 21
0010
0000
1000
0000
0100
0001
0001
0000
,  // measure 22
1000
0000
0100
0000
0001
0000
1000
0010
,  // measure 23
0001
0000
0100
0000
0010
1000
0010
1000
,  // measure 24
0001
0000
0010
0000
1000
0000
0001
0100
,  // measure 25
2000
0000
0000
0000
3000
0000
0000
0000
0010
0000
0000
0010
0000
0000
0010
0000
,  // measure 26
0000
0000
0000
0000
0000
0000
0000
1000
0000
0000
0000
0000
0000
0000
0000
0001
,  // measure 27
0000
0000
0000
0000
0000
0000
0000
1000
0000
0000
0000
0000
0001
0000
1000
0000
,  // measure 28
0001
0000
0000
1000
0000
0000
0000
0000
1000
0000
0000
0001
0000
0000
0000
0000
,  // measure 29
0001
0000
0000
1000
0000
0000
0000
0000
1000
0000
0100
0000
0010
0000
0001
0000
,  // measure 30
1000
0000
0010
0200
0000
0300
0010
0200
,  // measure 31
0000
0300
0010
0000
1000
0000
1000
0000
,  // measure 32
0001
0000
0010
0200
0000
0300
0010
0200
,  // measure 33
0000
0300
0010
0000
0001
0000
0001
0000
,  // measure 34
1000
0000
0010
2000
0000
3000
0001
0020
,  // measure 35
0000
0030
0100
2000
0000
3000
0001
0100
,  // measure 36
0010
0000
0100
0000
0010
1000
0100
0000
,  // measure 37
0220
0000
0000
0330
,  // measure 38
1000
0100
1000
0000
0010
0000
0010
0000
,  // measure 39
0001
0100
0001
0000
0010
0000
0010
0000
,  // measure 40
2000
3200
0302
0203
,  // measure 41
2300
0000
3020
0000
0130
0010
1000
0000
,  // measure 42
0001
0010
0001
0000
0100
0000
0100
0000
,  // measure 43
1000
0010
1000
0000
0100
0000
0100
0000
,  // measure 44
0002
0023
2030
3020
,  // measure 45
0031
0010
0100
0000
1000
0000
0001
0000
,  // measure 46
0010
0001
1000
0000
0001
0000
0001
0000
,  // measure 47
0100
0001
1000
0000
0001
0000
0001
0000
,  // measure 48
0010
0001
1000
0000
0001
0000
0001
0000
,  // measure 49
1000
0010
0001
0000
0001
0010
1000
0000
,  // measure 50
0010
1000
0001
0000
1000
0000
1000
0000
,  // measure 51
0100
1000
0001
0000
1000
0000
1000
0000
,  // measure 52
0010
1000
0001
0000
1000
0000
1000
0000
,  // measure 53
0001
0010
1000
0000
1000
0010
0001
0000
,  // measure 54
0101
0000
1100
0000
1000
0010
1000
0000
,  // measure 55
1100
0000
0101
0000
0001
0010
0001
0000
,  // measure 56
0110
0000
1001
0000
1000
0001
1000
0000
,  // measure 57
0100
0000
0100
0000
0010
0001
1000
0001
,  // measure 58
0100
0000
0100
0000
0001
0100
1000
0000
,  // measure 59
0100
0000
0100
0000
1000
0100
0001
0000
,  // measure 60
1001
0000
1001
0000
0100
0010
0100
0000
,  // measure 61
1000
0000
0100
0000
0001
0000
1000
0010
,  // measure 62
0002
0000
0003
0000
;

//---------------dance-single - ----------------
#NOTEDATA:;
#CHARTNAME:04-05;
#STEPSTYPE:dance-single;
#DESCRIPTION:;
#CHARTSTYLE:;
#DIFFICULTY:Easy;
#METER:4;
#RADARVALUES:0.262966,0.297536,0.087277,0.111080,0.000000,232.000000,221.000000,11.000000,14.000000,0.000000,0.000000,0.000000,0.000000,0.000000,0.262966,0.297536,0.087277,0.111080,0.000000,232.000000,221.000000,11.000000,14.000000,0.000000,0.000000,0.000000,0.000000,0.000000;
#CREDIT:;
#NOTES:
// measure 0
0000
0000
0000
0000
,  // measure 1
0000
0000
0000
0000
,  // measure 2
0001
0010
0001
0010
,  // measure 3
0100
0010
0001
0010
,  // measure 4
0100
1000
0100
1000
,  // measure 5
0001
0001
0001
0001
,  // measure 6
1000
0010
1000
0010
,  // measure 7
0100
0010
1000
0010
,  // measure 8
0100
0001
0100
0001
,  // measure 9
1000
0100
0020
0000
,  // measure 10
0130
0100
0010
0010
,  // measure 11
0200
0320
0032
2003
,  // measure 12
3010
0010
1000
1000
,  // measure 13
0002
0000
0000
0003
,  // measure 14
1000
0100
1000
0100
,  // measure 15
0001
1000
0010
0001
,  // measure 16
1001
1001
0001
0100
,  // measure 17
0010
0010
1000
1000
,  // measure 18
0001
0010
1000
0010
,  // measure 19
0001
0010
1000
0010
,  // measure 20
0001
0100
1000
0100
,  // measure 21
0001
0100
1000
0100
,  // measure 22
0001
0010
1000
0010
,  // measure 23
0001
0100
1000
0100
,  // measure 24
0001
0001
1000
1000
,  // measure 25
0220
0330
1001
0110
,  // measure 26
2000
3000
0002
0003
,  // measure 27
2000
3000
0002
0003
,  // measure 28
1000
0001
1000
0001
,  // measure 29
0010
0100
0010
0100
,  // measure 30
1000
0000
1000
0000
,  // measure 31
1000
0010
0010
1000
,  // measure 32
0001
0000
0001
0000
,  // measure 33
0001
0010
0010
0001
,  // measure 34
1000
0000
0001
0000
,  // measure 35
1000
0000
0001
0000
,  // measure 36
1000
0010
0001
0010
,  // measure 37
2000
0000
0000
3000
,  // measure 38
0001
0010
0100
0001
,  // measure 39
0100
0010
1000
0010
,  // measure 40
0001
0001
0100
0100
,  // measure 41
0010
0010
1000
0001
,  // measure 42
1000
0100
0010
1000
,  // measure 43
0010
0100
0001
0100
,  // measure 44
1000
1000
0001
0001
,  // measure 45
0100
0100
0010
1000
,  // measure 46
0001
0001
0010
0010
,  // measure 47
1000
1000
0010
0010
,  // measure 48
0001
0001
0010
0010
,  // measure 49
1000
0010
0001
0001
,  // measure 50
1000
1000
0010
0010
,  // measure 51
0001
0001
0010
0010
,  // measure 52
1000
1000
0010
0010
,  // measure 53
0001
0010
1000
0100
,  // measure 54
0010
0010
0010
1001
,  // measure 55
0100
0100
0100
1001
,  // measure 56
0010
0010
0010
1001
,  // measure 57
1000
0001
1000
0001
,  // measure 58
0010
0001
0100
1010
,  // measure 59
0010
1000
0100
0011
,  // measure 60
0100
1000
0010
1001
,  // measure 61
1000
1000
0001
0100
,  // measure 62
2000
0000
3000
0000
;

//---------------dance-single - ----------------
#NOTEDATA:;
#CHARTNAME:01-02;
#STEPSTYPE:dance-single;
#DESCRIPTION:;
#CHARTSTYLE:;
#DIFFICULTY:Beginner;
#METER:1;
#RADARVALUES:0.139417,0.263816,0.039672,0.134883,0.000000,123.000000,118.000000,5.000000,17.000000,0.000000,0.000000,0.000000,0.000000,0.000000,0.139417,0.263816,0.039672,0.134883,0.000000,123.000000,118.000000,5.000000,17.000000,0.000000,0.000000,0.000000,0.000000,0.000000;
#CREDIT:;
#OFFSET:-0.452745;
#BPMS:0.000000=135.000000
;
#STOPS:;
#DELAYS:;
#WARPS:;
#TIMESIGNATURES:0.000000=4=4
;
#TICKCOUNTS:0.000000=4
;
#COMBOS:0.000000=1
;
#SPEEDS:0.000000=1.000000=0.000000=0
;
#SCROLLS:0.000000=1.000000
;
#FAKES:;
#LABELS:0.000000=Song Start
;
#NOTES:
// measure 0
0000
0000
0000
0000
,  // measure 1
0000
0000
0000
0000
,  // measure 2
2000
0000
3000
0000
,  // measure 3
0200
0000
0300
0000
,  // measure 4
0020
0000
0030
0000
,  // measure 5
0001
0000
0001
0000
,  // measure 6
0002
0000
0003
0000
,  // measure 7
0200
0000
0300
0000
,  // measure 8
0020
0000
0030
0000
,  // measure 9
1000
0000
1000
0000
,  // measure 10
0200
0000
0300
0000
,  // measure 11
0100
0000
0100
0000
,  // measure 12
0010
0000
0100
0000
,  // measure 13
1001
0000
0000
0000
,  // measure 14
0001
0000
0001
0000
,  // measure 15
0100
0000
0001
0000
,  // measure 16
1000
0000
1000
0000
,  // measure 17
0100
0000
1000
0000
,  // measure 18
0010
0000
0100
0000
,  // measure 19
0010
0000
0100
0000
,  // measure 20
0001
0000
1000
0000
,  // measure 21
0001
0000
1000
0000
,  // measure 22
0100
0000
0100
0000
,  // measure 23
0010
0000
0010
0000
,  // measure 24
0100
0000
0100
0000
,  // measure 25
1001
0000
0010
0010
,  // measure 26
0020
0000
0030
0000
,  // measure 27
0020
0000
0030
0000
,  // measure 28
0020
0000
0030
0000
,  // measure 29
0020
0000
0030
0000
,  // measure 30
2000
0000
3000
0000
,  // measure 31
0002
0000
0003
0000
,  // measure 32
2000
0000
3000
0000
,  // measure 33
0002
0000
0003
0000
,  // measure 34
1000
0000
1000
0000
,  // measure 35
1000
0000
0001
0001
,  // measure 36
0001
0000
0001
0000
,  // measure 37
0001
0000
1000
1000
,  // measure 38
1000
0000
0001
0000
,  // measure 39
1000
0000
0001
0000
,  // measure 40
0010
0000
0010
0000
,  // measure 41
0020
0000
0030
0000
,  // measure 42
0001
0000
0001
0000
,  // measure 43
0100
0000
0100
0000
,  // measure 44
1000
0000
1000
0000
,  // measure 45
0010
0000
0001
0000
,  // measure 46
1000
0000
1000
0000
,  // measure 47
0100
0000
0100
0000
,  // measure 48
0001
0000
0001
0000
,  // measure 49
0010
0000
1000
0000
,  // measure 50
0001
0000
0010
0000
,  // measure 51
0001
0000
0010
0000
,  // measure 52
1000
0000
0010
0000
,  // measure 53
0001
0000
0001
0000
,  // measure 54
1000
0000
0010
0000
,  // measure 55
1000
0000
0010
0000
,  // measure 56
0001
0000
0010
0000
,  // measure 57
1000
0000
1000
0000
,  // measure 58
0100
0000
0100
0000
,  // measure 59
0010
0000
0010
0000
,  // measure 60
0001
0000
0001
0000
,  // measure 61
1000
0000
1000
0000
,  // measure 62
0010
0010
0010
0000
,  // measure 63
0100
0100
0100
0000
,  // measure 64
1001
1001
1001
0000
,  // measure 65
1000
0000
0100
0000
,  // measure 66
0002
0000
0003
0000
;
