#TITLE:Elements;
#SUBTITLE:(Styles and Breeze Remix);
#ARTIST:Neo Cortex;
#TITLETRANSLIT:;
#SUBTITLETRANSLIT:;
#ARTISTTRANSLIT:;
#GENRE:;
#CREDIT:;
#BANNER:Elements (Styles and Breeze Remix).png;
#BACKGROUND:Elements (Styles and Breeze Remix)-bg.png;
#LYRICSPATH:;
#CDTITLE:;
#MUSIC:Elements (Styles and Breeze Remix).ogg;
#OFFSET:-0.030000;
#SAMPLESTART:0.510000;
#SAMPLELENGTH:11.380000;
#SELECTABLE:YES;
#BPMS:0.000000=170.000000
;
#STOPS:
;
#BGCHANGES:;
#KEYSOUNDS:;
#ATTACKS:;

//---------------dance-single - ----------------
#NOTES:
     dance-single:
     :
     Challenge:
     7:
     0.514978,0.600847,0.371087,0.123696,0.053012,408.000000,366.000000,42.000000,14.000000,0.000000,0.000000,0.514978,0.600847,0.371087,0.123696,0.053012,408.000000,366.000000,42.000000,14.000000,0.000000,0.000000:
// measure 0
0000
0000
0000
0000
,  // measure 1
0000
0000
0000
0000
,  // measure 2
0000
0000
0000
0000
,  // measure 3
0000
0000
0000
0000
,  // measure 4
0000
0000
0000
0000
,  // measure 5
0000
0000
0000
0000
,  // measure 6
0000
0000
0000
0000
,  // measure 7
0000
0000
0000
0000
,  // measure 8
2100
0000
0000
0000
,  // measure 9
3002
0000
0000
0000
,  // measure 10
2003
0000
0000
0000
,  // measure 11
3020
0000
0000
0000
,  // measure 12
0230
0000
0000
0000
,  // measure 13
0302
0000
0000
0000
,  // measure 14
2000
0000
0000
0000
,  // measure 15
3003
0000
0000
0000
,  // measure 16
0001
0001
1000
1000
,  // measure 17
0001
1000
0100
0100
,  // measure 18
0010
0010
0100
0100
,  // measure 19
0010
0100
1000
1000
,  // measure 20
0001
0001
0100
0100
,  // measure 21
1000
0100
0001
0010
,  // measure 22
0100
0100
1000
1000
,  // measure 23
0020
0230
0302
0100
,  // measure 24
1003
1000
0100
0100
,  // measure 25
1100
0011
1100
0011
,  // measure 26
1000
1000
0001
0001
,  // measure 27
1001
0110
1001
0110
,  // measure 28
0100
0001
0100
0000
0001
0010
0001
0000
,  // measure 29
0010
1000
0010
0000
1000
0100
1000
0000
,  // measure 30
0100
0001
0100
0001
1000
0100
0010
0000
,  // measure 31
1001
0000
0000
0000
,  // measure 32
0011
0000
1010
0000
0011
0000
1000
0010
,  // measure 33
1000
0000
0001
0010
0001
0010
0100
0000
,  // measure 34
1000
0100
0010
0000
1100
0000
0011
0000
,  // measure 35
0100
0010
0001
0000
0110
0000
1001
0000
,  // measure 36
1100
0000
0101
0000
1100
0000
0001
0100
,  // measure 37
0010
0000
1000
0001
1000
0100
0010
0000
,  // measure 38
0001
0010
0100
0000
0011
0000
1100
0000
,  // measure 39
0001
0000
0010
0100
1000
0000
0010
0100
,  // measure 40
0001
0000
1000
0100
0010
0000
0001
0010
,  // measure 41
0100
0000
0010
0001
1000
0001
0010
0100
,  // measure 42
1000
0000
0001
0100
0010
0100
0010
1000
,  // measure 43
0010
0100
0010
1000
0001
0010
0001
0000
,  // measure 44
1000
0000
0001
0010
0100
0000
1000
0100
,  // measure 45
0010
0000
0100
1000
0001
0010
0100
1000
,  // measure 46
0001
0000
1000
0010
0100
0010
0100
0001
,  // measure 47
2000
0000
0000
3000
,  // measure 48
0110
0000
1001
0000
0110
0000
0100
0001
,  // measure 49
0000
1100
0000
0110
0000
1100
0000
0100
,  // measure 50
0010
0000
0011
0000
0110
0000
0010
0001
,  // measure 51
0000
1001
0000
0110
0000
1000
0001
0000
,  // measure 52
0110
0000
1001
0000
0110
0000
0010
1000
,  // measure 53
0000
0011
0000
1010
0000
0011
0000
0001
,  // measure 54
1000
0000
1010
0000
0110
0000
0010
1000
,  // measure 55
0000
1100
0000
0100
0010
0000
0010
0100
,  // measure 56
0010
0001
1000
0001
0100
0010
0100
0001
,  // measure 57
0010
0100
0010
0001
0010
0100
1000
0001
,  // measure 58
0100
0010
0100
0001
0010
0100
1000
0001
,  // measure 59
0010
0100
0010
0001
1000
0010
0100
0000
,  // measure 60
0010
1000
0001
1000
0100
0010
0100
1000
,  // measure 61
0010
0100
0010
1000
0010
0100
0001
1000
,  // measure 62
0100
0010
0001
0100
0010
1000
0001
0010
,  // measure 63
0200
0000
0000
0000
,  // measure 64
0310
0100
0010
0000
0001
0010
0001
0000
,  // measure 65
1000
0001
1000
0000
0001
0100
0001
0000
,  // measure 66
0100
0010
0100
0000
0001
0100
0001
0000
,  // measure 67
1000
0001
1000
0000
0001
0010
0001
0000
,  // measure 68
0010
0100
1000
0001
0100
0100
0010
0000
,  // measure 69
0100
0010
1000
0001
0010
0010
0100
0000
,  // measure 70
1000
0010
0100
0010
1000
1000
0001
0000
,  // measure 71
0001
0010
0100
0010
0001
0001
1000
0000
,  // measure 72
0001
0000
0100
0000
0010
0000
0000
0100
0000
0000
0010
0000
1000
0000
0100
0000
,  // measure 73
0000
0000
0100
0000
1000
0000
0000
0010
0000
0000
0100
0000
0001
0000
1000
0000
,  // measure 74
0001
0000
0010
0000
0100
0000
0000
0010
0000
0000
0100
0000
1000
0000
0010
0000
,  // measure 75
0000
0000
0010
0000
1000
0000
0000
0100
0000
0000
0010
0000
0100
0000
1000
0000
,  // measure 76
0001
0000
0100
0000
0010
0000
0000
0100
0000
0001
0000
0000
0010
0000
0100
0000
,  // measure 77
0000
0000
0010
0000
0001
0000
0000
1000
0000
0010
0000
0000
0100
0000
0010
0000
,  // measure 78
1000
0000
0100
0000
0010
0000
0000
0100
0000
1000
0000
0000
0010
0000
0100
0000
,  // measure 79
0000
0000
0010
0000
1000
0000
0001
0010
0000
0100
1000
0000
0010
0000
0100
0000
,  // measure 80
0220
0330
0000
0000
0000
0000
0000
0000
0000
0000
0000
0000
0000
0000
0000
0000
0000
0000
0000
0000
0000
0000
0000
0000
0000
0000
0000
0000
0000
0000
0000
0000
0000
0000
0000
0000
0000
0000
0000
0000
0000
0000
0000
0000
0000
0000
0000
0000
0000
0000
0000
0000
0000
0000
0000
0000
0000
0000
0000
0000
0000
0000
0000
0000
0000
0000
0000
0000
0000
0000
0000
0000
0000
0000
0000
0000
0000
0000
0000
0000
0000
0000
0000
0000
0000
0000
0000
0000
0000
0000
0000
0000
0000
0000
0000
0000
0000
0000
0000
0000
0000
0000
0000
0000
0000
0000
0000
0000
0000
0000
0000
0000
0000
0000
0000
0000
0000
0000
0000
0000
0000
0000
0000
0000
0000
0000
0000
0000
0000
0000
0000
0000
0000
0000
0000
0000
0000
0000
0000
0000
0000
0000
0000
0000
0000
0000
0000
0000
0000
0000
0000
0000
0000
0000
0000
0000
0000
0000
0000
0000
0000
0000
0000
0000
0000
0000
0000
0000
0000
0000
0000
0000
0000
0000
0000
0000
0000
0000
0000
0000
0000
0000
0000
0000
0000
0000
0000
0000
0000
0000
0000
0000
;
