#VERSION:0.83;
#TITLE:Cecilia;
#SUBTITLE:;
#ARTIST:Pandera;
#TITLETRANSLIT:;
#SUBTITLETRANSLIT:;
#ARTISTTRANSLIT:;
#GENRE:;
#ORIGIN:;
#CREDIT:;
#BANNER:Cecilia.png;
#BACKGROUND:Cecilia-bg.png;
#PREVIEWVID:;
#JACKET:Cecilia-jacket.png;
#CDIMAGE:;
#DISCIMAGE:;
#LYRICSPATH:;
#CDTITLE:Dancemania.png;
#MUSIC:cecilia.ogg;
#OFFSET:-1.252000;
#SAMPLESTART:73.253998;
#SAMPLELENGTH:21.601000;
#SELECTABLE:YES;
#DISPLAYBPM:100.000000;
#BPMS:0.000=100.000;
#STOPS:;
#DELAYS:;
#WARPS:;
#TIMESIGNATURES:0.000=4=4;
#TICKCOUNTS:0.000=4;
#COMBOS:0.000=1;
#SPEEDS:0.000=1.000=0.000=0;
#SCROLLS:0.000=1.000;
#FAKES:;
#LABELS:0.000=Song Start;
#BGCHANGES:;
#KEYSOUNDS:;
#ATTACKS:
;

//---------------dance-single - ----------------
#NOTEDATA:;
#CHARTNAME:;
#STEPSTYPE:dance-single;
#DESCRIPTION:;
#CHARTSTYLE:;
#DIFFICULTY:Hard;
#METER:7;
#RADARVALUES:0.414910,0.400419,0.222099,0.000000,0.158032,340.000000,314.000000,26.000000,0.000000,0.000000,0.000000,0.000000,0.000000,0.000000,0.414910,0.400419,0.222099,0.000000,0.158032,340.000000,314.000000,26.000000,0.000000,0.000000,0.000000,0.000000,0.000000,0.000000;
#CREDIT:;
#DISPLAYBPM:100.000000;
#NOTES:
0000
0000
0000
0000
,
0000
0000
0000
0000
,
0000
0000
0000
0000
,
0000
0000
0000
0000
,
1000
0100
0010
0001
0101
0000
0000
0100
,
0001
0010
0001
0100
0001
0000
0011
0001
,
0010
1000
0010
0001
0000
0001
0100
1000
,
0000
0100
0001
1000
0100
0100
0010
0001
,
1000
0010
0100
0001
1001
0000
0000
0001
,
1000
0100
1000
0010
0000
0000
0110
0100
,
0001
0010
0100
1000
0001
1000
0100
0010
,
0001
0000
0000
0100
0001
0000
0000
0100
0001
0000
0001
0000
1000
0000
1000
0000
,
1100
0000
0000
1000
0100
0000
0000
0100
0001
0000
0100
0000
1100
0000
0000
0000
,
1000
0000
0000
1000
0010
0000
0000
0010
0001
0000
0010
0000
1010
0000
0000
0000
,
1000
1000
0001
0001
0100
0100
0010
0000
,
1000
0001
1000
0001
0010
0100
1001
0000
,
0001
0010
0001
0000
0100
0000
1000
0000
0100
0000
1000
0100
0010
0000
1000
0000
,
0100
0000
0010
0000
0000
0000
0001
0010
0001
0000
0100
0000
0001
0000
0000
0000
,
0001
0100
1100
0000
1000
0100
0101
0000
,
0100
0000
0001
0100
0000
1000
0100
0000
0100
0000
0001
0000
1000
0000
0000
0000
,
1000
0000
0000
0000
0100
0000
0000
0000
0010
0000
0000
0000
0001
0000
0000
0000
0000
0000
1000
0000
0000
0001
0000
0000
0100
0000
0000
0000
0000
0000
0001
0000
0000
0000
0000
0000
0101
0000
0000
0000
0000
0000
0000
0000
0000
0000
0000
0000
,
0100
0010
1000
0100
0010
0100
1000
0000
,
1001
0000
0001
1000
0001
0000
0010
0000
0100
0000
1000
0001
1000
0000
0000
0000
,
1000
0000
0010
0100
0000
0100
0010
0000
1000
0000
0001
1000
0000
0000
0000
0000
,
1000
0100
1000
0001
0000
0000
0100
0000
0001
0000
0100
0000
0010
0000
0000
0000
,
0010
0010
1000
0100
0001
0100
1000
0000
,
0001
0100
0001
0100
0001
0000
0010
0000
0100
0000
1000
0000
0001
1000
0000
0000
,
1000
0000
0001
0000
1000
0000
0010
0000
0100
0000
0001
0000
1000
0001
0000
0000
,
1000
0100
1000
0100
0000
0000
0010
0001
0010
0000
0100
0000
1000
0000
0000
0000
,
0010
0000
0010
0000
0100
0000
0001
0000
0001
0000
1000
0000
0100
0000
0000
0010
0000
0000
0000
0000
0000
0010
0000
0000
,
1001
0001
0100
0010
1010
0000
0000
1000
,
0100
1000
0010
1000
0000
0000
1100
0100
,
0010
0001
0100
0010
0000
1000
0001
0011
,
0000
1100
0000
0000
0000
0000
1000
0001
,
0010
0001
0100
0001
0010
0000
0110
0010
,
1000
0010
0100
1000
0000
0000
1010
0010
,
0001
0010
0100
0001
0000
0010
0100
1000
,
1001
0000
0000
1000
0001
0000
0000
1000
0001
0000
1000
0000
0100
0000
0010
0000
,
1001
0000
0000
0000
,
1010
0000
0010
0000
1000
0000
0100
0000
0010
0001
0010
0000
0001
0000
1000
0000
,
0010
0000
0001
0000
0010
0000
1000
0000
0010
1000
0010
0000
1000
0000
0100
0000
,
0010
0001
0100
0001
0010
0100
1000
0010
,
0001
0010
1000
0100
0001
0100
1000
0010
,
0100
0001
0010
0100
1000
0001
0101
0100
,
0001
0100
1000
0100
0010
1000
0100
0010
,
0001
1000
0001
0010
0100
1000
0010
0100
,
0101
0000
0000
0000
1001
0000
0000
1000
0100
0000
0010
0000
0001
0000
1001
0000
;

//---------------dance-single - ----------------
#NOTEDATA:;
#CHARTNAME:;
#STEPSTYPE:dance-single;
#DESCRIPTION:;
#CHARTSTYLE:;
#DIFFICULTY:Medium;
#METER:5;
#RADARVALUES:0.268471,0.320335,0.102507,0.000000,0.000000,220.000000,208.000000,12.000000,0.000000,0.000000,0.000000,0.000000,0.000000,0.000000,0.268471,0.320335,0.102507,0.000000,0.000000,220.000000,208.000000,12.000000,0.000000,0.000000,0.000000,0.000000,0.000000,0.000000;
#CREDIT:;
#DISPLAYBPM:100.000000;
#NOTES:
0000
0000
0000
0000
,
0000
0000
0000
0000
,
0000
0000
0000
0000
,
0000
0000
0000
0000
,
1000
0100
0001
0000
,
0001
0100
1000
0001
0000
0000
0000
0000
,
0001
0100
1000
0000
0100
0000
0001
0000
,
0010
0000
1000
0000
0010
0000
0001
0100
,
1000
0100
0001
0000
,
0001
0100
1000
0001
0000
0000
0000
0000
,
0001
0010
1000
0000
0010
0000
0001
0000
,
1000
0000
0100
0000
0100
0100
0001
1000
,
1100
0001
1000
0001
,
0101
1000
0001
1000
,
0100
0000
0010
0000
0001
1000
0001
0000
,
0100
0000
0010
0000
1000
0001
1000
0000
,
0100
0010
0100
0000
1000
0001
1000
0010
,
0100
0100
0000
0000
0001
1000
0001
0000
,
1000
1000
0000
0000
0100
0000
0010
0000
,
0001
0100
1000
0000
1000
0100
0001
0000
,
1000
0100
0001
0000
0001
0100
1000
0000
,
0001
0100
0001
0000
1000
0100
1000
0000
,
1001
0100
0010
0100
,
1001
0010
1001
0100
,
0001
1000
0001
0000
1000
0001
1000
0000
,
0100
0000
0100
0000
0010
0001
1000
0000
,
0010
0000
0100
0000
0010
0100
0001
0000
,
0010
0000
0100
0000
0010
0100
1000
0000
,
0010
0010
0000
0100
0001
1000
0001
0000
,
0010
0000
0100
0000
1000
1000
0000
1000
,
1100
0100
0010
0000
,
0001
0100
1000
0001
0000
0000
0000
0000
,
1000
0100
0001
1000
0000
1000
0100
0010
,
0000
0001
0000
0000
0000
0000
0001
0100
,
0010
0000
1000
0000
1001
0000
0000
0001
,
0010
0001
0100
0001
0000
0000
0000
0010
,
1000
0010
0100
1000
0000
0010
0100
0001
,
0000
0000
0000
0000
0000
1000
0100
0010
,
1001
0000
0000
0000
,
1000
0000
0100
0000
0001
0000
0100
1000
,
0010
0001
0010
1000
0001
0000
0010
0100
,
1000
0100
0010
0001
0000
0100
0010
1010
,
0000
1100
0000
0000
0000
0000
1000
0100
,
0010
0000
0001
0000
1001
0000
0000
0001
,
0100
1000
0100
0010
0000
0000
0000
1000
,
0100
0001
0100
1000
0000
1000
0010
0100
,
0001
0000
0101
0000
0001
0100
0010
1000
;

//---------------dance-single - ----------------
#NOTEDATA:;
#CHARTNAME:;
#STEPSTYPE:dance-single;
#DESCRIPTION:;
#CHARTSTYLE:;
#DIFFICULTY:Easy;
#METER:3;
#RADARVALUES:0.159862,0.200209,0.034169,0.000000,0.000000,131.000000,127.000000,4.000000,0.000000,0.000000,0.000000,0.000000,0.000000,0.000000,0.159862,0.200209,0.034169,0.000000,0.000000,131.000000,127.000000,4.000000,0.000000,0.000000,0.000000,0.000000,0.000000,0.000000;
#CREDIT:;
#DISPLAYBPM:100.000000;
#NOTES:
0000
0000
0000
0000
,
0000
0000
0000
0000
,
0000
0000
0000
0000
,
0000
0000
0000
0000
,
1000
0000
0001
0000
,
0010
0100
0000
0000
,
1000
0001
1000
0001
,
0100
0000
0000
0000
,
0010
0000
1000
0000
,
1000
0001
0000
0000
,
0010
0100
0010
0100
,
1000
0000
0000
1000
,
1001
0001
0000
0001
,
0000
1000
0000
1000
,
0100
0100
0010
0100
,
1000
1000
0001
1000
,
0010
0010
0100
0010
,
1000
0000
0001
0000
,
0010
0010
0000
0000
0100
0000
1000
0000
,
0010
0100
0010
0100
,
0001
0001
1000
1001
,
1000
0000
0010
0000
,
0100
0001
0100
0010
,
1000
0100
1000
0010
,
0000
0100
0000
0001
,
1000
1000
0100
0010
,
0001
1001
1000
0001
,
0001
1000
0100
0010
,
0001
0100
0001
0010
,
0100
0000
0000
0000
,
0001
0000
0100
0000
,
1000
0100
0010
0000
,
1000
0100
0001
0100
,
1000
0001
0000
0000
,
0010
0000
0100
0000
,
0001
0010
0100
0000
,
1000
0010
0100
1000
,
0100
0000
0000
1000
,
1001
0000
0000
0000
,
1000
0010
0100
0000
,
1000
0100
0001
0000
,
0001
0010
0100
1000
,
0001
1000
0000
1000
,
0010
0000
0100
0000
,
0001
0010
0100
0000
,
1000
0010
0100
0010
,
1000
0000
0000
0000
0000
0100
0000
0010
;

//---------------dance-solo - ----------------
#NOTEDATA:;
#CHARTNAME:;
#STEPSTYPE:dance-solo;
#DESCRIPTION:;
#CHARTSTYLE:;
#DIFFICULTY:Hard;
#METER:8;
#RADARVALUES:0.444198,0.500523,0.162303,0.000000,0.251997,364.000000,345.000000,19.000000,0.000000,0.000000,0.000000,0.000000,0.000000,0.000000,0.444198,0.500523,0.162303,0.000000,0.251997,364.000000,345.000000,19.000000,0.000000,0.000000,0.000000,0.000000,0.000000,0.000000;
#CREDIT:;
#DISPLAYBPM:100.000000;
#NOTES:
000000
000000
000000
000000
,
000000
000000
000000
000000
,
000000
000000
000000
000000
,
000000
000000
000000
000000
,
100000
000001
010000
000010
000100
000000
000000
000100
,
000001
001000
000001
000010
001000
100000
100001
000001
,
010000
000001
001000
100000
001000
000010
010000
001000
,
000100
000000
100010
000000
000000
000000
001000
000100
,
000001
001000
100000
001000
000001
100000
100001
100000
,
001000
010000
000010
000100
001000
001000
001100
001000
,
010000
000010
001000
000100
100000
001000
010000
001000
,
100000
000000
000000
100000
010000
000000
000000
010000
001000
000000
000001
000000
000100
000000
001000
000000
,
100001
000000
000000
100000
000001
000000
000000
100000
000001
000000
001000
000000
001100
000000
000000
000000
,
100001
000000
000000
100000
000001
000000
000000
100000
000001
000000
001000
000000
001100
000000
100000
000010
,
100000
000000
100000
000001
100000
000000
001000
000000
000100
000000
000001
000000
100001
000000
000000
000000
,
000001
001000
000100
100000
000010
010000
010010
000000
,
100000
000000
000100
000000
001000
000000
000001
010000
000001
000000
000001
100000
000001
000000
001000
000100
,
100000
000000
001000
000000
000010
000000
001000
100000
000001
000000
001000
000100
100000
000000
000000
000000
,
100000
000000
101000
000000
000000
100000
001000
000000
000100
000000
000010
000000
010000
000000
000100
001000
,
000001
000000
000100
001000
000000
100000
000001
100000
000000
000100
001000
000000
000001
000000
000000
000000
,
001000
000000
000000
000000
000100
000000
000000
000000
100000
000000
000000
000000
000001
000000
000000
000000
000000
000000
010000
000000
000000
001000
000000
000000
000100
000000
000000
000000
000000
000000
000001
000000
000000
100000
000000
000000
000000
000000
000000
000000
000000
000000
000000
000000
000000
000000
000000
000000
,
100000
001000
000000
001000
000100
000000
000010
000000
000100
000001
000000
000001
001000
000000
000000
000000
,
000100
100000
000000
100000
001000
000000
001000
000100
000000
000100
000001
100000
000001
000000
000000
001000
,
000100
000000
000100
100000
000000
100000
001000
000000
000100
000000
000010
010000
000000
000000
000000
000000
,
000100
000000
000000
001000
000000
000000
000001
000000
000000
001000
000000
000000
000000
000000
000000
000000
000000
000000
000001
000000
000000
000000
000000
000000
001000
000000
000000
000000
000100
000000
000000
000000
100000
000000
000000
000000
001000
000000
000000
000000
000000
000000
000000
000000
000000
000000
000000
000000
,
100000
000000
000100
000000
100000
000000
000001
000000
000100
000000
001000
100000
000000
000000
000000
000000
,
000100
001000
000100
001000
000100
000000
100000
000000
000001
100000
000001
100000
000001
000000
000000
000000
,
001000
000000
000100
000000
100000
000000
001000
000000
000100
000001
100000
000001
010000
000001
000000
000000
,
000001
001000
000100
100000
000000
100000
000010
100000
000001
100000
000010
000000
100000
000001
000000
000000
,
000001
000000
001000
000000
100000
000000
000001
000000
000100
000000
100000
000000
000010
000000
000000
010000
000000
000000
000000
000000
000000
010000
000000
000000
,
010010
010000
000010
100000
000001
000000
000000
001000
,
010000
001000
000100
100000
000001
100000
100001
100000
,
001000
000001
001000
000010
000000
000010
000001
010000
,
001000
000000
000000
000000
001000
000000
000000
100000
001000
000000
000001
000000
001000
000000
000100
000000
,
000010
001000
100000
001000
000001
100000
100001
100000
,
001000
000001
001000
010000
000100
001000
001100
001000
,
100000
001000
000010
100000
000001
100000
000100
001000
,
000001
000000
100001
000000
100000
001000
000100
000010
,
100001
000000
000000
000000
,
000001
000010
000001
000100
000001
010000
000001
100000
,
000100
001000
000001
100000
000001
001000
000100
100000
,
001000
000001
001000
100000
000100
000001
000100
100000
,
001000
000010
001000
010000
001000
000100
000001
100000
,
000001
001000
000100
100000
000001
000001
100001
100000
,
000100
100000
001000
100000
000100
000100
001100
001000
,
000001
000100
000001
001000
000100
100000
001000
100000
,
000100
001000
000001
010000
000010
000100
001000
100000
;

//---------------dance-solo - ----------------
#NOTEDATA:;
#CHARTNAME:;
#STEPSTYPE:dance-solo;
#DESCRIPTION:;
#CHARTSTYLE:;
#DIFFICULTY:Medium;
#METER:6;
#RADARVALUES:0.281895,0.300314,0.068338,0.000000,0.008542,231.000000,223.000000,8.000000,0.000000,0.000000,0.000000,0.000000,0.000000,0.000000,0.281895,0.300314,0.068338,0.000000,0.008542,231.000000,223.000000,8.000000,0.000000,0.000000,0.000000,0.000000,0.000000,0.000000;
#CREDIT:;
#DISPLAYBPM:100.000000;
#NOTES:
000000
000000
000000
000000
,
000000
000000
000000
000000
,
000000
000000
000000
000000
,
000000
000000
000000
000000
,
100000
000000
001000
000010
001000
000000
000000
000000
,
100000
000100
001000
000001
000000
000000
000000
000000
,
000001
000100
001000
100000
000000
000001
100000
000001
,
000000
001000
000000
000000
000000
000000
000100
100000
,
000001
000100
001000
000000
100000
000000
000000
000000
,
100000
000100
001000
000010
000000
000000
000000
000000
,
000100
001000
100000
000010
000000
000010
001000
100000
,
000000
000000
000000
000000
000000
100000
001000
000001
,
100001
100000
001000
000100
,
000001
000001
001000
000100
,
100000
000000
001000
000000
000010
001000
100000
000000
,
001000
010000
001000
000001
100000
000001
001000
100000
,
000100
000000
001000
000000
000010
100000
001000
100000
,
000100
100000
000000
001000
000100
000010
100000
000000
,
000001
000001
000000
000000
001000
000100
010000
000000
,
001000
000000
101000
000000
100000
000100
001000
000000
,
000001
000100
001000
010000
,
000100
000000
000000
000100
001000
000000
000000
000000
000001
000000
000000
000001
100000
000000
000000
000000
,
100000
001000
100000
000000
001000
000001
001000
000000
,
001000
010000
001000
000000
001000
000010
001000
000000
,
100000
100000
000100
000000
001000
001000
000010
000000
,
100000
001000
000001
001000
100000
001000
000010
000000
,
000001
000001
001000
000000
100000
100000
001000
000000
,
000001
100000
000001
000100
001000
100000
000001
000000
,
000001
100000
000000
000000
100000
001000
100000
000000
,
001100
100001
001100
010010
,
100000
000000
001000
000001
001000
000000
000000
001000
,
100000
000100
001000
000010
000000
000000
000000
000100
,
000001
001000
000100
100000
000000
001000
000100
000001
,
000000
001000
000000
000000
000000
000000
001000
000100
,
100000
001000
000001
001000
100000
000000
000000
000001
,
000100
000001
001000
100000
000000
000000
000000
100000
,
001000
100000
001000
000100
000000
000100
010000
000001
,
000000
000000
000000
000000
000000
000100
001000
100000
,
100001
000000
000000
000000
,
100000
001000
100000
001000
000100
000000
000000
000100
,
000001
001000
000100
010000
000000
000000
000000
010000
,
000100
001000
000010
100000
000000
001000
000001
001000
,
000000
100000
000000
000000
000000
000000
000100
001000
,
000010
000100
001000
100000
000001
000000
000000
000001
,
000100
000001
001000
000100
000000
000000
000000
000100
,
100000
000100
001000
000010
000000
010000
001000
000001
,
001000
000000
100001
000000
000001
001000
000100
100000
;

//---------------dance-solo - ----------------
#NOTEDATA:;
#CHARTNAME:;
#STEPSTYPE:dance-solo;
#DESCRIPTION:;
#CHARTSTYLE:;
#DIFFICULTY:Easy;
#METER:3;
#RADARVALUES:0.164744,0.199142,0.034169,0.000000,0.000000,135.000000,131.000000,4.000000,0.000000,0.000000,0.000000,0.000000,0.000000,0.000000,0.164744,0.199142,0.034169,0.000000,0.000000,135.000000,131.000000,4.000000,0.000000,0.000000,0.000000,0.000000,0.000000,0.000000;
#CREDIT:;
#DISPLAYBPM:100.000000;
#NOTES:
// measure 0
000000
000000
000000
000000
,  // measure 1
000000
000000
000000
000000
,  // measure 2
000000
000000
000000
000000
,  // measure 3
000000
000000
000000
000000
,  // measure 4
100000
000000
001000
000000
,  // measure 5
000010
001000
100000
000000
,  // measure 6
000010
001000
100000
001000
,  // measure 7
000001
100000
000000
001000
,  // measure 8
000100
000000
000001
000000
,  // measure 9
001000
100000
001000
000000
,  // measure 10
001000
000010
000100
001000
,  // measure 11
100000
000000
000000
000000
000000
100000
000000
000001
,  // measure 12
000000
000000
000000
000000
,  // measure 13
000000
000000
000000
000000
,  // measure 14
100001
000001
001000
000100
,  // measure 15
100000
001000
000100
001000
,  // measure 16
100000
100000
000001
000001
,  // measure 17
001000
000000
000100
100000
,  // measure 18
000100
000000
001000
000010
,  // measure 19
100000
001000
000100
001000
,  // measure 20
100000
100000
000001
001000
,  // measure 21
000001
000000
100000
000000
,  // measure 22
000001
001000
000010
010000
,  // measure 23
000100
100000
001000
000100
,  // measure 24
000001
001000
100000
001000
,  // measure 25
000001
100000
001000
000100
,  // measure 26
000001
000001
001000
000100
,  // measure 27
010000
001000
100000
001000
,  // measure 28
000100
000000
000001
000001
,  // measure 29
100001
000000
000000
000000
,  // measure 30
100000
000000
001000
000000
,  // measure 31
000001
001000
010000
000000
,  // measure 32
000100
001000
100000
001000
,  // measure 33
000001
100000
000000
001000
,  // measure 34
000100
000000
000001
000000
,  // measure 35
001000
000100
010000
000000
,  // measure 36
001000
000100
000001
001000
,  // measure 37
000001
000000
000000
000000
000000
100000
000000
000001
,  // measure 38
000000
000000
000000
000000
,  // measure 39
101000
100000
000100
000000
,  // measure 40
000100
001000
100000
000000
,  // measure 41
100000
001000
000010
010000
,  // measure 42
001000
000001
000000
000001
,  // measure 43
001000
010000
010100
000000
,  // measure 44
000100
001000
100000
000000
,  // measure 45
100000
001000
000001
000100
,  // measure 46
100000
000000
000100
000000
000010
010000
000000
000000
;
