#TITLE:Can't Take My Eyes Off Of You;
#SUBTITLE:;
#ARTIST:Frankie Valli;
#TITLETRANSLIT:;
#SUBTITLETRANSLIT:;
#ARTISTTRANSLIT:;
#GENRE:;
#CREDIT:;
#BANNER:Can't Take My Eyes Off Of You-bn.png;
#BACKGROUND:Can't Take My Eyes Off Of You-bg.png;
#LYRICSPATH:;
#CDTITLE:;
#MUSIC:Can't Take My Eyes Off Of You.ogg;
#OFFSET:-0.448667;
#SAMPLESTART:87.482002;
#SAMPLELENGTH:20.000000;
#SELECTABLE:YES;
#DISPLAYBPM:104.000000:144.000000;
#BPMS:0.000000=108.433998
,2.000000=112.922997
,4.000000=104.407997
,6.000000=122.448990
,8.000000=107.142998
,9.000000=113.065002
,10.000000=120.320992
,11.000000=115.385002
,12.000000=124.827003
,13.000000=107.014999
,14.000000=122.615990
,15.000000=114.503998
,16.000000=111.801003
,18.000000=118.264999
,20.000000=105.510002
,22.000000=122.615990
,24.000000=109.889999
,25.000000=119.839996
,26.000000=116.732002
,27.000000=113.779999
,28.000000=122.783005
,29.000000=119.522003
,30.000000=123.626007
,31.000000=126.403999
,32.000000=109.488998
,33.000000=112.781998
,34.000000=120.160004
,36.000000=124.827003
,38.000000=113.779999
,40.000000=144.462006
,41.000000=107.783997
,42.000000=139.535004
,43.000000=118.264999
,44.000000=125.174004
,45.000000=117.339996
,46.000000=124.999992
,48.000000=129.309998
,49.000000=116.580002
,50.000000=120.968002
,52.000000=128.388000
,53.000000=119.522003
,54.000000=126.403999
,55.000000=127.841003
,56.000000=124.827003
,57.000000=116.429001
,58.000000=128.022995
,59.000000=121.130989
,60.000000=124.827003
,61.000000=131.386993
,62.000000=116.732002
,63.000000=121.786011
,64.000000=130.057999
,65.000000=117.801003
,66.000000=126.582001
,67.000000=121.786011
,68.000000=124.827003
,69.000000=122.783005
,70.000000=124.827003
,72.000000=128.570999
,73.000000=121.622002
,74.000000=123.795990
,75.000000=117.339996
,76.000000=135.134995
,77.000000=116.278999
,78.000000=128.940002
,80.000000=126.227005
,81.000000=118.264999
,82.000000=126.938995
,83.000000=122.783005
,84.000000=132.548004
,85.000000=117.339996
,86.000000=123.457001
,87.000000=126.938995
,88.000000=125.697998
,89.000000=118.420998
,90.000000=120.968002
,92.000000=125.697998
,93.000000=118.420998
,94.000000=128.022995
,95.000000=123.119003
,96.000000=124.481003
,97.000000=116.128998
,98.000000=126.582001
,99.000000=120.481995
,100.000000=128.755005
,101.000000=121.130989
,102.000000=126.761002
,103.000000=121.293999
,104.000000=131.195007
,105.000000=115.681000
,106.000000=130.623993
,107.000000=122.116997
,108.000000=128.570999
,109.000000=119.047997
,110.000000=127.118996
,112.000000=131.772003
,113.000000=112.080002
,114.000000=134.932999
,115.000000=120.481995
,116.000000=131.003998
,117.000000=116.128998
,118.000000=130.813995
,119.000000=122.951004
,120.000000=131.003998
,121.000000=123.119003
,122.000000=128.022995
,123.000000=120.481995
,124.000000=129.125000
,125.000000=123.457001
,126.000000=129.309998
,127.000000=116.580002
,128.000000=127.118996
,129.000000=119.681000
,130.000000=131.003998
,131.000000=124.481003
,132.000000=126.403999
,133.000000=120.968002
,134.000000=124.653999
,135.000000=121.293999
,136.000000=134.128006
,137.000000=123.795990
,138.000000=124.999992
,140.000000=132.158997
,141.000000=127.660004
,142.000000=122.116997
,143.000000=126.938995
,144.000000=130.434998
,145.000000=117.186996
,146.000000=131.964996
,147.000000=120.320992
,148.000000=132.938995
,149.000000=120.160004
,150.000000=128.940002
,151.000000=119.362999
,152.000000=123.626007
,153.000000=122.951004
,154.000000=130.434998
,155.000000=120.642998
,156.000000=128.022995
,157.000000=121.130989
,158.000000=129.682999
,159.000000=123.967010
,160.000000=125.873993
,161.000000=121.786011
,162.000000=129.125000
,163.000000=118.889999
,164.000000=125.174004
,165.000000=123.119003
,166.000000=128.205002
,167.000000=120.642998
,168.000000=124.653999
,170.000000=122.282997
,174.000000=114.795998
,176.000000=123.967010
,177.000000=125.347992
,178.000000=127.479004
,179.000000=121.293999
,180.000000=117.801003
,182.000000=127.660004
,184.000000=122.116997
,186.000000=123.119003
,188.000000=122.116997
,190.000000=123.626007
,192.000000=119.839996
,194.000000=126.761002
,196.000000=130.434998
,197.000000=123.626007
,198.000000=123.288002
,199.000000=121.622002
,200.000000=141.955994
,201.000000=109.488998
,202.000000=120.968002
,204.000000=125.697998
,206.000000=125.347992
,207.000000=118.420998
,208.000000=131.772003
,209.000000=123.457001
,210.000000=123.119003
,212.000000=122.282997
,214.000000=120.805008
,216.000000=120.642998
,218.000000=125.697998
,220.000000=122.282997
,224.000000=124.138000
,226.000000=125.347992
,228.000000=124.308998
,230.000000=122.783005
,232.000000=122.951004
,234.000000=120.160004
,236.000000=121.130989
,238.000000=122.282997
,240.000000=123.967010
;
#STOPS:
;
#BGCHANGES:;
#KEYSOUNDS:;
#ATTACKS:;

//---------------dance-single - x scale 11----------------
#NOTES:
     dance-single:
     :
     Hard:
     8:
     0.461362,0.501776,0.446023,0.214752,0.008260,391.000000,337.000000,54.000000,26.000000,0.000000,0.000000,0.461362,0.501776,0.446023,0.214752,0.008260,391.000000,337.000000,54.000000,26.000000,0.000000,0.000000:
// measure 0
0000
0000
0000
0000
,  // measure 1
0000
0000
0000
0000
,  // measure 2
0000
0000
0000
0000
,  // measure 3
0000
0000
0000
0000
,  // measure 4
1020
0000
0000
0100
0200
0000
0330
0000
,  // measure 5
0102
0000
0000
1000
2000
0000
3003
0000
,  // measure 6
1001
0100
0000
0110
0000
0010
1000
0001
,  // measure 7
1000
0010
0100
0001
1000
0100
0010
0001
,  // measure 8
0100
0000
0010
1000
0001
0011
0000
1100
,  // measure 9
0000
1000
0001
0000
0100
0010
1000
0000
,  // measure 10
0001
0000
0100
0010
1000
1100
0000
0101
,  // measure 11
0000
0010
0100
0000
0001
1000
0100
0000
,  // measure 12
0010
0000
1000
0100
0001
0011
0000
1010
,  // measure 13
0000
1000
0100
0000
1000
0001
0010
0000
,  // measure 14
0001
0000
0010
0100
1000
1001
0000
0110
,  // measure 15
0000
0100
0001
0000
1000
0001
0010
0000
,  // measure 16
0010
0000
0100
0001
1000
1001
0000
0101
,  // measure 17
0000
0010
1000
0000
0100
1000
0001
0000
,  // measure 18
1000
0000
0010
0100
0001
0011
0000
1100
,  // measure 19
0000
0001
0100
0000
0001
1000
0010
0000
,  // measure 20
0100
0000
0001
1000
0010
1010
0000
0110
,  // measure 21
0000
1000
0010
0000
1000
0100
0001
0000
,  // measure 22
0110
0010
0000
1001
0000
1000
0001
0100
,  // measure 23
0001
0010
0100
1000
0001
0100
0010
1000
,  // measure 24
1010
0000
0010
1000
0100
0010
0001
0100
,  // measure 25
1000
0000
0001
1000
0010
0100
0101
0000
,  // measure 26
0011
0000
0010
0001
0100
0010
1000
0001
,  // measure 27
0010
0000
0001
1000
0100
1000
1100
0000
,  // measure 28
0011
0000
0100
0001
0010
0001
1000
0100
,  // measure 29
0010
0000
1000
0100
0010
0001
1001
0000
,  // measure 30
1010
0000
0100
0010
1000
0100
0010
0001
,  // measure 31
1000
0000
0001
0100
0001
0010
0011
0000
,  // measure 32
0110
0000
0100
1000
0100
0010
0001
1000
,  // measure 33
0001
0000
1000
0010
0100
0001
1100
0000
,  // measure 34
1001
0000
0010
1000
0100
0010
0001
0100
,  // measure 35
0001
0000
1000
0100
0010
0001
0101
0000
,  // measure 36
1100
0000
1000
0010
0100
0001
0010
0100
,  // measure 37
1010
0000
1000
0001
0100
0010
0100
0001
,  // measure 38
0011
1000
0000
0110
0000
0010
0100
0001
,  // measure 39
0010
0000
0001
0000
1000
0000
0010
0000
1000
0001
1000
0001
0100
0000
0100
0000
,  // measure 40
0120
1030
0210
0301
,  // measure 41
1002
0000
0103
2001
0000
3010
1000
0100
,  // measure 42
1200
1300
0102
0103
,  // measure 43
2020
0000
0000
0030
,  // measure 44
3010
0010
0100
0100
0001
0001
1000
1000
,  // measure 45
2010
0010
3000
0012
0000
0103
0001
1000
,  // measure 46
0001
1000
0010
0100
0001
0010
0100
1000
,  // measure 47
1200
1000
0300
0021
0000
0031
0010
0100
,  // measure 48
1000
0010
0100
0001
1000
0100
0010
0001
,  // measure 49
0010
0001
0100
0001
1000
0001
0101
0000
,  // measure 50
0010
1000
0100
0010
0001
0100
1000
0000
,  // measure 51
1001
0100
0010
1000
0000
1000
0002
0000
,  // measure 52
2003
3200
0320
0031
,  // measure 53
0012
1000
0003
0201
0000
0310
0100
0001
,  // measure 54
0100
0001
0010
0001
1000
0100
1000
0010
,  // measure 55
2010
0100
3000
0120
0000
1030
0001
0010
,  // measure 56
0001
0100
0010
1000
0100
0010
0001
0100
,  // measure 57
0010
0100
0001
1000
0100
0010
0001
0000
,  // measure 58
0010
0001
0100
0010
1000
0100
0001
0000
,  // measure 59
2200
0000
0000
0000
,  // measure 60
0000
0000
0000
3300
;
