#TITLE:BAAM;
#SUBTITLE:;
#ARTIST:모모랜드;
#TITLETRANSLIT:;
#SUBTITLETRANSLIT:;
#ARTISTTRANSLIT:MOMOLAND;
#GENRE:;
#CREDIT:;
#BANNER:[Round A] - BAAM.png;
#BACKGROUND:[Round A] - BAAM-bg.png;
#LYRICSPATH:;
#CDTITLE:;
#MUSIC:[Round A] - BAAM.ogg;
#OFFSET:-0.001000;
#SAMPLESTART:67.326004;
#SAMPLELENGTH:12.000000;
#SELECTABLE:YES;
#BPMS:0.000000=126.999992
;
#STOPS:
;
#BGCHANGES:;
#KEYSOUNDS:;
#ATTACKS:;

//---------------dance-single - ----------------
#NOTES:
     dance-single:
     :
     Hard:
     7:
     0.449760,0.464816,0.243938,0.236315,0.076231,413.000000,381.000000,32.000000,31.000000,0.000000,0.000000,0.449760,0.464816,0.243938,0.236315,0.076231,413.000000,381.000000,32.000000,31.000000,0.000000,0.000000:
// measure 0
0000
0000
0000
0000
,  // measure 1
0000
0000
0000
0000
,  // measure 2
0000
0000
0000
0000
,  // measure 3
0000
0000
0000
0000
,  // measure 4
1002
0000
0000
0013
0000
0000
0100
0000
0010
0000
0001
0000
1000
0000
0010
0000
,  // measure 5
0100
0000
0000
0010
1000
0000
0001
0000
0010
0000
0100
0000
0010
0000
0001
0000
,  // measure 6
2001
0000
0000
3100
0000
0000
0010
0000
0001
0000
0100
0000
0100
0000
0100
0000
,  // measure 7
0000
1001
0000
1001
,  // measure 8
1020
0000
0000
0130
0000
0000
0010
0000
1000
0000
0100
0000
1000
0000
0001
0000
,  // measure 9
0010
0000
0000
0100
0010
0000
0001
0000
1000
0000
0010
0000
0100
0000
0001
0000
,  // measure 10
1002
0000
0000
0013
0000
0000
0100
0000
1000
0000
0010
0000
0010
0000
0010
0000
,  // measure 11
0000
1001
0000
1001
,  // measure 12
0001
0000
1000
0000
0010
0100
0010
0000
,  // measure 13
0100
0010
1000
0100
0010
0001
1000
0001
,  // measure 14
0100
0000
0100
0000
0100
0010
1000
0001
,  // measure 15
0200
0020
0330
0000
0200
0020
0330
0000
,  // measure 16
1000
0000
0001
0000
0010
0100
0010
0000
,  // measure 17
0100
1000
0010
1000
0100
0010
0001
1000
,  // measure 18
0010
0000
0010
0000
0010
0100
0001
1000
,  // measure 19
0200
0020
0330
0000
0010
0100
0010
0001
,  // measure 20
1000
0000
1001
0000
0001
0100
0010
1000
,  // measure 21
0100
0000
0011
0000
0001
1000
0100
1000
,  // measure 22
0010
0101
0001
1100
,  // measure 23
1000
0100
0001
0100
1000
0100
0010
0001
,  // measure 24
1000
0000
0011
0000
0001
0100
0010
1000
,  // measure 25
0010
0000
1100
0000
0000
1000
0001
0010
,  // measure 26
0000
0001
0100
1000
0100
0000
0010
1000
,  // measure 27
0000
0100
0001
0100
1000
0000
0001
0000
,  // measure 28
2000
3010
0200
0301
,  // measure 29
0002
0000
0013
0000
0100
0100
0100
0000
,  // measure 30
0020
0031
2000
3100
,  // measure 31
0010
0000
0000
0001
0100
0100
0100
0000
,  // measure 32
0010
0100
0010
0100
0010
1000
0000
0000
,  // measure 33
0100
0010
0100
0010
0100
1000
0000
0000
,  // measure 34
0100
0010
0001
0100
1000
0100
0010
2000
,  // measure 35
0002
0000
0000
0000
3003
1000
0100
0010
,  // measure 36
0012
0000
0100
0100
0103
0001
0010
0100
,  // measure 37
2100
0000
0001
0001
3001
0000
1000
0001
,  // measure 38
0010
0100
1000
0001
0100
0001
0010
0100
,  // measure 39
0000
0010
0001
1000
0100
1000
0010
0100
,  // measure 40
1020
0000
0100
0100
0130
0010
0100
0001
,  // measure 41
0001
0010
0100
1000
0001
1000
0000
0000
,  // measure 42
0001
1000
0100
0000
0010
0100
1000
0001
,  // measure 43
0000
1000
0000
0001
0000
1000
0000
0001
,  // measure 44
1000
0100
0000
0000
0010
0001
0000
0000
1001
0000
0000
0000
0110
0000
0000
0000
,  // measure 45
0001
0001
0100
0010
1000
0100
0001
0100
,  // measure 46
1000
0000
0000
1000
0000
0000
2000
0000
0001
0000
0000
0001
0000
0000
0002
0000
,  // measure 47
0000
3003
0000
0000
,  // measure 48
0001
0010
0000
0000
0100
1000
0000
0000
1001
0000
0000
0000
0110
0000
0000
0000
,  // measure 49
0010
0100
1000
0010
0100
0001
1000
0010
,  // measure 50
0100
0000
0000
0100
0000
0000
0200
0000
0010
0000
0000
0010
0000
0000
0020
0000
,  // measure 51
0000
0000
0330
0000
0100
0010
1000
0001
,  // measure 52
0021
0000
0100
0100
0130
0010
0001
1000
,  // measure 53
1020
0000
0100
0100
0130
0000
0010
0100
,  // measure 54
0001
1000
0100
0010
0001
0100
0001
1000
,  // measure 55
0000
0001
0010
1000
0010
0100
0010
0001
,  // measure 56
1002
0000
0010
0010
0013
0001
0010
0100
,  // measure 57
1000
1000
0100
1000
0010
0100
0000
0000
,  // measure 58
0010
0001
0010
1000
0100
0010
0001
1000
,  // measure 59
0000
0001
0000
1000
0000
0001
0000
1000
,  // measure 60
0102
0000
0000
0013
0000
0000
0100
0000
0010
0000
0001
0000
0100
0000
0010
0000
,  // measure 61
1000
0000
0000
0001
0010
0000
0001
0000
1000
0000
0100
0000
1000
0000
0010
0000
,  // measure 62
0120
0000
0000
1030
0000
0000
0100
0000
1000
0000
0001
0000
0001
0000
0001
0000
,  // measure 63
0000
0110
0000
0110
,  // measure 64
1020
0000
0000
0130
0000
0000
0010
0000
0100
0000
0001
0000
0010
0000
0100
0000
,  // measure 65
0010
0000
0000
0100
1000
0000
0010
0000
0100
0000
0001
0000
0010
0000
0001
0000
,  // measure 66
1002
0000
0000
0103
0000
0000
0001
0000
0010
0000
0100
0000
0100
0000
0100
0000
,  // measure 67
0000
0110
0000
0110
;

//---------------dance-single - ----------------
#NOTES:
     dance-single:
     :
     Medium:
     5:
     0.312545,0.413170,0.236315,0.068607,0.015246,287.000000,256.000000,31.000000,9.000000,0.000000,0.000000,0.312545,0.413170,0.236315,0.068607,0.015246,287.000000,256.000000,31.000000,9.000000,0.000000,0.000000:
// measure 0
0000
0000
0000
0000
,  // measure 1
0000
0000
0000
0000
,  // measure 2
0000
0000
0000
0000
,  // measure 3
0000
0000
0000
0000
,  // measure 4
1001
0001
0010
0001
,  // measure 5
0100
0001
1000
0100
,  // measure 6
0010
0000
0100
0000
1000
0001
0100
0001
,  // measure 7
0000
1001
0000
1001
,  // measure 8
0110
0010
1000
0010
,  // measure 9
0100
0001
0010
0001
,  // measure 10
1000
0000
0100
0000
1000
0001
0100
0001
,  // measure 11
0000
1001
0000
1001
,  // measure 12
0001
0000
1000
0000
0010
1000
0010
0000
,  // measure 13
1000
0100
1000
0001
,  // measure 14
0100
0100
0100
0010
,  // measure 15
1000
0002
0003
0000
1000
0002
0003
0000
,  // measure 16
1000
0000
0001
0000
0010
0100
0010
0000
,  // measure 17
0100
0010
0001
0100
,  // measure 18
0010
0010
0010
1000
,  // measure 19
0001
0200
0300
0000
0010
0000
1000
0000
,  // measure 20
1001
0001
0010
0100
,  // measure 21
1001
1000
0100
0010
,  // measure 22
1001
0100
1001
0010
,  // measure 23
1001
0110
1001
0110
,  // measure 24
1010
0101
0001
0010
,  // measure 25
0110
0011
0001
0100
,  // measure 26
0010
0000
1000
0001
1000
0000
0100
0000
,  // measure 27
0010
0000
0001
1000
0001
0000
0100
0000
,  // measure 28
0001
0010
0100
1000
,  // measure 29
0001
0000
0010
0000
0100
0010
0100
0000
,  // measure 30
0010
0001
1000
0100
,  // measure 31
0010
0000
0000
0100
1000
0001
1000
0000
,  // measure 32
0001
0100
0020
0030
,  // measure 33
1000
0001
0200
0300
,  // measure 34
0001
1000
0010
0100
,  // measure 35
2002
0000
3003
0000
,  // measure 36
1000
0000
0001
0100
0001
0000
0010
0000
,  // measure 37
0100
0000
0010
0001
0010
0000
0001
0000
,  // measure 38
0100
0001
1000
0100
,  // measure 39
0010
0100
1000
0010
,  // measure 40
0100
0000
0001
0010
0001
0000
0100
0000
,  // measure 41
0010
1000
0010
0000
,  // measure 42
0100
0001
1000
0100
,  // measure 43
0010
0100
1000
0001
,  // measure 44
0101
1010
0101
0000
,  // measure 45
1000
1000
0001
0001
,  // measure 46
1000
0000
0000
1000
0000
0000
0001
0000
0010
0000
0000
0010
0000
0000
0200
0000
,  // measure 47
0000
0300
0000
0000
,  // measure 48
1010
0101
1010
0000
,  // measure 49
1000
0001
0010
0001
,  // measure 50
0100
0000
0000
0100
0000
0000
0010
0000
1000
0000
0000
1000
0000
0000
0002
0000
,  // measure 51
0000
0003
0000
0010
,  // measure 52
0100
0000
1000
0001
1000
0000
0010
0000
,  // measure 53
0100
0000
0001
0100
0001
0000
0100
0000
,  // measure 54
0010
1000
0100
0010
,  // measure 55
0100
1000
0001
0100
,  // measure 56
0010
0000
1000
0001
1000
0000
0001
0000
,  // measure 57
0100
0010
1000
0000
,  // measure 58
0100
1000
0001
0010
,  // measure 59
0001
1000
0010
1000
,  // measure 60
1001
1000
0100
0100
,  // measure 61
1000
0001
0010
0001
,  // measure 62
0100
0000
0010
0000
1000
0001
0100
0001
,  // measure 63
0000
1001
0000
1001
,  // measure 64
0110
0010
0100
0001
,  // measure 65
1000
0100
1000
0010
,  // measure 66
1000
0000
0001
0000
0010
0100
1000
0100
,  // measure 67
0000
1001
0000
1001
;

//---------------dance-single - ----------------
#NOTES:
     dance-single:
     :
     Easy:
     3:
     0.212357,0.309877,0.152461,0.053361,0.000000,195.000000,175.000000,20.000000,7.000000,0.000000,0.000000,0.212357,0.309877,0.152461,0.053361,0.000000,195.000000,175.000000,20.000000,7.000000,0.000000,0.000000:
// measure 0
0000
0000
0000
0000
,  // measure 1
0000
0000
0000
0000
,  // measure 2
0000
0000
0000
0000
,  // measure 3
0000
0000
0000
0000
,  // measure 4
1000
0000
0001
0000
,  // measure 5
1000
0001
1000
0010
,  // measure 6
0100
0000
0001
0000
,  // measure 7
0000
1001
0000
1001
,  // measure 8
0001
0000
0010
0000
,  // measure 9
0001
0100
0001
1000
,  // measure 10
0100
0000
1000
0001
,  // measure 11
0000
0110
0000
0110
,  // measure 12
1000
0000
0010
0000
,  // measure 13
0100
0000
0001
0000
,  // measure 14
0010
0010
0010
0001
,  // measure 15
1000
0000
1000
0000
,  // measure 16
0001
0000
1000
0000
,  // measure 17
0010
1000
0010
0100
,  // measure 18
0001
0001
0001
0000
,  // measure 19
1000
0000
0001
0000
,  // measure 20
0100
1001
0000
0000
,  // measure 21
0010
1001
0000
0000
,  // measure 22
1001
0000
0110
0000
,  // measure 23
0010
0010
0010
0000
,  // measure 24
1001
0000
0000
0000
,  // measure 25
0110
0000
0000
0000
,  // measure 26
0010
0010
0001
0000
,  // measure 27
1000
1000
0100
0000
,  // measure 28
1000
0000
0001
0000
,  // measure 29
0100
0000
0020
0030
,  // measure 30
1000
0000
0001
0000
,  // measure 31
1000
0000
0200
0300
,  // measure 32
0010
0001
0010
0000
,  // measure 33
0001
1000
0001
0000
,  // measure 34
1000
0010
0100
0001
,  // measure 35
0020
0000
0000
0030
,  // measure 36
0100
0010
0010
0001
,  // measure 37
1000
0010
0010
0100
,  // measure 38
0001
1000
0100
1000
,  // measure 39
0000
0001
1000
0010
,  // measure 40
0100
0001
0001
0100
,  // measure 41
0010
1000
0010
0000
,  // measure 42
0100
0001
1000
0100
,  // measure 43
1000
0001
0010
0100
,  // measure 44
1001
0110
1001
0000
,  // measure 45
1000
0001
0010
0001
,  // measure 46
0200
0000
0320
0000
,  // measure 47
0030
0000
0000
0000
,  // measure 48
1001
0110
1001
0000
,  // measure 49
1000
0001
0010
0001
,  // measure 50
0200
0000
0320
0000
,  // measure 51
0030
0000
0000
0000
,  // measure 52
1000
0001
0001
0010
,  // measure 53
0100
0010
0010
0100
,  // measure 54
1000
0010
0100
0001
,  // measure 55
0000
1000
0001
0010
,  // measure 56
0100
0010
0010
0100
,  // measure 57
1000
0010
0100
0000
,  // measure 58
0010
1000
0001
0010
,  // measure 59
0000
0001
0000
1000
,  // measure 60
0010
0000
1000
0000
,  // measure 61
0100
1000
0010
0100
,  // measure 62
0001
0000
1000
0000
,  // measure 63
0000
1001
0000
1001
,  // measure 64
0001
0000
0010
0000
,  // measure 65
0001
0100
0001
0010
,  // measure 66
0100
0000
1000
0001
,  // measure 67
0000
0110
0000
0110
;

//---------------dance-single - ----------------
#NOTES:
     dance-single:
     :
     Beginner:
     1:
     0.102367,0.180762,0.060984,0.000000,0.000000,94.000000,86.000000,8.000000,0.000000,0.000000,0.000000,0.102367,0.180762,0.060984,0.000000,0.000000,94.000000,86.000000,8.000000,0.000000,0.000000,0.000000:
// measure 0
0000
0000
0000
0000
,  // measure 1
0000
0000
0000
0000
,  // measure 2
0000
0000
0000
0000
,  // measure 3
0000
0000
0000
0000
,  // measure 4
1000
0000
0000
0000
,  // measure 5
1000
0000
0000
0000
,  // measure 6
0001
0000
0000
0000
,  // measure 7
0000
1001
0000
1001
,  // measure 8
0010
0000
0000
0000
,  // measure 9
0100
0000
0000
0000
,  // measure 10
0001
0000
0000
0000
,  // measure 11
0000
1001
0000
1001
,  // measure 12
1000
0000
0000
0000
,  // measure 13
0010
0000
0000
0000
,  // measure 14
0100
0000
0000
0000
,  // measure 15
0001
0000
0001
0000
,  // measure 16
1000
0000
0000
0000
,  // measure 17
0100
0000
0000
0000
,  // measure 18
1000
0000
0000
0000
,  // measure 19
0001
0000
1000
0000
,  // measure 20
0001
0000
0000
0000
,  // measure 21
0010
0000
0000
0000
,  // measure 22
0001
0000
1000
0000
,  // measure 23
0010
0010
0010
0000
,  // measure 24
0100
0000
0000
0000
,  // measure 25
0001
0000
0000
0000
,  // measure 26
1000
1000
1000
0000
,  // measure 27
0001
0001
0001
0000
,  // measure 28
0100
0000
0000
0000
,  // measure 29
0010
0000
0000
0000
,  // measure 30
1000
0000
0000
0000
,  // measure 31
0001
0000
0000
0000
,  // measure 32
0010
0000
0000
0000
,  // measure 33
0001
0000
0000
0000
,  // measure 34
1000
0000
0100
0000
,  // measure 35
0010
0000
0000
0000
,  // measure 36
0100
0000
0000
0000
,  // measure 37
0010
0000
0000
0000
,  // measure 38
0001
0000
1000
0000
,  // measure 39
0001
0000
0000
0000
,  // measure 40
0100
0000
0000
0000
,  // measure 41
0010
0000
0000
0000
,  // measure 42
1000
0000
0010
0000
,  // measure 43
0100
0000
0000
0000
,  // measure 44
0001
0001
0001
0000
,  // measure 45
1000
0000
0000
0000
,  // measure 46
0010
0000
0010
0000
,  // measure 47
0000
0000
0000
0000
,  // measure 48
0100
0100
0100
0000
,  // measure 49
0001
0000
0000
0000
,  // measure 50
1000
0000
1000
0000
,  // measure 51
0000
0000
0000
0000
,  // measure 52
1000
0000
0000
0000
,  // measure 53
0010
0000
0000
0000
,  // measure 54
0100
0000
0001
0000
,  // measure 55
0010
0000
0000
0000
,  // measure 56
0001
0000
0000
0000
,  // measure 57
1000
0000
0000
0000
,  // measure 58
0010
0000
0100
0000
,  // measure 59
0010
0000
0000
0000
,  // measure 60
1000
0000
0000
0000
,  // measure 61
0001
0000
0000
0000
,  // measure 62
0010
0000
0000
0000
,  // measure 63
0000
1001
0000
1001
,  // measure 64
0100
0000
0000
0000
,  // measure 65
0010
0000
0000
0000
,  // measure 66
1000
0000
0000
0000
,  // measure 67
0000
1001
0000
1001
;
